osu file format v14

[General]
AudioFilename: audio.mp3
AudioLeadIn: 0
PreviewTime: 48030
Countdown: 1
SampleSet: Normal
StackLeniency: 0.7
Mode: 0
LetterboxInBreaks: 0
WidescreenStoryboard: 1

[Editor]
Bookmarks: 43385,44739,44836,44933,45030,45127,45223,45320,45417,45514,46481,48030,49578,50159,51514,51610,51707,51804,51901,51997,52094,52191,52288,54223,54320,54417,54514,54610,65836,66417,66610,66804,67385,69127,74352,96030,99127,100675,101449,111417,116159,117707,122352,122933,123901,126997,128546,129127,129223,130094,135901,139385
DistanceSpacing: 1.3
BeatDivisor: 4
GridSize: 16
TimelineZoom: 2.5

[Metadata]
Title:Madeleine Rose
TitleUnicode:Madeleine Rose
Artist:Sullivan King
ArtistUnicode:Sullivan King
Creator:AbstractParadox
Version:AR 9
Source:
Tags:
BeatmapID:1759023
BeatmapSetID:839944

[Difficulty]
HPDrainRate:3.4
CircleSize:4.2
OverallDifficulty:8.2
ApproachRate:9
SliderMultiplier:1.4
SliderTickRate:1

[Events]
//Background and Video events
0,0,"69974216_p0.png",0,0
//Break Periods
2,74542,95420
//Storyboard Layer 0 (Background)
//Storyboard Layer 1 (Fail)
//Storyboard Layer 2 (Pass)
//Storyboard Layer 3 (Foreground)
//Storyboard Sound Samples

[TimingPoints]
20,387.096774193548,4,1,0,100,1,0
12417,-133.333333333333,4,1,0,100,0,0
24804,-100,4,1,0,100,0,0
42213,-74.0740740740741,4,1,0,100,0,0
42600,-68.9655172413793,4,1,0,100,0,0
62052,-68.9655172413793,4,1,0,5,0,0
62149,-68.9655172413793,4,1,0,100,0,0
136278,-142.857142857143,4,1,0,100,0,0

[Colours]
Combo1 : 255,130,130
Combo2 : 181,6,6
Combo3 : 181,200,200
Combo4 : 95,5,21

[HitObjects]
120,133,34084,5,0,0:0:0:0:
80,280,34278,1,0,0:0:0:0:
183,214,34665,5,0,0:0:0:0:
222,362,34859,1,0,0:0:0:0:
222,362,35246,1,0,0:0:0:0:
277,97,35633,5,0,0:0:0:0:
283,80,35729,1,0,0:0:0:0:
288,63,35826,1,0,0:0:0:0:
231,182,36020,5,0,0:0:0:0:
223,158,36117,1,0,0:0:0:0:
216,134,36213,2,0,L|203:91,1,35
305,247,36407,5,0,0:0:0:0:
313,216,36504,1,0,0:0:0:0:
321,185,36600,2,0,L|331:142,1,35
213,347,36794,5,0,0:0:0:0:
199,310,36891,1,0,0:0:0:0:
186,273,36987,2,0,L|173:230,1,35
126,92,37181,6,0,P|96:73|62:64,1,70
17,158,37568,2,0,P|46:176|80:185,1,70
386,92,37955,6,0,P|415:73|449:64,1,70
495,158,38342,2,0,P|465:176|431:185,1,70
253,154,38729,6,0,B|208:135|191:99|202:66|220:48|248:42|278:42|296:49|288:92|308:105|235:161|228:210|219:251|243:295|279:324|280:326,1,420
367,236,40084,1,0,0:0:0:0:
398,99,40278,6,0,B|412:66|412:66|409:23,1,70
367,236,40665,2,0,B|352:203|352:203|355:160,1,70
393,375,41052,2,0,B|406:343|406:343|404:307,1,70
296,119,41439,5,0,0:0:0:0:
254,276,41633,1,0,0:0:0:0:
241,68,41826,1,0,0:0:0:0:
355,168,42020,1,0,0:0:0:0:
141,168,42213,6,0,P|192:131|241:121,1,94.5000003604889
349,304,42600,2,0,P|299:297|254:276,1,101.500003097534
361,114,42987,1,0,0:0:0:0:
254,276,43181,5,0,0:0:0:0:
245,236,43278,1,0,0:0:0:0:
228,198,43375,1,0,0:0:0:0:
54,62,43568,5,0,0:0:0:0:
319,83,43762,1,0,0:0:0:0:
119,133,43955,1,0,0:0:0:0:
380,182,44149,1,0,0:0:0:0:
193,193,44342,1,0,0:0:0:0:
432,308,44536,1,0,0:0:0:0:
173,341,44729,5,0,0:0:0:0:
429,217,44923,1,0,0:0:0:0:
61,219,45117,1,0,0:0:0:0:
317,343,45310,1,0,0:0:0:0:
173,97,45504,5,0,0:0:0:0:
429,221,45697,1,0,0:0:0:0:
61,219,45890,1,0,0:0:0:0:
317,95,46084,1,0,0:0:0:0:
179,266,46278,5,0,0:0:0:0:
246,37,46472,1,0,0:0:0:0:
280,16,46568,1,0,0:0:0:0:
319,24,46665,1,0,0:0:0:0:
337,60,46762,1,0,0:0:0:0:
317,95,46858,1,0,0:0:0:0:
291,127,46955,1,0,0:0:0:0:
278,165,47052,1,0,0:0:0:0:
285,205,47149,1,0,0:0:0:0:
314,246,47246,5,0,0:0:0:0:
364,240,47342,1,0,0:0:0:0:
382,192,47439,1,0,0:0:0:0:
355,148,47536,1,0,0:0:0:0:
305,135,47633,1,0,0:0:0:0:
257,150,47729,1,0,0:0:0:0:
225,189,47826,2,0,P|213:221|215:265,1,50.7500015487671
429,262,48020,5,0,0:0:0:0:
153,90,48794,5,0,0:0:0:0:
233,281,48987,1,0,0:0:0:0:
233,281,49084,1,0,0:0:0:0:
233,281,49181,2,0,L|243:222,1,50.7500015487671
359,117,49375,2,0,L|355:187,1,50.7500015487671
341,346,49568,5,0,0:0:0:0:
261,132,49762,1,0,0:0:0:0:
227,357,49955,1,0,0:0:0:0:
416,229,50149,1,0,0:0:0:0:
99,257,50342,1,0,0:0:0:0:
261,132,50536,5,0,0:0:0:0:
45,74,50729,1,0,0:0:0:0:
45,74,50923,1,0,0:0:0:0:
219,264,51117,5,0,0:0:0:0:
386,116,51310,1,0,0:0:0:0:
406,339,51504,1,0,0:0:0:0:
305,90,51698,1,0,0:0:0:0:
223,320,51891,5,0,0:0:0:0:
141,99,52084,1,0,0:0:0:0:
27,291,52278,1,0,0:0:0:0:
31,294,52471,1,0,0:0:0:0:
272,129,52665,5,0,0:0:0:0:
8,183,52858,1,0,0:0:0:0:
250,223,53053,1,0,0:0:0:0:
31,89,53246,1,0,0:0:0:0:
396,104,53439,5,0,0:0:0:0:
180,164,53632,1,0,0:0:0:0:
375,318,53827,1,0,0:0:0:0:
375,318,54020,1,0,0:0:0:0:
122,211,54213,6,0,L|193:246,1,50.7500015487671
466,271,54407,1,0,0:0:0:0:
444,284,54504,1,0,0:0:0:0:
421,295,54600,2,0,L|368:322,1,50.7500015487671
84,266,54794,6,0,L|137:293,1,50.7500015487671
438,206,54987,1,0,0:0:0:0:
407,223,55084,1,0,0:0:0:0:
376,240,55181,2,0,L|323:267,1,50.7500015487671
168,234,55375,5,0,0:0:0:0:
122,211,55471,1,0,0:0:0:0:
78,184,55568,2,0,L|11:140,1,50.7500015487671
271,348,55762,5,0,0:0:0:0:
233,108,55955,1,0,0:0:0:0:
445,281,56149,1,0,0:0:0:0:
310,80,56342,1,0,0:0:0:0:
151,346,56536,5,0,0:0:0:0:
293,149,56729,1,0,0:0:0:0:
383,359,56923,1,0,0:0:0:0:
383,359,57116,1,0,0:0:0:0:
440,133,57310,5,0,0:0:0:0:
211,219,57504,1,0,0:0:0:0:
377,77,57697,1,0,0:0:0:0:
276,300,57891,1,0,0:0:0:0:
201,6,58084,5,0,0:0:0:0:
349,201,58278,1,0,0:0:0:0:
116,146,58471,1,0,0:0:0:0:
116,146,58665,1,0,0:0:0:0:
388,284,58858,5,0,0:0:0:0:
273,68,59052,1,0,0:0:0:0:
189,299,59246,1,0,0:0:0:0:
375,142,59439,1,0,0:0:0:0:
105,259,59633,5,0,0:0:0:0:
166,24,59826,1,0,0:0:0:0:
298,235,60020,1,0,0:0:0:0:
298,235,60213,1,0,0:0:0:0:
69,150,60407,5,0,0:0:0:0:
109,143,60504,1,0,0:0:0:0:
146,128,60600,1,0,0:0:0:0:
177,96,60697,1,0,0:0:0:0:
195,58,60794,2,0,P|204:27|196:-25,1,50.7500015487671
358,46,60987,5,0,0:0:0:0:
334,79,61084,1,0,0:0:0:0:
319,116,61180,1,0,0:0:0:0:
319,160,61277,1,0,0:0:0:0:
333,199,61374,2,0,P|345:224|387:256,1,50.7500015487671
479,174,61568,6,0,P|447:164|394:172,1,50.7500015487671
333,199,61762,2,0,P|299:198|250:219,1,50.7500015487671
281,337,61956,2,0,P|305:314|324:264,1,50.7500015487671
197,76,62149,5,0,0:0:0:0:
429,163,62342,1,0,0:0:0:0:
221,250,62536,1,0,0:0:0:0:
355,39,62729,5,0,0:0:0:0:
314,299,62923,1,0,0:0:0:0:
105,163,63117,1,0,0:0:0:0:
105,163,63310,1,0,0:0:0:0:
388,317,63504,5,0,0:0:0:0:
273,97,63697,1,0,0:0:0:0:
275,306,63891,1,0,0:0:0:0:
390,86,64084,1,0,0:0:0:0:
134,197,64278,5,0,0:0:0:0:
411,195,64471,1,0,0:0:0:0:
162,81,64665,1,0,0:0:0:0:
162,81,64858,1,0,0:0:0:0:
256,362,65052,5,0,0:0:0:0:
92,167,65246,1,0,0:0:0:0:
265,347,65439,1,0,0:0:0:0:
101,152,65633,1,0,0:0:0:0:
436,334,65826,5,0,0:0:0:0:
272,139,66020,1,0,0:0:0:0:
448,321,66214,1,0,0:0:0:0:
448,321,66407,1,0,0:0:0:0:
432,119,66600,6,0,L|362:168,1,50.7500015487671
214,42,66794,1,0,0:0:0:0:
237,81,66891,1,0,0:0:0:0:
237,126,66987,2,0,P|229:164|207:199,1,50.7500015487671
293,284,67181,2,0,P|331:278|371:287,1,50.7500015487671
364,69,67375,5,0,0:0:0:0:
329,97,67472,1,0,0:0:0:0:
313,140,67568,2,0,P|307:178|316:218,1,50.7500015487671
479,301,67762,5,0,0:0:0:0:
454,256,67858,1,0,0:0:0:0:
404,245,67955,1,0,0:0:0:0:
354,258,68052,1,0,0:0:0:0:
334,305,68149,1,0,0:0:0:0:
275,59,68342,5,0,0:0:0:0:
224,301,68536,1,0,0:0:0:0:
91,57,68729,1,0,0:0:0:0:
172,350,68923,1,0,0:0:0:0:
322,106,69117,5,0,0:0:0:0:
146,282,69311,1,0,0:0:0:0:
146,282,69504,1,0,0:0:0:0:
309,42,69697,5,0,0:0:0:0:
473,236,69891,1,0,0:0:0:0:
222,274,70084,1,0,0:0:0:0:
453,169,70278,1,0,0:0:0:0:
136,166,70471,5,0,0:0:0:0:
375,80,70665,1,0,0:0:0:0:
122,100,70858,1,0,0:0:0:0:
122,100,71052,1,0,0:0:0:0:
350,317,71246,5,0,0:0:0:0:
241,88,71439,1,0,0:0:0:0:
143,324,71633,1,0,0:0:0:0:
373,218,71826,1,0,0:0:0:0:
142,41,72020,5,0,0:0:0:0:
372,147,72213,1,0,0:0:0:0:
134,239,72407,1,0,0:0:0:0:
134,239,72600,1,0,0:0:0:0:
295,41,72794,5,0,2:0:0:0:
340,43,72891,1,0,0:0:0:0:
369,77,72987,1,0,0:0:0:0:
357,121,73084,1,0,0:0:0:0:
345,165,73181,2,0,P|354:203|369:220,1,50.7500015487671
284,347,73375,2,0,P|275:309|259:291,1,50.7500015487671
83,234,73568,5,0,0:0:0:0:
88,279,73665,1,0,0:0:0:0:
116,315,73762,2,0,P|149:335|172:337,1,50.7500015487671
360,212,73955,2,0,P|380:178|382:155,1,50.7500015487671
152,172,74149,5,0,0:0:0:0:
180,214,74246,1,0,0:0:0:0:
225,235,74342,1,0,0:0:0:0:
148,154,96020,5,0,0:0:0:0:
101,286,96213,1,0,0:0:0:0:
313,201,96600,5,0,0:0:0:0:
266,69,96793,1,0,0:0:0:0:
266,69,97181,1,0,0:0:0:0:
392,58,97568,5,0,0:0:0:0:
378,73,97665,1,0,0:0:0:0:
397,78,97762,2,0,B|417:92|417:92|462:91,1,50.7500015487671
305,124,97955,21,0,0:0:0:0:
279,148,98052,1,0,0:0:0:0:
312,159,98149,2,0,B|332:173|332:173|377:172,1,50.7500015487671
209,197,98342,5,0,0:0:0:0:
171,231,98439,1,0,0:0:0:0:
218,250,98536,2,0,B|238:264|238:264|283:263,1,50.7500015487671
102,275,98729,21,0,0:0:0:0:
52,319,98826,1,0,0:0:0:0:
114,340,98923,2,0,B|134:354|134:354|179:353,1,50.7500015487671
216,172,99117,6,0,B|189:91|189:91|172:89,1,101.500003097534
57,191,99504,2,0,B|84:272|84:272|100:273,1,101.500003097534
309,176,99891,2,0,B|225:158|225:158|216:172,1,101.500003097534
246,324,100278,5,0,0:0:0:0:
371,245,100471,1,0,0:0:0:0:
358,97,100665,2,0,B|301:160|301:160|308:175,1,101.500003097534
453,225,101052,2,0,B|509:161|509:161|502:146,1,101.500003097534
308,175,101439,5,0,0:0:0:0:
196,225,101633,1,0,0:0:0:0:
103,120,101826,5,0,0:0:0:0:
222,25,102020,1,0,0:0:0:0:
196,225,102213,2,0,B|198:251|198:251|225:270|225:270|231:299|231:299|263:316,1,101.500003097534
357,177,102600,6,0,P|413:163|495:186,1,101.500003097534
133,123,102987,2,0,P|77:137|-4:114,1,101.500003097534
345,208,103375,2,0,P|403:215|472:265,1,101.500003097534
144,92,103762,2,0,P|87:85|18:35,1,101.500003097534
135,242,104149,5,0,0:0:0:0:
232,92,104342,1,0,0:0:0:0:
177,296,104536,1,0,0:0:0:0:
185,118,104729,1,0,0:0:0:0:
240,322,104923,1,0,0:0:0:0:
160,160,105117,6,0,L|135:121,2,25.3750007743836
314,324,105310,1,0,0:0:0:0:
345,64,105503,1,0,0:0:0:0:
168,305,105697,1,0,0:0:0:0:
408,202,105890,1,0,0:0:0:0:
111,169,106084,1,0,0:0:0:0:
320,327,106277,1,0,0:0:0:0:
199,45,106471,1,0,0:0:0:0:
182,288,106664,1,0,0:0:0:0:
33,64,106858,5,0,0:0:0:0:
83,364,107052,1,0,0:0:0:0:
144,45,107246,5,0,0:0:0:0:
151,350,107440,1,0,0:0:0:0:
259,25,107633,5,0,0:0:0:0:
230,329,107827,1,0,0:0:0:0:
445,18,108019,5,0,0:0:0:0:
339,304,108213,1,0,0:0:0:0:
459,146,108407,5,0,0:0:0:0:
480,99,108504,1,0,0:0:0:0:
452,56,108600,1,0,0:0:0:0:
401,51,108697,1,0,0:0:0:0:
364,86,108794,1,0,0:0:0:0:
362,136,108891,1,0,0:0:0:0:
345,183,108987,1,0,0:0:0:0:
304,214,109084,1,0,0:0:0:0:
243,206,109181,5,0,0:0:0:0:
282,159,109278,1,0,0:0:0:0:
339,139,109375,1,0,0:0:0:0:
396,158,109471,1,0,0:0:0:0:
377,216,109568,1,0,0:0:0:0:
327,250,109665,1,0,0:0:0:0:
268,266,109762,2,0,P|206:242|200:234,1,50.7500015487671
43,55,109955,1,0,0:0:0:0:
250,355,110729,5,0,0:0:0:0:
111,163,110923,1,0,0:0:0:0:
111,163,111020,1,0,0:0:0:0:
111,163,111117,2,0,B|135:181|135:181|166:243,1,50.7500015487671
353,204,111310,2,0,B|328:185|328:185|297:123,1,50.7500015487671
166,44,111504,5,0,2:0:0:0:
224,332,111697,1,0,2:0:0:0:
416,106,111891,1,0,2:0:0:0:
121,131,112084,1,0,2:0:0:0:
482,77,112278,5,0,2:0:0:0:
224,332,112471,1,0,2:0:0:0:
145,47,112665,1,0,2:0:0:0:
145,47,112858,1,0,0:0:0:0:
449,233,113052,5,0,0:0:0:0:
157,323,113246,1,0,0:0:0:0:
448,323,113439,1,0,0:0:0:0:
156,233,113633,1,0,0:0:0:0:
451,71,113826,5,0,0:0:0:0:
159,161,114020,1,0,0:0:0:0:
450,161,114213,1,0,0:0:0:0:
450,161,114407,1,0,0:0:0:0:
114,50,114600,5,0,0:0:0:0:
324,271,114794,1,0,0:0:0:0:
27,341,114987,1,0,0:0:0:0:
109,53,115181,1,0,0:0:0:0:
230,350,115375,5,0,0:0:0:0:
312,62,115569,1,0,0:0:0:0:
394,350,115762,1,0,0:0:0:0:
394,350,115956,1,0,0:0:0:0:
150,283,116149,6,0,B|137:260|137:260|131:202,1,50.7500015487671
159,26,116342,1,0,0:0:0:0:
206,45,116439,1,0,0:0:0:0:
242,80,116536,2,0,B|255:103|255:103|261:161,1,50.7500015487671
400,260,116729,2,0,B|387:237|387:237|381:179,1,50.7500015487671
450,33,116923,5,0,0:0:0:0:
431,80,117020,1,0,0:0:0:0:
396,117,117117,2,0,B|377:135|377:135|322:156,1,50.7500015487671
76,137,117310,2,0,B|94:118|94:118|149:97,1,50.7500015487671
233,229,117504,5,0,0:0:0:0:
197,266,117600,1,0,0:0:0:0:
150,283,117697,1,0,0:0:0:0:
342,46,117891,5,0,0:0:0:0:
255,337,118084,1,0,0:0:0:0:
75,89,118278,1,0,0:0:0:0:
383,262,118471,5,0,0:0:0:0:
79,297,118665,1,0,0:0:0:0:
203,20,118858,1,0,0:0:0:0:
203,20,119052,1,0,0:0:0:0:
395,343,119246,5,0,0:0:0:0:
71,83,119439,1,0,0:0:0:0:
395,343,119633,1,0,0:0:0:0:
71,83,119826,1,0,0:0:0:0:
257,350,120020,5,0,0:0:0:0:
257,350,120213,1,0,0:0:0:0:
365,64,120407,5,0,0:0:0:0:
365,64,120600,1,0,0:0:0:0:
112,315,120794,5,0,0:0:0:0:
35,21,120987,1,0,0:0:0:0:
175,353,121181,1,0,0:0:0:0:
25,89,121374,1,0,0:0:0:0:
309,317,121569,5,0,0:0:0:0:
386,23,121762,1,0,0:0:0:0:
245,355,121956,1,0,0:0:0:0:
245,355,122149,1,0,0:0:0:0:
95,94,122342,5,0,0:0:0:0:
133,40,122439,1,0,0:0:0:0:
198,31,122536,1,0,0:0:0:0:
260,53,122633,1,0,0:0:0:0:
290,111,122729,2,0,P|291:151|275:189,1,50.7500015487671
207,301,122923,5,0,0:0:0:0:
245,355,123020,1,0,0:0:0:0:
310,364,123117,1,0,0:0:0:0:
372,342,123214,1,0,0:0:0:0:
402,284,123310,2,0,P|403:243|387:205,1,50.7500015487671
215,136,123504,5,0,0:0:0:0:
152,154,123600,1,0,0:0:0:0:
119,211,123697,1,0,0:0:0:0:
148,269,123794,1,0,0:0:0:0:
212,283,123891,1,0,0:0:0:0:
401,68,124084,5,0,0:0:0:0:
305,301,124278,1,0,0:0:0:0:
111,68,124471,1,0,0:0:0:0:
408,264,124665,5,0,0:0:0:0:
105,289,124858,1,0,0:0:0:0:
382,163,125052,1,0,0:0:0:0:
382,163,125245,1,0,0:0:0:0:
43,54,125439,5,0,0:0:0:0:
275,253,125633,1,0,0:0:0:0:
155,11,125826,1,0,0:0:0:0:
230,307,126020,1,0,0:0:0:0:
507,54,126213,5,0,0:0:0:0:
275,253,126407,1,0,0:0:0:0:
395,11,126600,1,0,0:0:0:0:
395,11,126794,1,0,0:0:0:0:
269,337,126986,5,0,0:0:0:0:
135,70,127181,1,0,0:0:0:0:
65,275,127375,1,0,0:0:0:0:
345,133,127568,1,0,0:0:0:0:
175,384,127762,5,0,0:0:0:0:
42,118,127955,1,0,0:0:0:0:
345,133,128148,1,0,0:0:0:0:
345,133,128342,1,0,0:0:0:0:
123,34,128536,6,0,P|103:47|81:89,1,50.7500015487671
339,30,128729,1,0,0:0:0:0:
388,56,128826,1,0,0:0:0:0:
416,104,128923,2,0,P|419:131|408:177,1,50.7500015487671
212,246,129117,2,0,P|189:230|162:192,1,50.7500015487671
289,21,129310,5,0,0:0:0:0:
305,75,129407,1,0,0:0:0:0:
291,128,129504,2,0,P|287:137|236:170,1,50.7500015487671
70,54,129697,5,0,0:0:0:0:
124,68,129794,1,0,0:0:0:0:
167,103,129891,1,0,0:0:0:0:
183,155,129987,1,0,0:0:0:0:
182,210,130084,1,0,0:0:0:0:
377,29,130278,5,0,0:0:0:0:
313,326,130471,1,0,0:0:0:0:
179,60,130665,1,0,0:0:0:0:
452,286,130858,5,0,0:0:0:0:
123,247,131052,1,0,0:0:0:0:
456,218,131246,1,0,0:0:0:0:
456,218,131440,1,0,0:0:0:0:
103,46,131633,5,0,0:0:0:0:
328,249,131826,1,0,0:0:0:0:
56,101,132020,1,0,0:0:0:0:
278,307,132213,1,0,0:0:0:0:
413,24,132407,5,0,0:0:0:0:
345,319,132600,1,0,0:0:0:0:
270,21,132794,1,0,0:0:0:0:
270,21,132987,1,0,0:0:0:0:
106,268,133181,5,0,0:0:0:0:
430,326,133375,1,0,0:0:0:0:
64,326,133568,1,0,0:0:0:0:
388,268,133762,1,0,0:0:0:0:
88,145,133955,5,0,0:0:0:0:
445,209,134149,1,0,0:0:0:0:
42,209,134342,1,0,0:0:0:0:
399,145,134536,1,0,0:0:0:0:
178,281,134729,5,0,0:0:0:0:
123,270,134826,1,0,0:0:0:0:
97,219,134923,1,0,0:0:0:0:
129,173,135020,1,0,0:0:0:0:
183,158,135117,2,0,P|213:152|263:177,1,50.7500015487671
376,331,135310,21,0,0:0:0:0:
428,350,135407,1,0,0:0:0:0:
479,326,135504,1,0,0:0:0:0:
490,271,135601,1,0,0:0:0:0:
455,226,135698,2,0,P|426:216|373:237,1,50.7500015487671
104,306,135891,5,0,0:0:0:0:
134,353,135988,1,0,0:0:0:0:
189,358,136084,2,0,P|219:350|254:306,1,50.7500015487671
336,220,136278,22,0,B|384:174|234:84|304:42|336:-42|426:60|426:60|553:14|539:116|594:177|384:174|371:317,1,734.999977569581
371,309,139278,1,0,0:0:0:0:
371,309,139375,1,0,0:0:0:0:
