osu file format v14

[General]
AudioFilename: audio.mp3
AudioLeadIn: 0
PreviewTime: 42847
Countdown: 0
SampleSet: Soft
StackLeniency: 0.7
Mode: 0
LetterboxInBreaks: 0
WidescreenStoryboard: 1

[Editor]
DistanceSpacing: 1.5
BeatDivisor: 4
GridSize: 16
TimelineZoom: 8

[Metadata]
Title:Waratteta
TitleUnicode:笑ってた
Artist:Sukoshi
ArtistUnicode:Sukoshi
Creator:Xilver15
Version:The Origin of the World
Source:Ōban Star-Racers
Tags:yoko kanno yuho iwasato youko yuuho 菅野よう子 岩里祐穂 オーバン・スターレーサーズ space bio charge oban star racers anime japanese pop jpop
BeatmapID:2966574
BeatmapSetID:1413962

[Difficulty]
HPDrainRate:5
CircleSize:4.5
OverallDifficulty:7.5
ApproachRate:7.5
SliderMultiplier:2
SliderTickRate:1

[Events]
//Background and Video events
0,0,"maya somewhere.jpg",0,0
//Break Periods
2,111016,125741
//Storyboard Layer 0 (Background)
//Storyboard Layer 1 (Fail)
//Storyboard Layer 2 (Pass)
//Storyboard Layer 3 (Foreground)
//Storyboard Layer 4 (Overlay)
//Storyboard Sound Samples

[TimingPoints]
941,750,4,2,1,40,1,0
1691,750,4,2,1,40,1,0
45191,-83.3333333333333,4,2,1,40,0,0
46878,-125,4,2,1,40,0,0
67691,-166.666666666667,4,2,1,40,0,0
70691,-200,4,2,1,40,0,1
75941,-75.1879699248125,4,2,1,40,0,1
76691,-200,4,2,1,40,0,1
88128,-75.187969924812,4,2,1,40,0,1
88691,-200,4,2,1,40,0,1
94128,-75.187969924812,4,2,1,40,0,1
94691,-200,4,2,1,40,0,1
98066,-200,4,2,1,40,0,0
102191,-100,4,2,1,40,0,0
126566,750,4,2,1,40,1,0
127316,750,4,2,1,40,1,0
149441,-112.099654088678,4,2,1,40,0,0
151316,-103.138201567906,4,2,1,40,0,0
151878,-193.065515210535,4,2,1,40,0,0
153566,-41.4327102597684,4,2,1,40,0,0
154316,-200,4,2,1,40,0,1
159566,-66.6243067605725,4,2,1,40,0,1
160269,750,4,2,1,40,1,1
160269,-199.619244707907,4,2,1,40,0,1
164019,-200,4,2,1,40,0,1
171706,-71.4285714285659,4,2,1,40,0,1
172269,-142.85714285712,4,2,1,40,0,1
177706,-66.6666666666667,4,2,1,40,0,1
178269,-125,4,2,1,40,0,1
181831,-125,4,2,1,40,0,0
183894,845.070422535211,4,2,1,40,1,0
184316,750,4,2,1,40,1,0
184878,-100,4,2,1,50,0,0
185066,-111.111111111111,4,2,1,50,0,0
188441,-106.382978723404,4,2,1,50,0,0
203441,-124.624643870167,4,2,1,50,0,0
204566,-82.7723320743431,4,2,1,50,0,0
206441,-129.231203053484,4,2,1,50,0,0
207566,-84.5727476183166,4,2,1,50,0,0
208128,-152.255438570559,4,2,1,50,0,0
208691,-85.4700822577991,4,2,1,50,0,0
210378,-71.4285714285714,4,2,1,50,0,0
210941,-33.3333333333333,4,2,1,50,0,0
211316,-200,4,2,1,40,0,0
213566,-66.6666666666667,4,2,1,40,0,0
214292,750,4,2,1,40,1,0
216542,-183.388023612412,4,2,1,40,0,0
217292,-183.388023612412,4,2,2,40,0,0
217855,-116.279069767442,4,2,1,40,0,0
218417,-83.3333333333333,4,2,1,40,0,0
219542,-126.068796500418,4,2,1,40,0,0
220292,-82.780151901831,4,2,1,40,0,0
221605,-66.6666666666667,4,2,1,40,0,0
223292,-86.9565217391304,4,2,1,40,0,0
224042,-42.9729467023256,4,2,1,40,0,0
224980,-64.3431885509144,4,2,1,40,0,0
225355,-113.96011396012,4,2,1,40,0,0
226292,-200,4,2,1,60,0,1
231542,-143.949634405746,4,2,1,60,0,1
232667,-200,4,2,1,60,0,1
238292,-142.857142857143,4,2,1,60,0,1
243542,-66.6666666666667,4,2,1,60,0,1
244292,-142.857142857143,4,2,1,60,0,1
248980,-100,4,2,1,60,0,1
249355,-114.942528735632,4,2,1,60,0,1
250292,-111.111111111111,4,2,1,60,0,1
255542,-66.6666666666667,4,2,1,60,0,1
256292,-100,4,2,1,60,0,1
264917,-100,4,2,1,60,0,0
265292,-100,4,2,2,60,0,1
265854,-100,4,2,1,40,0,0
273503,750,4,2,1,40,1,0
277316,1124.85939257593,4,2,1,40,1,0
278499,1124.85939257593,4,2,1,40,1,0
278499,-124.043848510946,4,2,1,40,0,0
278780,-124.043848510946,4,2,1,5,0,0

[Colours]
Combo1 : 215,166,174
Combo2 : 131,172,235
Combo3 : 64,174,255
Combo4 : 200,200,200
Combo5 : 158,245,213
Combo6 : 158,91,89

[HitObjects]
202,108,941,5,2,2:0:0:0:
293,153,1128,1,0,2:0:0:0:
245,231,1316,1,0,2:0:0:0:
255,259,1691,1,4,3:2:0:0:
398,107,2253,21,0,2:0:0:0:
441,219,2441,1,2,2:0:0:0:
496,155,2628,1,0,2:0:0:0:
447,310,3003,1,0,2:0:0:0:
460,319,3191,2,0,B|414:337|382:330|382:330|390:289|353:266,1,150,0|0,3:0|2:0,2:0:0:0:
137,311,4316,1,0,2:0:0:0:
186,242,4503,1,0,2:0:0:0:
250,230,4691,2,0,P|213:261|210:310,1,100,2|0,3:2|2:0,2:0:0:0:
369,213,5253,2,0,L|487:185,1,100,0|0,2:0|2:0,2:0:0:0:
300,156,5816,1,0,2:0:0:0:
407,21,6378,53,0,2:0:0:0:
491,62,6566,1,0,2:0:0:0:
254,31,6941,1,2,2:0:0:0:
226,120,7128,1,0,2:0:0:0:
144,104,7316,1,0,2:0:0:0:
90,121,7503,1,0,2:0:0:0:
65,106,7691,1,0,3:0:0:0:
93,264,8253,21,0,2:0:0:0:
184,276,8441,2,0,P|162:288|138:293,1,50,2|0,3:2|2:0,2:0:0:0:
347,280,9003,1,0,2:0:0:0:
272,191,9191,2,0,P|315:218|363:229,1,100,2|0,2:0|2:0,2:0:0:0:
449,216,9753,1,0,2:0:0:0:
107,25,10316,53,0,2:0:0:0:
158,124,10503,1,0,2:0:0:0:
225,87,10691,1,2,2:0:0:0:
370,64,11066,1,0,2:0:0:0:
334,131,11253,2,0,P|302:168|235:202,1,100,0|0,2:0|2:0,2:0:0:0:
290,269,11816,1,0,2:0:0:0:
408,329,12378,21,0,2:0:0:0:
434,293,12566,1,0,2:0:0:0:
455,228,12753,1,0,2:0:0:0:
447,145,12941,1,2,2:0:0:0:
379,176,13128,1,0,2:0:0:0:
372,254,13316,1,0,2:0:0:0:
307,328,13691,1,0,3:0:0:0:
101,274,14066,54,0,P|98:298|90:322,2,50,0|0|2,2:0|2:0|2:0,2:0:0:0:
73,198,14628,1,0,2:0:0:0:
36,27,15191,2,0,P|43:50|60:77,1,50,0|0,2:0|2:0,2:0:0:0:
150,74,15566,1,0,2:0:0:0:
191,165,15753,1,0,2:0:0:0:
308,72,16316,21,0,2:0:0:0:
396,47,16503,1,0,2:0:0:0:
501,62,16691,2,0,P|451:69|402:62,1,100,2|0,2:0|2:0,2:0:0:0:
364,150,17253,2,0,P|389:147|412:137,1,50,0|0,2:0|2:0,2:0:0:0:
410,250,17628,1,0,2:0:0:0:
497,221,17816,2,0,P|491:196|495:172,1,50,2|0,2:0|2:0,2:0:0:0:
416,270,18191,2,0,P|393:281|368:284,1,50,0|0,2:0|2:0,2:0:0:0:
391,179,18566,1,0,2:0:0:0:
308,178,18753,1,0,2:0:0:0:
247,247,18941,2,0,P|224:262|201:268,1,50,2|0,2:0|2:0,2:0:0:0:
121,215,19316,2,0,B|107:212|107:212|139:177|125:132,1,100,0|0,2:0|3:0,2:0:0:0:
253,34,20066,53,0,2:0:0:0:
295,103,20253,1,0,2:0:0:0:
240,168,20441,1,2,2:0:0:0:
258,216,20628,1,0,2:0:0:0:
312,320,21003,1,0,2:0:0:0:
390,277,21191,2,0,P|354:310|311:336,1,100,0|0,2:0|2:0,2:0:0:0:
386,204,21753,1,0,2:0:0:0:
485,80,22316,22,0,P|491:102|505:125,1,50,0|0,2:0|2:0,2:0:0:0:
374,22,22691,2,0,L|390:78,1,50,2|0,3:2|2:0,2:0:0:0:
215,69,23066,1,0,2:0:0:0:
288,22,23253,1,0,2:0:0:0:
297,122,23441,2,0,L|292:174,1,50,0|0,2:0|2:0,2:0:0:0:
179,251,23816,2,0,P|209:238|224:230,1,50,2|0,2:0|2:0,2:0:0:0:
36,211,24191,2,0,P|14:197|7:169,1,50,0|0,2:0|2:0,2:0:0:0:
120,144,24566,1,0,2:0:0:0:
88,77,24753,1,0,2:0:0:0:
131,15,24941,53,2,3:2:0:0:
334,27,25316,1,0,2:0:0:0:
210,47,25691,1,0,3:0:0:0:
440,219,26066,21,0,2:0:0:0:
341,187,26253,1,0,2:0:0:0:
437,142,26441,2,0,P|390:161|343:176,1,100,2|0,3:2|2:0,2:0:0:0:
192,277,27191,2,0,P|161:241|181:198,1,100,2|0,2:0|2:0,2:0:0:0:
112,139,27753,2,0,P|107:114|88:99,2,50,0|0|0,2:0|2:0|2:0,2:0:0:0:
175,33,28316,2,0,L|238:19,1,50,0|0,2:0|2:0,2:0:0:0:
120,159,28691,2,0,P|76:176|20:161,1,100,2|0,2:0|2:0,2:0:0:0:
253,167,29253,2,0,P|276:176|350:145,1,100,0|0,2:0|2:0,2:0:0:0:
173,108,29816,2,0,B|160:85|160:85|184:52|171:15,1,100,0|0,2:0|2:0,2:0:0:0:
160,225,30941,53,2,2:0:0:0:
247,171,31128,1,0,2:0:0:0:
359,179,31316,2,0,P|322:212|278:236,1,100,0|0,2:0|3:0,2:0:0:0:
316,309,32441,1,0,2:0:0:0:
404,324,33191,1,0,3:0:0:0:
477,263,33941,1,0,2:0:0:0:
421,194,34316,2,0,P|410:146|426:100,1,100,2|0,2:0|2:0,2:0:0:0:
349,25,35066,2,0,P|287:86|175:78,1,200,0|0,2:0|2:0,2:0:0:0:
157,294,36941,21,2,2:0:0:0:
247,327,37128,1,0,2:0:0:0:
202,189,37316,1,0,2:0:0:0:
194,175,37691,1,2,3:2:0:0:
467,217,38253,53,0,2:0:0:0:
399,256,38441,1,2,2:0:0:0:
326,221,38628,1,0,2:0:0:0:
400,107,39003,1,0,2:0:0:0:
502,57,39191,2,0,P|461:84|441:129,1,100,0|0,2:0|2:0,2:0:0:0:
405,209,39753,2,0,L|305:200,1,100,0|0,2:0|2:0,2:0:0:0:
391,104,40316,1,0,2:0:0:0:
97,118,40691,2,0,P|142:112|168:67,1,100,2|0,2:0|2:0,2:0:0:0:
319,169,41253,2,0,P|269:170|223:152,1,100,0|0,2:0|2:0,2:0:0:0:
249,70,41816,1,0,2:0:0:0:
434,271,42941,21,2,2:0:0:0:
468,188,43128,1,0,2:0:0:0:
448,160,43316,1,0,2:0:0:0:
489,67,43691,1,6,3:2:0:0:
246,29,44066,69,0,2:0:0:0:
205,107,44253,1,0,2:0:0:0:
255,179,44441,1,0,3:0:0:0:
339,261,45003,1,0,2:0:0:0:
434,219,45191,2,0,L|312:235,1,120,2|0,3:2|2:0,2:0:0:0:
70,309,46316,5,0,2:0:0:0:
135,259,46503,1,0,2:0:0:0:
215,318,46691,1,0,3:0:0:0:
133,181,46878,2,0,L|144:219,1,40,0|0,2:0|2:0,2:0:0:0:
198,116,47253,1,0,2:0:0:0:
231,207,47441,2,0,P|250:206|269:199,1,40,0|0,2:0|2:0,2:0:0:0:
315,299,47816,2,0,P|312:318|301:334,1,40,2|0,3:2|0:0,0:0:0:0:
354,194,48191,2,0,P|353:168|365:152,1,40,0|0,2:0|2:0,2:0:0:0:
429,271,48566,2,0,P|438:254|443:233,1,40,0|0,2:0|2:0,2:0:0:0:
499,146,48941,2,0,P|499:120|492:102,2,40,2|0|0,3:2|2:0|2:0,2:0:0:0:
505,305,49691,1,0,3:0:0:0:
408,122,50066,53,0,2:0:0:0:
366,188,50253,1,0,2:0:0:0:
282,190,50441,1,2,3:2:0:0:
293,113,50628,1,0,2:0:0:0:
337,0,51003,1,0,2:0:0:0:
198,46,51191,2,0,P|179:53|155:51,1,40,0|0,3:0|2:0,2:0:0:0:
47,7,51566,2,0,P|50:49|25:81,1,80,0|0,2:0|2:0,2:0:0:0:
36,233,52316,37,0,2:0:0:0:
135,192,52503,1,0,2:0:0:0:
100,304,52691,1,0,3:0:0:0:
150,206,52878,2,0,P|170:198|189:188,1,40,0|0,2:0|2:0,2:0:0:0:
244,334,53253,1,0,2:0:0:0:
229,348,53441,2,0,P|208:340|190:330,1,40,0|0,2:0|2:0,2:0:0:0:
295,192,53816,2,0,P|302:171|315:156,1,40,2|0,3:2|2:0,2:0:0:0:
339,303,54191,1,0,2:0:0:0:
412,352,54378,1,0,2:0:0:0:
478,296,54566,1,0,2:0:0:0:
422,212,54753,1,0,2:0:0:0:
417,119,54941,2,0,P|419:100|428:82,1,40,2|0,3:2|2:0,2:0:0:0:
512,0,55316,2,0,P|476:16|437:13,1,80,0|6,2:0|3:0,2:0:0:0:
235,253,56066,53,0,2:0:0:0:
318,205,56253,1,0,2:0:0:0:
416,237,56441,2,0,P|382:259|344:271,1,80,2|0,2:0|2:0,2:0:0:0:
114,340,57191,2,0,P|153:334|181:307,1,80,2|0,3:2|2:0,2:0:0:0:
32,196,57753,2,0,P|71:204|144:261,1,120,0|0,2:0|2:0,2:0:0:0:
340,209,58503,2,0,P|300:210|263:196,1,80,0|0,2:0|2:0,2:0:0:0:
330,138,59066,1,0,2:0:0:0:
396,71,59253,2,0,P|412:56|425:39,2,40,0|0|0,2:0|2:0|2:0,2:0:0:0:
471,228,59816,2,0,B|453:226|439:210|440:192|451:180|451:180|469:148|467:112|451:83,1,160,2|0,3:2|2:0,2:0:0:0:
318,47,61691,5,0,3:2:0:0:
223,93,62441,1,0,2:0:0:0:
122,73,63191,1,2,3:2:0:0:
40,195,63941,1,0,2:0:0:0:
156,260,64316,2,0,P|122:281|83:282,1,80,0|0,2:0|3:0,2:0:0:0:
182,114,65066,2,1,B|172:175|228:202|228:202|239:252,1,160,0|2,2:0|3:2,2:0:0:0:
397,338,66753,53,0,2:0:0:0:
440,265,66941,2,0,P|444:252|441:226,2,40,2|0|0,2:0|2:0|2:0,2:0:0:0:
306,208,67503,1,0,2:0:0:0:
290,197,67691,2,0,P|280:170|288:142,1,59.9999999999999,2|0,3:2|2:0,2:0:0:0:
508,110,68253,2,0,P|500:139|478:158,1,59.9999999999999,0|0,2:0|2:0,2:0:0:0:
399,33,68816,2,1,B|401:34|401:34|409:60|304:13|294:49,1,120,0|0,2:0|2:0,2:0:0:0:
313,136,69941,1,4,3:0:0:0:
199,47,70128,1,4,3:0:0:0:
189,279,70691,54,0,P|163:255|156:240,1,50,2|0,3:1|3:0,3:0:0:0:
375,313,71253,2,0,P|402:297|419:280,1,50,0|0,3:0|3:0,3:0:0:0:
227,115,71816,2,0,L|214:60,1,50,2|0,3:0|3:0,3:0:0:0:
297,139,72378,1,0,3:0:0:0:
263,260,72566,2,0,L|295:239,1,25,0|0,3:0|3:0,3:0:0:0:
477,208,72941,2,0,P|452:208|427:204,1,50,2|0,3:0|3:0,3:0:0:0:
505,134,73503,1,0,3:0:0:0:
182,173,73691,2,0,P|206:170|230:162,1,50,2|0,3:0|3:0,3:0:0:0:
415,66,74253,2,0,P|406:87|406:117,1,50,0|0,3:0|3:0,3:0:0:0:
374,5,74816,1,2,3:0:0:0:
187,67,75003,2,0,L|112:74,1,75,0|0,3:0|3:0,3:0:0:0:
48,27,75753,1,0,3:0:0:0:
26,237,75941,6,1,B|23:223|23:223|49:235|49:235|92:238|135:213,1,132.999999999999,2|0,3:1|3:0,3:0:0:0:
210,164,76503,1,0,3:0:0:0:
158,292,76691,2,0,P|185:278|216:277,1,50,2|0,3:0|3:0,3:0:0:0:
224,367,77253,2,0,B|254:373|270:349|298:353,1,75,0|0,3:0|3:0,3:0:0:0:
384,304,78003,69,0,3:0:0:0:
461,343,78191,1,0,3:0:0:0:
506,268,78378,1,0,3:0:0:0:
380,298,78566,2,0,P|368:301|355:298,1,25,0|0,3:0|3:0,3:0:0:0:
492,175,78941,2,0,P|497:150|499:125,1,50,2|0,3:0|3:0,3:0:0:0:
466,57,79503,1,0,3:0:0:0:
378,146,79691,6,0,P|367:150|353:151,1,25,8|0,3:0|3:0,3:0:0:0:
287,212,80066,2,0,P|274:211|262:205,1,25,0|0,3:0|3:0,3:0:0:0:
132,194,80441,2,0,P|157:188|176:170,1,50,2|0,3:0|3:0,3:0:0:0:
32,146,81003,2,0,L|21:97,1,50,0|0,3:0|3:0,3:0:0:0:
1,32,81566,1,0,3:0:0:0:
6,24,81753,1,0,3:0:0:0:
93,64,81941,2,0,L|131:58,2,25,2|0|0,3:0|3:0|3:0,3:0:0:0:
23,326,82691,70,0,L|82:314,1,50,12|0,3:0|3:0,3:0:0:0:
206,214,83253,2,0,P|183:203|158:201,1,50,2|0,3:0|3:0,3:0:0:0:
312,307,83816,2,0,B|330:300|349:309|383:297,1,50,0|0,3:0|3:0,3:0:0:0:
390,243,84378,1,0,3:0:0:0:
125,322,84566,2,0,P|117:311|116:292,1,25,0|0,3:0|3:0,3:0:0:0:
213,211,84941,2,0,L|202:162,1,50,2|0,3:0|3:0,3:0:0:0:
26,78,85691,6,0,P|42:95|72:95,1,50,4|0,3:0|3:0,3:0:0:0:
197,76,86253,2,0,P|194:63|189:52,1,25,2|0,3:0|3:0,3:0:0:0:
125,19,86628,1,0,3:0:0:0:
320,56,86816,2,0,L|384:52,1,50,0|0,3:0|3:0,3:0:0:0:
441,83,87378,2,0,P|439:95|430:105,2,25,0|2|0,3:0|3:0|3:0,3:0:0:0:
496,24,87941,1,14,3:0:0:0:
441,232,88128,70,1,B|432:247|437:273|437:273|389:312|389:347,1,132.999994520569,0|0,3:0|3:0,3:0:0:0:
277,289,88691,6,0,P|300:282|316:263,1,50,2|0,3:1|3:0,3:0:0:0:
296,157,89253,2,0,P|298:144|294:132,2,25,0|2|0,3:0|3:0|3:0,3:0:0:0:
216,230,89816,2,0,P|203:230|191:225,1,25,0|0,3:0|3:0,3:0:0:0:
118,280,90191,1,0,3:0:0:0:
185,126,90378,2,0,L|178:157,1,25,0|0,3:0|3:0,3:0:0:0:
102,182,90753,1,0,3:0:0:0:
44,100,90941,1,6,3:0:0:0:
47,7,91128,2,0,P|70:1|95:3,1,50,0|0,3:0|3:0,3:0:0:0:
189,118,91691,70,0,P|213:118|236:107,1,50,6|0,3:0|3:0,3:0:0:0:
286,318,92253,2,0,L|282:293,1,25,0|2,3:0|3:0,3:0:0:0:
240,237,92628,1,0,3:0:0:0:
348,135,92816,2,0,P|373:134|396:117,1,50,0|0,3:0|3:0,3:0:0:0:
443,66,93378,1,0,3:0:0:0:
341,277,93753,5,0,3:0:0:0:
449,283,93941,1,14,3:0:0:0:
466,178,94128,2,1,B|427:168|427:168|395:81|418:83,1,133,0|0,3:0|3:0,3:0:0:0:
357,37,94691,70,0,L|296:45,1,50,2|0,3:1|3:0,3:0:0:0:
77,116,95253,2,0,P|102:120|125:111,1,50,0|0,3:0|3:0,3:0:0:0:
196,208,95816,2,0,L|188:184,1,25,2|0,3:0|3:0,3:0:0:0:
118,190,96191,1,0,3:0:0:0:
139,19,96378,2,0,P|139:31|144:43,1,25,0|0,3:0|3:0,3:0:0:0:
53,8,96753,1,0,3:0:0:0:
218,56,96941,2,0,L|242:56,1,25,2|0,3:0|3:0,3:0:0:0:
367,104,97316,2,0,P|378:99|386:89,2,25,0|0|4,3:0|3:0|3:0,3:0:0:0:
458,172,98253,37,0,2:0:0:0:
406,265,98441,1,0,2:0:0:0:
321,267,98628,1,0,2:0:0:0:
301,191,98816,1,0,2:0:0:0:
387,81,99191,1,2,2:0:0:0:
234,53,99566,1,0,2:0:0:0:
223,71,99753,2,0,P|210:79|200:81,1,25,0|2,2:0|2:0,2:0:0:0:
156,147,100128,1,0,2:0:0:0:
46,53,100316,2,0,B|22:67|53:81|48:102,1,50,0|6,2:0|2:0,2:0:0:0:
243,57,101253,5,0,2:0:0:0:
287,128,101441,1,2,2:0:0:0:
251,209,101628,1,0,2:0:0:0:
59,258,102003,1,0,2:0:0:0:
74,251,102191,2,0,P|121:238|160:268,1,100,0|0,3:2|2:0,2:0:0:0:
229,323,102753,2,0,P|276:308|311:273,1,100,0|0,2:0|2:0,2:0:0:0:
163,184,103316,1,0,2:0:0:0:
301,119,103691,69,2,3:2:0:0:
392,210,104066,1,0,2:0:0:0:
461,148,104253,2,0,P|447:101|466:47,1,100,0|0,2:0|2:0,2:0:0:0:
474,162,104816,2,0,P|424:162|378:143,1,100,2|0,2:0|2:0,2:0:0:0:
451,245,105378,1,0,2:0:0:0:
498,324,105566,1,0,2:0:0:0:
264,348,105941,5,2,3:2:0:0:
198,302,106128,1,0,2:0:0:0:
192,216,106316,1,0,2:0:0:0:
268,176,106503,1,0,2:0:0:0:
226,103,106691,1,0,3:0:0:0:
34,120,107253,69,0,2:0:0:0:
67,197,107441,1,2,3:2:0:0:
133,243,107628,1,0,2:0:0:0:
268,312,108003,1,0,2:0:0:0:
312,380,108191,2,0,B|326:355|316:329|316:329|299:291|307:253|336:247,1,150,0|0,2:0|2:0,2:0:0:0:
470,110,109316,5,0,2:0:0:0:
411,195,109503,1,0,2:0:0:0:
294,153,109691,2,0,P|293:201|331:231,1,100,2|0,3:2|2:0,2:0:0:0:
395,40,110253,2,0,P|406:88|400:137,1,100,0|0,2:0|2:0,2:0:0:0:
293,22,110816,1,0,2:0:0:0:
216,142,126566,69,2,2:0:0:0:
225,232,126753,1,0,2:0:0:0:
307,275,126941,1,0,2:0:0:0:
315,274,127316,1,2,3:2:0:0:
382,198,127503,1,0,2:0:0:0:
385,201,127691,2,0,P|375:182|368:152,1,50,0|0,2:0|2:0,2:0:0:0:
446,257,128066,1,2,3:2:0:0:
481,170,128253,2,0,P|480:143|466:112,1,50,0|0,2:0|2:0,2:0:0:0:
351,61,128628,1,0,2:0:0:0:
431,42,128816,2,0,P|453:33|472:17,2,50,0|0|0,3:0|2:0|2:0,2:0:0:0:
464,119,129378,1,2,3:2:0:0:
416,299,129941,5,0,2:0:0:0:
352,342,130128,1,0,2:0:0:0:
295,278,130316,1,2,3:2:0:0:
410,292,130503,2,0,P|411:265|417:242,1,50,0|0,2:0|2:0,2:0:0:0:
259,188,130878,1,0,2:0:0:0:
273,193,131066,2,0,P|297:190|319:179,1,50,0|0,2:0|2:0,2:0:0:0:
393,66,131441,2,0,B|379:103|386:128|386:128|405:131|415:148,1,100,2|0,3:2|2:0,2:0:0:0:
354,252,132003,1,0,2:0:0:0:
446,302,132191,2,0,P|469:289|490:278,1,50,0|0,2:0|2:0,2:0:0:0:
338,352,132566,2,0,P|293:358|276:315,1,100,2|0,3:2|2:0,2:0:0:0:
183,303,133128,1,0,2:0:0:0:
106,349,133316,1,4,3:0:0:0:
37,148,133691,53,0,2:0:0:0:
79,210,133878,1,0,2:0:0:0:
162,213,134066,1,0,3:0:0:0:
162,213,134253,2,0,P|163:189|170:165,1,50,2|0,3:2|2:0,2:0:0:0:
256,218,134628,1,0,2:0:0:0:
230,272,134816,2,0,P|247:254|252:230,1,50,0|0,3:0|2:0,2:0:0:0:
133,306,135191,1,0,2:0:0:0:
127,311,135378,1,0,2:0:0:0:
205,355,135566,2,0,L|268:351,1,50,2|0,3:2|2:0,2:0:0:0:
345,365,135941,38,1,B|336:352|336:352|364:319|351:290|368:267,1,100,0|2,2:0|3:0,2:0:0:0:
378,201,136503,1,0,2:0:0:0:
486,247,136691,2,0,P|458:257|438:262,1,50,0|0,2:0|2:0,2:0:0:0:
408,81,137066,2,0,P|429:126|461:163,1,100,2|0,3:2|3:0,2:0:0:0:
292,52,137628,2,0,P|299:75|301:105,2,50,0|0|0,2:0|2:0|2:0,2:0:0:0:
371,3,138191,1,0,2:0:0:0:
379,127,138378,1,0,2:0:0:0:
246,164,138566,2,0,B|223:148|208:131,1,50,2|0,3:0|2:0,2:0:0:0:
96,17,138941,2,0,P|144:28|186:55,1,100,0|6,2:0|3:0,2:0:0:0:
17,217,139691,53,0,2:0:0:0:
113,156,139878,1,0,2:0:0:0:
207,188,140066,2,0,P|168:219|123:242,1,100,2|0,3:2|2:0,2:0:0:0:
41,304,140628,1,0,2:0:0:0:
111,357,140816,2,0,P|153:332|153:279,1,100,2|0,3:2|2:0,2:0:0:0:
322,364,141378,2,0,P|276:353|227:259,1,150,0|0,2:0|2:0,2:0:0:0:
295,245,142128,2,0,P|304:207|310:143,1,100,0|0,3:0|2:0,2:0:0:0:
420,201,142691,1,0,2:0:0:0:
291,134,142878,2,0,P|277:114|277:89,2,50,0|0|0,2:0|2:0|2:0,2:0:0:0:
450,112,143441,2,0,P|472:69|447:28,1,100,2|0,3:2|2:0,2:0:0:0:
341,5,144003,1,0,2:0:0:0:
230,45,144191,2,1,B|209:41|209:41|205:48|205:48|170:41|145:48|135:52,1,100,0|0,2:0|2:0,2:0:0:0:
48,163,145316,5,2,3:2:0:0:
82,257,146066,1,0,2:0:0:0:
180,288,146816,1,2,3:2:0:0:
248,210,147566,1,0,2:0:0:0:
71,184,147941,2,0,P|119:173|166:148,1,100,0|0,2:0|3:0,2:0:0:0:
254,24,148691,2,0,P|233:66|264:101,1,100,0|0,2:0|2:0,2:0:0:0:
364,213,149441,54,1,B|394:201|394:201|432:219|432:219|469:205|485:164|464:135,1,178.412682559919,2|0,3:2|2:0,2:0:0:0:
237,299,150566,2,0,P|215:297|194:289,2,44.6031706399797,2|0|0,2:0|2:0|2:0,2:0:0:0:
289,239,151128,1,0,2:0:0:0:
375,300,151316,38,1,B|376:328|376:328|363:305|339:298|317:311,1,96.9572849630893,2|0,3:2|2:0,2:0:0:0:
366,157,151878,2,1,B|326:147|326:147|280:170|280:170|252:132|283:88,1,181.285611580261,0|0,2:0|2:0,2:0:0:0:
176,25,153566,2,1,B|168:57|168:57|190:82|196:110|183:138,1,120.677599139708,4|4,3:0|3:0,2:0:0:0:
16,234,154316,6,0,L|67:225,1,50,2|0,3:1|3:0,3:0:0:0:
145,282,154878,2,0,L|165:272,1,12.5,0|0,3:0|3:0,3:0:0:0:
188,194,155066,2,0,P|198:201|213:201,1,25,0|0,3:0|3:0,3:0:0:0:
433,343,155441,2,0,P|440:319|444:294,1,50,2|0,3:0|3:0,3:0:0:0:
401,92,156003,1,0,3:0:0:0:
468,263,156191,2,0,L|461:227,1,25,0|0,3:0|3:0,3:0:0:0:
487,71,156566,2,0,L|437:87,1,50,2|0,3:0|3:0,3:0:0:0:
197,180,157316,6,0,P|216:195|241:196,1,50,2|0,3:0|3:0,3:0:0:0:
89,131,157878,2,0,L|47:137,2,25,0|0|0,3:0|3:0|3:0,3:0:0:0:
209,29,158441,2,0,P|202:52|185:70,1,50,2|0,3:0|3:0,3:0:0:0:
132,139,159003,1,0,3:0:0:0:
26,209,159191,2,0,L|68:202,1,25,0|0,3:0|3:0,3:0:0:0:
101,291,159566,70,1,B|141:294|169:281|185:241|185:241|245:260|302:243,1,225.143055580382,14|0,3:0|3:0,3:0:0:0:
411,249,160269,2,0,P|404:240|401:228,1,25.0476851934604,4|0,3:0|3:0,3:0:0:0:
445,142,160644,2,0,P|449:104|466:71,1,75.1430555803813,0|0,3:0|3:0,3:0:0:0:
379,184,161394,1,0,3:0:0:0:
450,37,161581,2,0,L|481:27,1,25.0476851934604,0|0,3:0|3:0,3:0:0:0:
362,9,161956,1,0,3:0:0:0:
284,68,162144,1,0,3:0:0:0:
195,103,162331,1,0,3:0:0:0:
124,99,162519,2,0,L|88:90,1,25.0476851934604,2|0,3:0|3:0,3:0:0:0:
41,17,162894,2,0,P|18:26|-1:44,1,50.0953703869209,0|6,3:0|3:0,3:0:0:0:
20,268,163644,5,0,3:0:0:0:
36,171,163831,1,0,3:0:0:0:
99,111,164019,2,0,P|121:100|146:101,1,50,2|0,3:0|3:0,3:0:0:0:
283,28,164581,2,0,P|263:60|235:85,1,75,0|0,3:0|3:0,3:0:0:0:
441,179,165331,2,0,L|460:142,1,25,0|2,3:0|3:0,3:0:0:0:
446,65,165706,1,0,3:0:0:0:
508,9,165894,1,0,3:0:0:0:
501,282,166269,70,0,P|475:288|451:288,1,50,6|0,3:0|3:0,3:0:0:0:
317,339,166831,2,0,L|326:330,1,12.5,0|0,3:0|3:0,3:0:0:0:
376,271,167019,2,0,P|379:258|376:246,1,25,0|0,3:0|3:0,3:0:0:0:
114,263,167394,2,0,P|82:261|40:257,1,75,2|0,3:0|3:0,3:0:0:0:
161,203,168144,1,0,3:0:0:0:
156,97,168331,1,0,3:0:0:0:
72,44,168519,2,0,P|50:29|26:21,1,50,2|0,3:0|3:0,3:0:0:0:
0,219,169269,6,0,P|1:244|12:266,1,50,6|0,3:0|3:0,3:0:0:0:
89,289,169831,2,0,L|65:318,1,25,0|0,3:0|3:0,3:0:0:0:
30,374,170206,1,0,3:0:0:0:
243,220,170394,2,0,P|281:218|316:203,1,75,2|0,3:0|3:0,3:0:0:0:
392,185,171144,1,0,3:0:0:0:
183,92,171331,1,0,3:0:0:0:
255,40,171519,1,6,3:0:0:0:
346,71,171706,70,1,B|360:122|392:106|408:140|408:140|429:149|457:211,1,140.000000000011,0|0,3:0|3:0,3:0:0:0:
327,246,172269,6,0,P|356:245|338:223,1,70.0000000000112,2|0,3:1|3:0,3:0:0:0:
450,98,172831,2,0,P|462:86|479:85,2,35.0000000000056,0|0|0,3:0|3:0|3:0,3:0:0:0:
210,137,173394,2,0,L|141:148,1,70.0000000000112,0|0,3:0|3:0,3:0:0:0:
95,85,173956,1,0,3:0:0:0:
14,145,174144,2,0,P|-6:118|3:85,1,70.0000000000112,0|6,3:0|3:0,3:0:0:0:
0,12,174706,1,0,3:0:0:0:
19,271,175081,1,0,3:0:0:0:
107,243,175269,70,0,L|174:224,1,70.0000000000112,6|0,3:0|3:0,3:0:0:0:
218,70,175831,2,0,P|202:78|188:88,1,35.0000000000056,0|2,3:0|3:0,3:0:0:0:
103,87,176206,1,0,3:0:0:0:
350,102,176394,2,0,P|396:90|388:42,1,105.000000000017,0|0,3:0|3:0,3:0:0:0:
246,30,177144,1,0,3:0:0:0:
84,163,177519,1,6,3:0:0:0:
156,221,177706,6,1,B|180:207|209:213|209:213|222:210|222:210|261:221|299:193,1,150,0|0,3:0|3:0,3:0:0:0:
411,223,178269,2,0,B|412:204|388:193|388:193|381:170|397:153,1,80,6|0,3:0|3:0,3:0:0:0:
437,95,178831,1,0,3:0:0:0:
75,95,179206,1,0,3:0:0:0:
116,156,179394,2,0,B|130:170|123:193|123:193|99:204|101:223,1,80,2|0,3:0|3:0,3:0:0:0:
68,292,179956,1,0,3:0:0:0:
145,330,180144,70,0,P|167:328|184:321,1,40,0|0,3:0|3:0,3:0:0:0:
261,278,180519,2,0,P|274:257|275:240,1,40,2|0,3:0|3:0,3:0:0:0:
212,189,180894,2,0,P|196:177|195:150,1,40,0|0,3:0|3:0,3:0:0:0:
234,92,181269,1,0,3:0:0:0:
117,48,181831,37,0,2:0:0:0:
104,125,182019,1,0,2:0:0:0:
160,179,182206,1,0,2:0:0:0:
154,259,182394,1,0,2:0:0:0:
113,38,182769,1,2,2:0:0:0:
302,8,183144,1,0,2:0:0:0:
374,61,183331,2,0,P|392:62|413:55,1,40,0|2,2:0|2:0,2:0:0:0:
487,5,183706,1,0,2:0:0:0:
462,144,183894,2,0,P|464:193|476:243,1,100,0|2,2:0|3:1,2:0:0:0:
76,290,184878,5,0,2:0:0:0:
172,285,185066,2,0,B|185:264|207:257|207:257|230:262|252:258,1,90.0000000000001,0|0,3:0|2:0,2:0:0:0:
29,172,185628,1,0,2:0:0:0:
195,166,185816,2,0,P|155:146|132:108,1,90.0000000000001,2|0,3:2|2:0,2:0:0:0:
139,22,186378,1,0,2:0:0:0:
310,113,186566,2,0,P|330:76|302:44,1,90.0000000000001,0|0,3:0|2:0,2:0:0:0:
238,16,187128,1,0,2:0:0:0:
372,163,187316,70,0,P|416:159|456:139,1,90.0000000000001,2|0,3:2|2:0,2:0:0:0:
238,210,187878,2,0,P|196:201|139:178,1,90.0000000000001,0|0,2:0|2:0,2:0:0:0:
424,285,188441,2,1,B|418:245|444:209|444:209|409:210|387:251,1,141,0|0,3:0|2:0,2:0:0:0:
339,297,189191,2,0,L|314:304,1,23.5000000000001,0|0,2:0|2:0,2:0:0:0:
248,329,189378,2,0,L|223:336,1,23.5000000000001,0|0,2:0|2:0,2:0:0:0:
120,337,189566,2,0,P|96:324|96:300,1,47.0000000000001,2|0,3:2|2:0,2:0:0:0:
170,265,189941,1,0,2:0:0:0:
209,183,190128,1,0,2:0:0:0:
159,95,190316,22,0,L|148:68,2,23.5000000000001,2|0|0,3:1|2:0|2:0,2:0:0:0:
73,159,190691,2,0,P|69:182|56:202,1,47.0000000000001,0|0,2:0|2:0,2:0:0:0:
187,166,191066,2,0,L|196:221,1,47.0000000000001,0|0,2:0|2:0,2:0:0:0:
303,120,191441,2,0,P|307:143|320:163,1,47.0000000000001,2|0,2:0|2:0,2:0:0:0:
397,25,191816,2,0,L|412:70,1,47.0000000000001,0|0,3:2|2:0,2:0:0:0:
465,161,192191,2,0,B|446:175|451:194|451:194|448:200|448:200|451:224|436:247,1,94.0000000000002,0|0,2:0|2:0,2:0:0:0:
335,268,192753,1,0,2:0:0:0:
327,171,192941,54,0,P|308:122|301:81,1,94.0000000000002,0|2,2:0|3:2,2:0:0:0:
288,0,193503,1,0,2:0:0:0:
99,98,193691,1,0,2:0:0:0:
57,209,193878,1,0,2:0:0:0:
161,157,194066,2,0,P|211:140|239:108,1,94.0000000000002,2|0,3:2|2:0,2:0:0:0:
405,136,194628,2,0,P|363:138|311:129,1,94.0000000000002,0|0,2:0|2:0,2:0:0:0:
319,359,195191,2,0,L|344:345,1,23.5000000000001,2|0,3:2|2:0,2:0:0:0:
416,320,195378,2,0,L|428:294,1,23.5000000000001,0|0,2:0|2:0,2:0:0:0:
424,225,195566,1,0,2:0:0:0:
319,152,195753,5,0,2:0:0:0:
277,243,195941,2,0,L|240:257,1,23.5000000000001,0|0,3:0|2:0,2:0:0:0:
133,276,196128,2,0,L|110:273,1,23.5000000000001,0|0,2:0|2:0,2:0:0:0:
11,229,196316,2,0,L|3:199,2,23.5000000000001,2|0|0,3:1|2:0|2:0,2:0:0:0:
169,354,196691,69,0,2:0:0:0:
280,340,196878,1,0,2:0:0:0:
357,274,197066,2,0,P|383:235|394:190,1,94.0000000000002,2|0,3:2|2:0,2:0:0:0:
227,189,197628,2,0,P|233:213|236:242,1,47.0000000000001,0|0,2:0|3:2,2:0:0:0:
113,147,198003,2,0,P|123:127|140:107,1,47.0000000000001,0|2,2:0|2:0,2:0:0:0:
36,229,198378,2,0,P|66:269|106:292,1,94.0000000000002,0|0,2:0|2:0,2:0:0:0:
231,223,198941,1,0,2:0:0:0:
180,298,199128,1,0,2:0:0:0:
322,286,199316,22,0,L|370:269,1,47.0000000000001,2|0,3:2|2:0,2:0:0:0:
222,325,199691,2,0,P|199:320|184:303,1,47.0000000000001,0|0,2:0|2:0,2:0:0:0:
328,199,200066,2,0,B|347:165|378:179|405:148,1,94.0000000000002,0|2,2:0|3:2,2:0:0:0:
133,155,200628,2,0,L|23:141,1,94.0000000000002,0|0,2:0|2:0,2:0:0:0:
157,31,201191,2,0,L|182:51,1,23.5000000000001,0|0,2:0|2:0,2:0:0:0:
248,81,201378,2,0,L|280:85,1,23.5000000000001,0|0,2:0|2:0,2:0:0:0:
353,49,201566,2,0,L|378:30,2,23.5000000000001,2|0|0,3:2|2:0|2:0,2:0:0:0:
215,154,201941,1,0,2:0:0:0:
314,168,202128,1,0,2:0:0:0:
398,116,202316,54,0,L|445:80,1,47.0000000000001,2|0,3:1|2:0,2:0:0:0:
372,243,202691,1,0,2:0:0:0:
310,160,202878,1,0,2:0:0:0:
323,55,203066,2,0,L|349:6,1,47.0000000000001,0|0,2:0|2:0,2:0:0:0:
200,71,203441,6,1,B|160:82|128:67|128:67|95:34,1,120.361427195948,2|0,3:2|2:0,2:0:0:0:
369,30,204191,2,1,L|362:52,1,20.0602378659913,0|0,2:0|2:0,2:0:0:0:
282,89,204378,2,1,L|293:114,1,20.0602378659913,0|0,2:0|2:0,2:0:0:0:
227,175,204566,2,1,P|251:193|280:201,1,60.4066585378938,2|0,3:2|2:0,2:0:0:0:
0,21,204941,1,0,2:0:0:0:
87,80,205128,1,0,2:0:0:0:
142,166,205316,70,1,L|86:193,1,60.4066585378938,2|0,3:1|2:0,2:0:0:0:
8,130,205691,1,0,2:0:0:0:
94,71,205878,1,0,2:0:0:0:
207,57,206066,2,0,P|233:44|267:47,1,60.4066585378938,2|0,2:0|2:0,2:0:0:0:
360,84,206441,2,1,B|399:88|423:68|423:68|472:62,1,116.071038925422,2|0,3:2|2:0,2:0:0:0:
489,203,207191,1,0,2:0:0:0:
366,165,207378,2,0,L|378:195,1,19.3451731542369,0|0,2:0|2:0,2:0:0:0:
268,196,207566,54,1,B|236:193|202:222|152:204,1,118.241399051273,2|0,3:2|2:0,2:0:0:0:
308,317,208128,2,1,B|322:320|333:333|333:333|323:299,1,65.6790988478599,0|0,2:0|2:0,2:0:0:0:
164,320,208691,2,1,B|120:309|120:309|105:275|132:243,1,117.000004397299,2|0,2:0|2:0,2:0:0:0:
137,157,209253,1,0,2:0:0:0:
379,204,209441,2,1,B|403:162|403:162|408:137|422:125|422:125|411:102,1,117.000004397299,0|0,3:2|2:0,2:0:0:0:
380,23,210003,1,0,2:0:0:0:
326,107,210191,1,0,2:0:0:0:
76,53,210378,2,1,B|96:87|96:87|129:112|136:157,1,105,0|0,2:0|3:0,2:0:0:0:
144,13,210753,1,0,2:0:0:0:
95,228,210941,2,1,B|29:255|0:208|48:184|90:253,1,150,2|0,3:2|2:0,2:0:0:0:
266,28,211316,38,1,B|228:118|277:142|290:183|190:187|236:123,1,200,2|0,2:0|2:0,2:0:0:0:
358,216,213566,22,1,B|377:207|395:211|395:211|412:202|426:186,1,75,0|0,3:0|3:0,2:0:0:0:
134,136,214292,53,2,3:1:0:0:
184,302,214480,1,0,3:0:0:0:
90,205,214667,1,0,3:0:0:0:
231,144,214855,1,0,3:0:0:0:
231,144,214948,1,0,3:0:0:0:
231,144,215042,2,0,B|246:139|246:139|263:141|286:138,1,50,2|0,3:2|3:0,3:0:0:0:
162,290,215417,2,0,L|206:284,1,25,0|0,3:0|3:0,3:0:0:0:
278,283,215605,2,0,L|322:277,1,25,0|0,3:0|3:0,3:0:0:0:
396,228,215792,2,0,P|420:231|444:238,1,50,2|0,3:2|3:0,3:0:0:0:
303,190,216167,1,0,3:0:0:0:
303,190,216261,1,0,3:0:0:0:
303,190,216355,1,0,3:0:0:0:
390,91,216542,38,2,B|415:82|452:80|477:62,1,81.7937818649613,2|2,3:0|3:0,3:0:0:0:
201,42,217292,69,4,3:2:0:0:
189,269,217667,1,0,3:0:0:0:
117,322,217855,2,0,P|81:309|59:260,1,85.9999999999999,2|0,3:1|3:0,3:0:0:0:
27,196,218417,2,0,L|64:189,1,30,14|0,3:0|3:0,3:0:0:0:
148,105,218605,2,0,L|121:119,1,30,0|0,3:0|3:0,3:0:0:0:
26,23,218792,2,0,B|35:45|20:58|17:84,1,60,0|0,3:0|3:0,3:0:0:0:
137,15,219167,1,0,3:0:0:0:
137,15,219261,1,0,3:0:0:0:
137,15,219355,1,0,3:0:0:0:
372,116,219542,86,1,B|397:121|418:145|418:145|400:84,1,118.982654045962,2|0,3:1|3:0,3:0:0:0:
256,242,220292,54,1,B|294:257|328:246|328:246|364:216,1,120.80190444515,6|0,1:2|3:0,3:0:0:0:
365,136,220855,1,0,3:0:0:0:
159,126,221042,2,1,B|107:123|75:90|75:90|48:81,1,120.80190444515,10|4,3:0|3:0,3:0:0:0:
50,254,221605,2,1,B|61:269|44:288|44:288|-2:221|51:162,1,150,2|0,3:1|3:0,3:0:0:0:
131,341,222167,85,0,3:0:0:0:
189,240,222355,1,0,3:0:0:0:
268,189,222542,1,10,3:0:0:0:
337,187,222730,1,0,3:0:0:0:
381,201,222917,2,1,P|396:237|398:273,1,75,0|0,3:0|3:0,3:0:0:0:
185,230,223292,86,1,B|153:227|119:256|69:238,1,115,10|0,3:0|3:0,3:0:0:0:
220,108,223855,1,0,3:0:0:0:
46,158,224042,2,1,B|22:131|39:98|39:98|38:127|54:146,1,116.352272387442,10|0,3:0|3:0,3:0:0:0:
159,19,224417,85,2,3:2:0:0:
131,28,224511,85,0,3:0:0:0:
131,57,224605,85,0,3:0:0:0:
159,66,224698,85,0,3:0:0:0:
176,42,224792,85,0,3:0:0:0:
325,64,224980,38,1,B|335:75|335:75|349:79|349:79|358:86|369:104|385:111,1,77.7083031258783,2|0,1:2|3:0,3:0:0:0:
264,220,225355,70,1,B|295:240|319:232|319:232|369:259|398:238|386:218,1,131.624999999993,2|0,2:1|2:0,2:0:0:0:
457,164,226105,1,0,2:0:0:0:
184,155,226292,6,0,P|208:154|232:145,1,50,14|0,3:0|3:0,3:0:0:0:
92,31,226855,2,0,L|81:50,1,12.5,0|0,3:0|3:0,3:0:0:0:
22,96,227042,2,0,L|33:121,1,25,2|0,3:0|3:0,3:0:0:0:
92,273,227417,1,4,3:0:0:0:
82,281,227511,1,0,3:0:0:0:
73,290,227605,1,0,3:0:0:0:
61,294,227698,1,0,3:0:0:0:
50,298,227792,70,0,L|38:275,1,25,2|0,3:2|3:0,3:0:0:0:
149,150,228167,2,0,L|147:137,2,12.5,0|0|0,3:0|3:0|3:0,3:0:0:0:
144,314,228542,2,0,L|164:311,1,12.5,2|0,3:2|3:0,3:1:0:0:
244,295,228730,2,0,L|264:292,1,12.5,0|0,3:0|3:0,3:0:0:0:
337,279,228917,2,0,P|344:269|345:257,1,25,0|0,3:0|3:0,3:0:0:0:
425,112,229292,54,0,P|421:88|428:64,1,50,2|0,3:1|3:0,3:0:0:0:
452,212,229855,2,0,L|448:229,1,12.5,0|0,3:0|3:0,3:0:0:0:
475,291,230042,2,0,L|452:305,1,25,2|0,3:0|3:0,3:0:0:0:
301,114,230417,1,0,3:0:0:0:
288,115,230511,1,0,3:0:0:0:
276,118,230605,1,0,3:0:0:0:
265,124,230698,1,0,3:0:0:0:
255,131,230792,38,0,L|268:160,1,25,2|0,3:2|3:0,3:0:0:0:
331,258,231167,1,0,3:0:0:0:
343,261,231261,1,0,3:0:0:0:
356,262,231355,1,0,3:0:0:0:
147,152,231542,2,1,B|129:158|101:147|85:147|85:147|65:155|65:155|45:151,1,104.203112859043,2|0,3:1|3:0,3:0:0:0:
37,266,232292,69,6,3:0:0:0:
124,244,232480,1,0,3:0:0:0:
207,288,232667,2,0,P|216:295|229:298,1,25,0|0,3:0|3:0,3:0:0:0:
203,183,233042,2,0,L|232:182,1,25,2|0,3:0|3:0,3:0:0:0:
164,83,233417,1,0,3:0:0:0:
183,76,233511,1,0,3:0:0:0:
203,75,233605,1,0,3:0:0:0:
315,29,233792,53,2,3:0:0:0:
372,72,233980,1,0,3:0:0:0:
410,139,234167,1,0,3:0:0:0:
415,226,234355,1,0,3:0:0:0:
374,314,234542,38,1,P|359:307|350:294,1,25,2|0,3:0|3:0,3:0:0:0:
208,240,234917,2,0,L|232:236,1,25,0|0,3:0|3:0,3:0:0:0:
310,112,235292,2,0,L|307:150,1,25,2|0,3:2|3:0,3:0:0:0:
444,143,235667,1,0,3:0:0:0:
425,150,235761,1,0,3:0:0:0:
405,151,235855,1,0,3:0:0:0:
209,155,236042,2,0,L|214:192,1,25,6|0,3:0|3:0,3:0:0:0:
73,101,236417,1,0,3:0:0:0:
92,108,236511,1,0,3:0:0:0:
112,109,236605,1,0,3:0:0:0:
297,246,236792,70,0,L|302:208,1,25,6|0,3:0|3:0,3:0:0:0:
140,296,237167,1,0,3:0:0:0:
159,289,237261,1,0,3:0:0:0:
179,288,237355,1,0,3:0:0:0:
338,340,237542,2,0,L|331:319,1,12.5,6|0,3:0|3:0,3:0:0:0:
293,235,237730,1,0,3:0:0:0:
333,125,237917,1,0,3:0:0:0:
352,118,238011,1,0,3:0:0:0:
372,117,238105,1,0,3:0:0:0:
474,256,238292,54,0,P|438:254|401:232,1,69.9999999999999,2|0,3:1|3:0,3:0:0:0:
279,70,238855,2,0,L|295:65,1,17.5,0|0,3:0|3:0,3:0:0:0:
375,46,239042,2,0,P|391:45|409:47,1,35,2|0,3:0|3:0,3:0:0:0:
231,134,239417,1,0,3:0:0:0:
118,95,239605,2,0,L|112:121,1,17.5,0|0,3:0|3:0,3:0:0:0:
20,206,239792,2,0,P|22:223|28:239,1,35,2|0,3:2|3:0,3:0:0:0:
162,178,240167,2,0,L|165:195,2,17.5,0|0|0,3:0|3:0|3:0,3:0:0:0:
293,212,240542,2,0,B|322:214|342:223|377:215,1,69.9999999999999,2|0,3:0|3:0,3:0:0:0:
497,368,241292,38,0,P|470:346|458:313,1,69.9999999999999,6|0,3:0|3:0,3:0:0:0:
447,143,241855,2,0,L|459:102,1,35,0|2,3:0|3:0,3:0:0:0:
511,43,242230,1,0,3:0:0:0:
392,36,242417,1,6,3:0:0:0:
372,38,242511,1,0,3:0:0:0:
353,45,242605,1,0,3:0:0:0:
229,62,242792,2,0,P|245:70|263:73,1,35,2|0,3:2|3:0,3:0:0:0:
326,145,243167,1,0,3:0:0:0:
201,169,243355,1,0,3:0:0:0:
293,215,243542,70,1,B|261:212|261:212|270:201|270:201|207:199|181:235|133:247|86:204,1,225,2|0,3:1|3:0,3:0:0:0:
76,119,244292,2,0,L|63:86,1,35,2|0,3:2|3:0,3:0:0:0:
166,27,244667,2,0,L|168:9,2,17.5,0|0|0,3:0|3:0|3:0,3:0:0:0:
310,48,245042,2,0,P|327:46|343:39,1,35,2|0,3:0|3:0,3:0:0:0:
489,79,245417,1,0,3:0:0:0:
470,86,245511,1,0,3:0:0:0:
450,88,245605,1,0,3:0:0:0:
297,232,245792,53,0,3:0:0:0:
298,134,245980,1,0,3:0:0:0:
341,58,246167,1,0,3:0:0:0:
404,15,246355,1,0,3:0:0:0:
474,0,246542,2,1,P|485:13|487:31,1,35,2|0,3:0|3:0,3:0:0:0:
419,174,246917,2,0,B|419:198|448:223|434:247,1,69.9999999999999,0|2,3:0|3:1,3:0:0:0:
252,318,247667,37,0,3:0:0:0:
365,290,247855,1,0,3:0:0:0:
471,338,248042,2,0,P|455:347|438:350,1,35,2|0,3:2|3:0,3:0:0:0:
307,182,248417,1,0,3:0:0:0:
320,196,248511,1,0,3:0:0:0:
329,214,248605,1,0,3:0:0:0:
353,99,248792,1,0,3:0:0:0:
238,105,248980,2,0,P|207:113|187:100,1,50,2|0,3:0|3:0,3:0:0:0:
67,156,249355,2,0,B|55:143|31:135|31:135|29:129|29:129|16:120|2:100,1,87.0000000000001,2|0,3:1|3:0,3:0:0:0:
99,262,249917,1,0,3:0:0:0:
82,271,250011,1,0,3:0:0:0:
62,275,250105,1,0,3:0:0:0:
256,314,250292,70,0,B|282:308|282:308|288:302|288:302|310:308|325:296|342:301,1,90.0000000000001,2|0,3:1|3:0,3:0:0:0:
220,218,250855,2,0,P|224:231|231:237,1,22.5,0|0,3:0|3:0,3:0:0:0:
297,139,251042,2,0,P|291:159|298:183,1,45,2|0,3:0|3:0,3:0:0:0:
425,111,251417,1,0,3:0:0:0:
420,130,251511,1,0,3:0:0:0:
408,146,251605,1,0,3:0:0:0:
351,38,251792,1,0,3:0:0:0:
246,31,251980,1,0,3:0:0:0:
161,82,252167,1,0,3:0:0:0:
139,88,252261,1,0,3:0:0:0:
126,106,252355,1,0,3:0:0:0:
106,231,252542,2,0,P|65:222|53:180,1,90.0000000000001,2|0,3:2|3:0,3:0:0:0:
183,0,253292,54,0,P|209:35|221:79,1,90.0000000000001,6|0,3:0|3:0,3:0:0:0:
159,253,253855,2,0,P|149:232|143:211,1,45,0|2,3:0|3:0,3:0:0:0:
170,129,254230,1,0,3:0:0:0:
238,292,254417,1,0,3:0:0:0:
233,311,254511,1,0,3:0:0:0:
221,327,254605,1,0,3:0:0:0:
326,273,254792,1,0,3:0:0:0:
269,191,254980,1,0,3:0:0:0:
279,100,255167,2,0,L|302:81,1,22.5,2|0,3:2|3:0,3:0:0:0:
381,26,255355,2,0,L|409:16,1,22.5,0|0,3:0|3:0,3:0:0:0:
459,81,255542,2,0,B|452:109|452:109|455:115|455:115|440:167|418:215|489:254|454:310,1,225,2|0,3:1|3:0,3:0:0:0:
307,339,256292,38,0,P|331:318|356:248,1,100,6|0,3:0|3:0,3:0:0:0:
157,106,256855,2,0,P|142:127|136:151,1,50,0|2,3:0|3:2,3:0:0:0:
210,52,257230,1,0,3:0:0:0:
266,161,257417,1,0,3:0:0:0:
290,147,257511,1,0,3:0:0:0:
307,124,257605,1,0,3:0:0:0:
186,244,257792,1,4,3:0:0:0:
70,235,257980,2,0,P|85:252|110:263,1,50,0|0,3:0|3:0,3:0:0:0:
52,153,258355,1,0,3:0:0:0:
65,44,258542,1,2,3:2:0:0:
225,91,258730,2,0,B|199:55|163:49|158:17,1,100,0|0,3:0|3:0,3:0:0:0:
244,196,259292,70,0,P|284:167|310:124,1,100,6|0,3:0|3:0,3:0:0:0:
469,20,259855,2,0,P|468:44|456:66,1,50,0|2,3:0|3:2,3:0:0:0:
419,131,260230,1,0,3:0:0:0:
249,42,260417,1,0,3:0:0:0:
268,35,260511,1,0,3:0:0:0:
288,33,260605,1,0,3:0:0:0:
181,108,260792,1,4,3:0:0:0:
64,79,260980,1,0,3:0:0:0:
18,312,261355,53,0,3:0:0:0:
117,337,261542,1,6,3:0:0:0:
175,253,261730,2,0,P|142:215|95:201,1,100,0|0,3:0|3:0,3:0:0:0:
140,42,262292,38,0,B|120:62|120:62|99:68|99:68|56:108,1,100,2|0,3:1|3:0,3:0:0:0:
274,115,262855,2,0,P|253:99|265:77,1,50,0|2,3:0|3:2,3:0:0:0:
332,15,263230,1,0,3:0:0:0:
471,16,263417,1,0,3:0:0:0:
447,20,263511,1,0,3:0:0:0:
426,34,263605,1,0,3:0:0:0:
389,122,263792,1,4,3:0:0:0:
416,208,263980,1,0,3:0:0:0:
372,295,264167,1,0,3:0:0:0:
258,332,264355,1,0,3:0:0:0:
237,200,264542,1,2,3:2:0:0:
220,218,264636,1,0,3:0:0:0:
215,242,264730,1,0,3:0:0:0:
268,60,264917,69,0,3:0:0:0:
240,69,265011,53,0,3:0:0:0:
240,98,265105,37,0,3:0:0:0:
268,107,265198,69,0,3:0:0:0:
285,83,265292,53,6,3:2:0:0:
152,288,265855,53,0,2:0:0:0:
109,210,266042,1,0,2:0:0:0:
136,133,266230,1,0,2:0:0:0:
88,70,266417,1,0,2:0:0:0:
258,27,266792,1,2,2:0:0:0:
341,58,267167,1,0,2:0:0:0:
269,111,267355,2,0,P|251:112|216:103,1,50,0|2,2:0|2:0,2:0:0:0:
145,48,267730,1,0,2:0:0:0:
14,33,267917,2,0,P|27:77|56:123,1,100,0|6,2:0|2:0,2:0:0:0:
392,105,268854,21,0,2:0:0:0:
420,245,269042,1,2,2:0:0:0:
352,207,269229,1,0,2:0:0:0:
258,299,269604,1,0,2:0:0:0:
259,211,269792,2,0,P|212:225|166:209,1,100,2|0,3:2|2:0,2:0:0:0:
119,80,270354,2,0,P|134:128|96:136,1,100,0|0,2:0|2:0,2:0:0:0:
56,215,270917,1,0,2:0:0:0:
145,332,271292,1,2,3:2:0:0:
317,145,271667,1,0,2:0:0:0:
369,213,271854,2,0,L|487:185,1,100,0|0,2:0|2:0,2:0:0:0:
300,156,272417,1,0,2:0:0:0:
407,21,272979,53,0,2:0:0:0:
491,62,273167,1,0,2:0:0:0:
307,26,273503,1,2,3:2:0:0:
256,78,273690,1,0,2:0:0:0:
317,122,273878,1,0,2:0:0:0:
272,171,274065,1,0,2:0:0:0:
303,205,274253,1,2,3:2:0:0:
93,264,274815,21,0,2:0:0:0:
184,276,275003,2,0,P|162:288|138:293,1,50,2|0,2:0|2:0,2:0:0:0:
261,185,275565,1,0,2:0:0:0:
227,68,275753,2,0,L|243:166,1,100,0|0,3:2|2:0,2:0:0:0:
303,44,276315,1,0,2:0:0:0:
307,259,276878,1,0,2:0:0:0:
168,243,277316,1,0,3:0:0:0:
95,313,277878,1,0,2:0:0:0:
46,374,278499,38,1,B|80:340|124:352|124:352|111:305|127:269|127:269|85:269|52:242|52:242|42:284|2:303|2:303|33:320|43:357,1,403.08326934558,0|0,2:0|2:0,2:0:0:0:
