osu file format v14

[General]
AudioFilename: audio.mp3
AudioLeadIn: 0
PreviewTime: 46052
Countdown: 0
SampleSet: Soft
StackLeniency: 0.7
Mode: 0
LetterboxInBreaks: 0
WidescreenStoryboard: 0

[Editor]
DistanceSpacing: 1.32
BeatDivisor: 4
GridSize: 8
TimelineZoom: 2

[Metadata]
Title:Zenryoku Shounen produced by Okuda Tamio (anime ver.)
TitleUnicode:全力少年produced by 奥田民生(anime ver.)
Artist:Sukimaswitch
ArtistUnicode:スキマスイッチ
Creator:gary00737
Version:Hard
Source:ALL OUT!!オールアウト
Tags:produced 燃えろ!熱血リズム魂 押忍!闘え!応援団2 奥田民生 Pata-Mon 無限開關 Enkrypton Ouendan 2
BeatmapID:1329145
BeatmapSetID:629211

[Difficulty]
HPDrainRate:5
CircleSize:3.7
OverallDifficulty:5
ApproachRate:6
SliderMultiplier:1.27
SliderTickRate:2

[Events]
//Background and Video events
0,0,"sub5.jpg",0,0
Video,-805,"Video.avi"
//Break Periods
//Storyboard Layer 0 (Background)
//Storyboard Layer 1 (Fail)
//Storyboard Layer 2 (Pass)
//Storyboard Layer 3 (Foreground)
//Storyboard Sound Samples

[TimingPoints]
816,472.44094488189,4,2,1,65,1,0
46170,-86.9565217391304,4,2,1,65,0,1
61288,-83.3333333333333,4,2,1,65,0,1
68847,483.870967741935,4,2,1,75,1,1
68847,-83.3333333333333,4,2,1,75,0,1
70752,465.116279069767,4,2,1,75,1,1
70752,-83.3333333333333,4,2,1,75,0,1
72147,493.827160493827,4,2,1,75,1,1
72640,472.44094488189,4,2,1,75,1,1
85395,560.747663551402,4,2,1,65,1,0
85675,472.44094488189,4,2,1,65,1,0
85911,472.44094488189,4,2,1,65,1,0
86029,-100,4,2,1,65,0,0
86383,-100,4,2,1,56,0,0
86855,-100,4,2,1,48,0,0
87328,-100,4,2,1,40,0,0
87800,-100,4,2,1,32,0,0
88273,-100,4,2,1,24,0,0
88745,-100,4,2,1,16,0,0
89218,-100,4,2,1,5,0,0

[Colours]
Combo1 : 66,70,157
Combo2 : 214,233,129
Combo3 : 134,51,59

[HitObjects]
307,85,816,6,0,L|219:93,1,63.5,2|0,0:0|0:0,0:0:0:0:
228,172,1288,2,0,L|316:164,1,63.5,2|0,0:0|0:0,0:0:0:0:
373,159,1760,2,0,P|408:219|386:285,1,127,2|2,0:0|0:0,0:0:0:0:
338,331,2469,1,0,0:0:0:0:
264,367,2705,6,0,L|176:359,1,63.5,2|2,0:0|0:0,0:0:0:0:
118,351,3178,1,0,0:0:0:0:
167,284,3414,2,0,L|155:154,1,127,2|0,0:0|0:0,0:0:0:0:
162,74,4123,1,2,0:0:0:0:
227,125,4359,1,0,0:0:0:0:
227,125,4595,6,0,P|287:160|353:138,1,127,2|2,0:0|0:0,0:0:0:0:
358,67,5304,2,0,P|297:31|231:53,1,127,2|0,0:0|0:0,0:0:0:0:
227,125,6012,2,0,L|235:213,1,63.5,2|2,0:0|0:0,0:0:0:0:
314,198,6485,5,0,0:0:0:0:
314,198,6721,2,0,L|308:261,1,63.5,2|2,0:0|0:0,0:0:0:0:
225,263,7193,1,0,0:0:0:0:
259,339,7430,2,0,L|322:334,1,63.5,2|2,0:0|0:0,0:0:0:0:
404,327,7902,1,0,0:0:0:0:
404,327,8138,6,0,P|439:266|417:200,1,127,2|0,0:0|0:0,0:0:0:0:
360,164,8847,2,0,L|367:85,1,63.5,2|0,0:0|0:0,0:0:0:0:
292,63,9319,2,0,L|284:151,1,63.5,2|2,0:0|0:0,0:0:0:0:
281,208,9792,1,2,0:0:0:0:
212,162,10028,1,0,0:0:0:0:
212,162,10264,6,0,P|151:126|85:148,1,127,2|0,0:0|0:0,0:0:0:0:
51,206,10973,2,0,L|58:284,2,63.5,2|2|0,0:0|0:0|0:0,0:0:0:0:
21,128,11682,1,2,0:0:0:0:
63,57,11918,1,0,0:0:0:0:
63,57,12154,6,0,L|141:49,1,63.5,2|0,0:0|0:0,0:0:0:0:
206,29,12627,2,0,L|284:37,1,63.5,2|0,0:0|0:0,0:0:0:0:
335,83,13099,2,0,L|413:75,2,63.5,2|2|0,0:0|0:0|0:0,0:0:0:0:
261,120,13808,1,2,0:0:0:0:
261,120,14044,6,0,L|183:112,2,63.5,2|2|2,0:0|0:0|0:0,0:0:0:0:
331,163,14753,1,2,0:0:0:0:
321,245,14990,1,2,0:0:0:0:
394,210,15226,5,4,3:0:0:0:
335,83,15462,1,4,3:0:0:0:
255,198,15697,1,0,1:0:0:0:
410,126,15934,6,0,L|473:119,1,63.5,6|0,0:0|0:0,0:0:0:0:
506,43,16406,1,0,1:0:0:0:
506,43,16642,1,0,1:0:0:0:
424,29,16878,2,0,L|346:21,1,63.5,2|2,0:0|0:0,0:0:0:0:
278,11,17351,1,0,1:0:0:0:
310,89,17587,1,0,0:0:0:0:
230,110,17823,6,0,L|152:102,1,63.5,2|0,0:0|0:0,0:0:0:0:
84,96,18296,1,0,1:0:0:0:
84,96,18532,1,0,1:0:0:0:
52,172,18768,2,0,L|60:250,1,63.5,2|2,0:0|0:0,0:0:0:0:
15,305,19241,2,0,L|23:383,1,63.5,0|0,1:0|0:0,0:0:0:0:
103,361,19713,6,0,L|181:353,1,63.5,2|0,0:0|0:0,0:0:0:0:
248,346,20186,1,0,1:0:0:0:
248,346,20422,1,0,1:0:0:0:
311,292,20658,2,0,L|303:214,1,63.5,2|2,0:0|0:0,0:0:0:0:
380,196,21130,2,0,L|388:274,1,63.5,0|0,1:0|0:0,0:0:0:0:
433,327,21603,6,0,P|467:275|457:214,1,127,2|0,0:0|1:0,0:0:0:0:
380,196,22312,1,0,1:0:0:0:
435,135,22548,2,0,L|427:57,1,63.5,2|2,0:0|0:0,0:0:0:0:
347,86,23020,2,0,L|339:8,1,63.5,0|0,1:0|0:0,0:0:0:0:
258,33,23493,6,0,L|194:39,1,63.5,2|0,0:0|0:0,0:0:0:0:
113,55,23965,1,0,1:0:0:0:
113,55,24201,1,0,1:0:0:0:
169,117,24438,2,0,L|247:109,1,63.5,2|0,0:0|0:0,0:0:0:0:
313,129,24910,1,0,1:0:0:0:
256,189,25146,6,0,P|253:282|340:322,1,190.5,0|0,0:0|1:0,0:0:0:0:
325,238,26091,2,0,L|135:257,1,190.5,0|0,1:0|1:0,0:0:0:0:
54,271,27036,1,0,0:0:0:0:
68,352,27272,5,2,0:0:0:0:
149,338,27508,1,2,0:0:0:0:
135,257,27745,1,0,1:0:0:0:
54,271,27981,1,0,1:0:0:0:
149,338,28217,2,0,L|212:331,1,63.5,2|2,0:0|0:0,0:0:0:0:
279,282,28690,2,0,L|342:275,1,63.5,0|0,1:0|0:0,0:0:0:0:
420,247,29162,6,0,P|454:195|444:134,1,127,2|0,0:0|1:0,0:0:0:0:
393,68,29871,1,0,1:0:0:0:
393,68,30107,2,0,L|330:75,1,63.5,6|0,1:2|1:0,0:0:0:0:
342,157,30579,2,0,L|310:160,3,31.75,2|2|0|2,1:2|0:0|1:0|0:0,0:0:0:0:
266,175,31052,6,0,P|232:227|242:288,1,127,6|0,0:0|1:0,0:0:0:0:
314,327,31760,1,0,1:0:0:0:
311,244,31997,2,0,P|363:210|425:220,1,127,2|0,0:0|1:0,0:0:0:0:
381,290,32705,1,0,0:0:0:0:
463,295,32941,6,0,P|504:248|493:172,1,127,2|0,0:0|1:0,0:0:0:0:
433,138,33650,1,0,1:0:0:0:
425,220,33886,2,0,L|277:203,1,127,2|0,0:0|1:0,0:0:0:0:
216,194,34595,1,0,0:0:0:0:
159,133,34831,6,0,P|156:71|197:24,1,127,2|0,0:0|1:0,0:0:0:0:
234,98,35540,1,0,1:0:0:0:
314,80,35776,2,0,L|321:17,1,63.5,2|0,0:0|0:0,0:0:0:0:
396,49,36249,2,0,L|389:112,1,63.5,0|0,1:0|0:0,0:0:0:0:
324,163,36721,6,0,P|290:215|300:276,1,127,6|0,0:0|1:0,0:0:0:0:
373,314,37430,1,0,1:0:0:0:
370,232,37666,2,0,L|433:225,1,63.5,6|2,0:0|0:0,0:0:0:0:
506,188,38138,1,0,1:0:0:0:
436,143,38375,1,0,1:0:0:0:
504,280,38611,6,0,P|452:314|391:304,1,127,6|0,0:0|1:0,0:0:0:0:
366,225,39319,1,0,1:0:0:0:
300,276,39556,2,0,P|238:286|186:252,1,127,2|0,0:0|1:0,0:0:0:0:
181,170,40264,1,0,0:0:0:0:
255,208,40501,5,2,0:0:0:0:
316,152,40737,1,0,0:0:0:0:
278,76,40974,1,0,1:0:0:0:
195,88,41209,1,0,1:0:0:0:
181,170,41445,2,0,L|118:163,1,63.5,2|0,0:0|0:0,0:0:0:0:
49,94,41918,2,0,L|112:87,1,63.5,4|0,2:0|0:0,0:0:0:0:
195,88,42390,6,0,P|256:98|308:64,1,127,6|0,0:0|1:0,0:0:0:0:
239,17,43099,2,0,L|255:167,1,127,0|0,1:0|0:0,0:0:0:0:
334,157,43808,2,0,L|327:220,1,63.5,0|2,1:0|0:0,0:0:0:0:
244,226,44280,6,0,L|251:289,1,63.5,2|0,0:0|0:0,0:0:0:0:
262,371,44753,1,0,1:0:0:0:
100,351,45225,2,0,L|103:319,3,31.75,6|2|2|2,0:0|0:0|0:0|0:0,0:0:0:0:
77,286,45697,2,0,L|73:254,3,31.75,0|0|0|0,1:0|1:0|1:0|1:0,0:0:0:0:
99,211,46170,6,0,P|111:165|104:112,1,73.0250013928414,8|0,3:0|0:0,0:0:0:0:
53,64,46642,1,0,1:0:0:0:
53,64,46878,1,0,1:0:0:0:
147,54,47115,2,0,L|231:44,1,73.0250013928414,8|0,3:0|0:0,0:0:0:0:
282,116,47587,2,0,L|197:125,1,73.0250013928414,0|0,1:0|0:0,0:0:0:0:
310,37,48060,6,0,P|359:86|346:169,1,146.050002785683,8|0,3:0|1:0,0:0:0:0:
353,158,48768,1,0,1:0:0:0:
275,212,49004,1,8,3:0:0:0:
282,116,49241,1,0,1:0:0:0:
360,254,49477,1,0,1:0:0:0:
360,254,49949,6,0,L|444:244,1,73.0250013928414,8|0,3:0|0:0,0:0:0:0:
505,185,50422,1,0,1:0:0:0:
505,185,50658,1,0,1:0:0:0:
490,91,50894,2,0,P|465:63|411:47,1,73.0250013928414,8|0,3:0|0:0,0:0:0:0:
352,98,51367,2,0,P|375:126|409:141,1,73.0250013928414,0|0,1:0|0:0,0:0:0:0:
353,18,51839,6,0,P|288:50|275:122,1,146.050002785683,8|0,3:0|1:0,0:0:0:0:
273,117,52548,1,0,1:0:0:0:
331,192,52784,1,8,3:0:0:0:
352,98,53020,1,0,1:0:0:0:
241,204,53256,1,0,1:0:0:0:
241,204,53729,6,0,L|251:288,1,73.0250013928414,8|0,3:0|0:0,0:0:0:0:
156,256,54201,2,0,L|166:340,1,73.0250013928414,0|0,1:0|1:0,0:0:0:0:
72,305,54674,2,0,P|63:229|116:167,1,146.050002785683,8|0,3:0|1:0,0:0:0:0:
101,175,55382,1,0,0:0:0:0:
190,143,55619,6,0,P|172:113|141:93,1,73.0250013928414,8|0,3:0|0:0,0:0:0:0:
52,124,56091,2,0,P|70:154|101:174,1,73.0250013928414,0|0,1:0|1:0,0:0:0:0:
190,143,56564,2,0,L|262:134,2,73.0250013928414,8|0|0,3:0|1:0|1:0,0:0:0:0:
317,283,57508,6,0,L|448:267,2,109.537502089262,8|0|0,3:0|1:0|1:0,0:0:0:0:
228,247,58453,2,0,L|144:257,2,73.0250013928414,8|8|0,3:0|3:0|1:0,0:0:0:0:
313,204,59162,6,0,P|347:125|306:61,1,146.050002785683,6|8,1:2|3:0,0:0:0:0:
243,23,59871,2,0,L|159:33,1,73.0250013928414,0|2,1:0|2:0,0:0:0:0:
100,95,60343,2,0,L|63:90,2,36.5125006964207,12|0|0,1:3|1:0|1:0,0:0:0:0:
190,126,60816,2,0,L|227:121,2,36.5125006964207,0|0|0,1:0|1:0|1:0,0:0:0:0:
237,213,61288,6,0,L|321:203,1,76.1999976745606,4|0,2:0|0:0,0:0:0:0:
410,192,61760,1,0,1:0:0:0:
410,192,61997,1,0,1:0:0:0:
481,260,62233,2,0,P|499:299|492:342,1,76.1999976745606,8|0,3:0|0:0,0:0:0:0:
399,352,62705,2,0,P|381:313|388:270,1,76.1999976745606,0|0,1:0|0:0,0:0:0:0:
306,343,63178,6,0,L|144:323,1,152.399995349121,8|0,3:0|1:0,0:0:0:0:
154,324,63886,1,0,1:0:0:0:
63,283,64123,1,8,3:0:0:0:
92,377,64359,1,0,1:0:0:0:
144,225,64595,1,4,2:0:0:0:
144,225,65067,6,0,P|156:179|149:126,1,76.1999976745606,8|0,3:0|0:0,0:0:0:0:
134,53,65540,1,0,1:0:0:0:
134,53,65776,1,0,1:0:0:0:
233,38,66012,2,0,L|317:28,1,76.1999976745606,8|0,3:0|0:0,0:0:0:0:
375,101,66484,2,0,L|290:110,1,76.1999976745606,0|0,1:0|0:0,0:0:0:0:
401,24,66957,6,0,P|451:74|435:155,1,152.399995349121,8|0,3:0|1:0,0:0:0:0:
439,149,67666,1,0,1:0:0:0:
354,199,67902,1,8,3:0:0:0:
375,101,68138,1,0,1:0:0:0:
439,248,68375,1,0,1:0:0:0:
439,248,68847,6,0,L|449:164,2,76.1999976745606,6|0|0,1:2|0:0|1:0,0:0:0:0:
419,345,69572,2,0,P|354:308|283:327,1,152.399995349121,4|8,2:0|3:0,0:0:0:0:
199,382,70298,2,0,L|123:372,1,76.1999976745606,0|0,1:0|0:0,0:0:0:0:
60,277,70752,5,8,3:0:0:0:
116,195,70984,2,0,L|106:111,2,76.1999976745606,0|0|0,0:0|1:0|1:0,0:0:0:0:
143,291,71682,2,0,P|183:286|229:259,1,76.1999976745606,8|8,3:0|3:0,0:0:0:0:
204,187,72147,1,0,1:0:0:0:
116,195,72393,1,0,1:0:0:0:
62,306,72640,6,0,P|95:359|162:371,1,127,6|0,0:0|1:0,0:0:0:0:
238,375,73348,1,0,1:0:0:0:
249,292,73584,2,0,L|239:208,1,63.5,2|0,0:0|0:0,0:0:0:0:
231,122,74057,1,4,2:0:0:0:
231,122,74529,6,0,L|365:139,1,127,2|0,0:0|1:0,0:0:0:0:
357,138,75238,1,0,1:0:0:0:
418,225,75474,2,0,L|334:215,1,63.5,2|0,0:0|0:0,0:0:0:0:
354,300,75947,2,0,L|438:310,1,63.5,0|0,1:0|0:0,0:0:0:0:
502,237,76419,6,0,P|486:174|426:139,2,127,6|0|2,0:0|1:0|0:0,0:0:0:0:
498,319,77600,1,0,1:0:0:0:
498,319,77836,2,0,L|413:308,1,63.5,0|0,1:0|0:0,0:0:0:0:
339,299,78309,5,6,0:0:0:0:
339,299,79726,6,0,L|307:295,3,31.75,0|0|0|0,1:0|1:0|1:0|1:0,0:0:0:0:
266,290,80199,6,0,P|218:250|156:252,1,127,0|0,1:0|1:0,0:0:0:0:
156,252,80907,1,0,1:0:0:0:
99,312,81143,2,0,L|15:302,1,63.5,2|0,0:0|0:0,0:0:0:0:
12,224,81616,2,0,L|96:234,1,63.5,0|0,1:0|0:0,0:0:0:0:
156,252,82088,6,0,P|195:204|193:142,1,127,2|0,0:0|1:0,0:0:0:0:
193,142,82797,1,0,1:0:0:0:
134,84,83033,2,0,P|98:76|47:86,1,63.5,2|0,0:0|0:0,0:0:0:0:
29,149,83506,2,0,P|59:156|91:155,1,63.5,0|0,1:0|0:0,0:0:0:0:
193,142,83978,5,2,0:0:0:0:
282,55,84214,1,2,0:0:0:0:
261,177,84451,1,0,1:0:0:0:
206,66,84686,1,0,1:0:0:0:
317,125,84923,1,2,0:0:0:0:
196,218,85159,1,0,1:0:0:0:
334,199,85395,6,0,L|404:190,1,63.5,0|0,1:0|0:0,0:0:0:0:
360,60,85911,5,6,0:0:0:0:
256,192,86029,12,0,89454,0:0:0:0:
