osu file format v14

[General]
AudioFilename: audio.mp3
AudioLeadIn: 0
PreviewTime: 46052
Countdown: 0
SampleSet: Soft
StackLeniency: 0.7
Mode: 0
LetterboxInBreaks: 0
WidescreenStoryboard: 0

[Editor]
DistanceSpacing: 1.6
BeatDivisor: 4
GridSize: 8
TimelineZoom: 1.8

[Metadata]
Title:Zenryoku Shounen produced by Okuda Tamio (anime ver.)
TitleUnicode:全力少年produced by 奥田民生(anime ver.)
Artist:Sukimaswitch
ArtistUnicode:スキマスイッチ
Creator:gary00737
Version:ALL OUT !!
Source:ALL OUT!!オールアウト
Tags:produced 燃えろ!熱血リズム魂 押忍!闘え!応援団2 奥田民生 Pata-Mon 無限開關 Enkrypton Ouendan 2
BeatmapID:1328149
BeatmapSetID:629211

[Difficulty]
HPDrainRate:6
CircleSize:4.2
OverallDifficulty:7
ApproachRate:8
SliderMultiplier:1.57
SliderTickRate:2

[Events]
//Background and Video events
0,0,"sub5.jpg",0,0
Video,-805,"Video.avi"
//Break Periods
//Storyboard Layer 0 (Background)
//Storyboard Layer 1 (Fail)
//Storyboard Layer 2 (Pass)
//Storyboard Layer 3 (Foreground)
//Storyboard Sound Samples

[TimingPoints]
816,472.44094488189,4,2,1,65,1,0
15934,-83.3333333333333,4,2,1,65,0,0
18178,-83.3333333333333,4,2,1,5,0,0
18296,-83.3333333333333,4,2,1,65,0,0
31052,-133.333333333333,4,2,1,65,0,0
34241,-133.333333333333,4,2,1,5,0,0
34359,-133.333333333333,4,2,1,65,0,0
38138,-100,4,2,1,65,0,0
38493,-100,4,2,1,5,0,0
38611,-83.3333333333333,4,2,1,65,0,0
44634,-83.3333333333333,4,2,1,5,0,0
44753,-83.3333333333333,4,2,1,65,0,0
45107,-83.3333333333333,4,2,1,5,0,0
45225,-83.3333333333333,4,2,1,65,0,0
46170,-74.0740740740741,4,2,1,75,0,1
57863,-68.9655172413793,4,2,1,75,0,1
58453,-64.5161290322581,4,2,1,75,0,1
58926,-74.0740740740741,4,2,1,75,0,1
60343,-74.0740740740741,4,2,1,75,0,1
68847,483.870967741935,4,2,1,75,1,1
68847,-74.0740740740741,4,2,1,75,0,1
70752,465.116279069767,4,2,1,75,1,1
72147,493.827160493827,4,2,1,75,1,1
72640,472.44094488189,4,2,1,65,1,1
72640,-83.3333333333333,4,2,1,65,0,0
78309,-133.333333333333,4,2,1,65,0,0
79726,-100,4,2,1,65,0,0
83978,-83.3333333333333,4,2,1,65,0,0
85395,560.747663551402,4,2,1,65,1,0
85675,472.44094488189,4,2,1,65,1,0
85911,472.44094488189,4,2,1,65,1,0
86029,-100,4,2,1,65,0,0
86383,-100,4,2,1,56,0,0
86855,-100,4,2,1,48,0,0
87328,-100,4,2,1,40,0,0
87800,-100,4,2,1,32,0,0
88273,-100,4,2,1,24,0,0
88745,-100,4,2,1,16,0,0
89218,-100,4,2,1,5,0,0

[Colours]
Combo1 : 66,70,157
Combo2 : 214,233,129
Combo3 : 134,51,59

[HitObjects]
51,63,816,6,0,P|129:92|158:166,1,157,2|2,0:0|0:0,0:0:0:0:
59,162,1524,1,0,0:0:0:0:
157,155,1760,2,0,L|256:147,1,78.5,2|0,0:0|0:0,0:0:0:0:
343,211,2233,2,0,L|244:219,1,78.5,2|0,0:0|0:0,0:0:0:0:
171,228,2705,5,2,0:0:0:0:
235,148,2941,1,2,0:0:0:0:
226,291,3178,1,0,0:0:0:0:
157,155,3414,2,0,P|188:84|274:80,1,157,2|0,0:0|0:0,0:0:0:0:
343,211,4123,1,2,0:0:0:0:
235,148,4359,1,0,0:0:0:0:
235,148,4595,6,0,L|140:155,1,78.5,2|0,0:0|0:0,0:0:0:0:
59,162,5067,1,2,0:0:0:0:
171,228,5304,2,0,L|327:240,1,157,2|0,0:0|0:0,0:0:0:0:
435,252,6012,1,2,0:0:0:0:
391,135,6249,6,0,L|234:147,1,157,2|2,0:0|0:0,0:0:0:0:
171,228,6957,2,0,L|249:234,1,78.5,2|0,0:0|0:0,0:0:0:0:
137,156,7430,2,0,L|58:161,1,78.5,2|2,0:0|0:0,0:0:0:0:
70,294,7902,1,0,0:0:0:0:
251,311,8138,6,0,P|320:263|308:184,1,157,2|0,0:0|0:0,0:0:0:0:
234,147,8847,1,2,0:0:0:0:
249,234,9083,1,0,0:0:0:0:
260,73,9319,1,2,0:0:0:0:
316,197,9556,1,2,0:0:0:0:
157,155,9792,1,2,0:0:0:0:
334,114,10028,1,0,0:0:0:0:
157,155,10264,6,0,P|99:213|124:284,1,157,2|0,0:0|0:0,0:0:0:0:
225,178,10973,2,0,P|241:251|186:301,1,157,2|0,0:0|0:0,0:0:0:0:
157,155,11682,2,0,L|78:148,1,78.5,2|0,0:0|0:0,0:0:0:0:
171,228,12154,6,0,L|327:215,1,157,2|2,0:0|0:0,0:0:0:0:
425,204,12863,1,0,0:0:0:0:
322,142,13099,1,2,0:0:0:0:
381,272,13335,1,2,0:0:0:0:
400,130,13571,1,0,0:0:0:0:
304,292,13808,6,0,P|363:350|442:325,1,157,2|2,0:0|0:0,0:0:0:0:
425,204,14516,1,2,0:0:0:0:
318,282,14753,1,2,0:0:0:0:
445,198,14989,1,2,0:0:0:0:
247,202,15225,5,4,3:0:0:0:
361,348,15461,1,4,3:0:0:0:
463,194,15697,1,0,1:0:0:0:
222,179,15934,6,0,P|210:128|224:84,1,94.1999971252442,6|0,0:0|0:0,0:0:0:0:
400,130,16406,1,0,1:0:0:0:
301,134,16642,1,0,1:0:0:0:
481,84,16878,2,0,P|493:135|479:179,1,94.1999971252442,2|2,0:0|0:0,0:0:0:0:
400,130,17351,1,0,1:0:0:0:
481,174,17587,1,0,0:0:0:0:
364,296,17823,6,0,L|354:181,1,94.1999971252442,2|0,0:0|0:0,0:0:0:0:
341,62,18296,1,0,1:0:0:0:
356,203,18532,1,0,1:0:0:0:
221,88,18768,2,0,P|209:134|222:179,1,94.1999971252442,2|2,0:0|0:0,0:0:0:0:
301,134,19241,1,0,1:0:0:0:
221,177,19477,1,0,0:0:0:0:
116,111,19713,6,0,L|8:102,1,94.1999971252442,2|0,0:0|0:0,0:0:0:0:
153,39,20186,1,0,1:0:0:0:
144,185,20422,1,0,1:0:0:0:
22,103,20658,1,2,0:0:0:0:
221,88,20894,1,2,0:0:0:0:
144,185,21130,1,0,1:0:0:0:
153,39,21367,1,0,0:0:0:0:
222,179,21603,6,0,L|329:170,1,94.1999971252442,2|0,0:0|0:0,0:0:0:0:
453,158,22075,1,0,1:0:0:0:
373,45,22312,1,0,1:0:0:0:
315,171,22548,1,2,0:0:0:0:
452,158,22784,1,2,0:0:0:0:
315,171,23020,2,0,L|221:178,1,94.1999971252442,0|0,1:0|0:0,0:0:0:0:
290,82,23493,6,0,L|383:89,1,94.1999971252442,2|0,0:0|0:0,0:0:0:0:
512,99,23965,1,0,1:0:0:0:
395,18,24201,1,0,1:0:0:0:
358,165,24438,2,0,L|451:158,1,94.1999971252442,2|0,0:0|0:0,0:0:0:0:
290,82,24910,1,0,1:0:0:0:
300,224,25146,1,0,0:0:0:0:
451,157,25382,6,0,L|357:165,1,94.1999971252442,2|2,0:0|0:0,0:0:0:0:
221,251,25855,1,0,1:0:0:0:
379,244,26091,1,0,1:0:0:0:
222,179,26327,2,0,L|95:168,1,94.1999971252442,2|0,0:0|0:0,0:0:0:0:
167,345,26800,1,0,1:0:0:0:
300,224,27036,1,0,0:0:0:0:
142,246,27272,5,2,0:0:0:0:
115,95,27508,1,2,0:0:0:0:
221,251,27745,5,0,1:0:0:0:
221,88,27981,1,0,1:0:0:0:
128,170,28217,5,2,0:0:0:0:
137,19,28453,1,2,0:0:0:0:
222,179,28690,5,0,1:0:0:0:
221,88,28926,1,0,0:0:0:0:
128,170,29162,6,0,L|1:159,1,94.1999971252442,2|0,0:0|0:0,0:0:0:0:
221,88,29634,2,0,L|348:77,1,94.1999971252442,0|0,1:0|1:0,0:0:0:0:
467,59,30107,2,0,P|446:118|454:157,1,94.1999971252442,6|0,1:2|1:0,1:0:0:0:
469,175,30461,1,0,1:0:0:0:
479,206,30579,1,2,1:2:0:0:
452,339,30816,1,0,1:0:0:0:
315,344,31052,5,6,0:0:0:0:
315,344,31524,1,0,1:0:0:0:
229,294,31760,1,0,1:0:0:0:
320,184,31997,2,0,L|314:252,1,58.8750022459031,2|0,0:0|0:0,0:0:0:0:
226,193,32469,2,0,L|220:124,1,58.8750022459031,0|0,1:0|0:0,0:0:0:0:
210,17,32941,5,2,0:0:0:0:
210,17,33414,1,0,1:0:0:0:
317,67,33650,1,0,1:0:0:0:
226,193,33886,2,0,L|220:134,1,58.8750022459031,2|0,0:0|0:0,0:0:0:0:
210,17,34359,1,0,1:0:0:0:
85,56,34595,1,0,0:0:0:0:
85,56,34831,6,0,P|93:112|52:162,1,117.750004491806,2|0,0:0|1:0,0:0:0:0:
132,242,35540,2,0,B|117:198|117:198|42:147,1,117.750004491806,0|0,1:0|0:0,0:0:0:0:
57,245,36249,1,0,1:0:0:0:
130,122,36485,1,0,0:0:0:0:
18,135,36721,5,6,0:0:0:0:
132,242,36957,1,2,0:0:0:0:
130,122,37193,1,0,1:0:0:0:
18,135,37430,1,0,1:0:0:0:
132,242,37666,5,6,0:0:0:0:
85,56,37902,1,2,0:0:0:0:
57,245,38138,5,0,1:0:0:0:
158,55,38375,1,0,1:0:0:0:
216,269,38611,6,0,P|259:337|360:319,1,188.399994250488,6|0,0:0|1:0,0:0:0:0:
389,238,39319,1,0,1:0:0:0:
488,309,39556,2,0,P|508:267|508:220,1,94.1999971252442,2|0,0:0|0:0,0:0:0:0:
317,175,40028,2,0,P|296:216|296:263,1,94.1999971252442,0|0,1:0|0:0,0:0:0:0:
365,60,40501,6,0,L|257:51,1,94.1999971252442,2|0,0:0|0:0,0:0:0:0:
162,42,40973,1,0,1:0:0:0:
209,141,41209,1,0,1:0:0:0:
271,52,41445,1,2,0:0:0:0:
130,122,41682,1,0,0:0:0:0:
300,136,41918,1,4,2:0:0:0:
162,42,42154,1,0,0:0:0:0:
268,211,42390,6,0,P|266:310|174:346,1,188.399994250488,6|0,0:0|1:0,0:0:0:0:
194,259,43099,1,0,1:0:0:0:
356,344,43335,1,2,0:0:0:0:
342,158,43571,1,0,0:0:0:0:
276,299,43808,1,0,1:0:0:0:
428,211,44044,1,2,0:0:0:0:
276,123,44280,6,0,P|331:83|398:108,1,141.299995687866,2|0,0:0|0:0,0:0:0:0:
342,158,44753,2,0,L|201:146,1,141.299995687866,0|0,1:0|0:0,0:0:0:0:
170,143,45225,5,6,0:0:0:0:
241,284,45461,1,2,0:0:0:0:
255,259,45579,1,2,0:0:0:0:
260,231,45697,1,0,1:0:0:0:
257,204,45815,1,0,1:0:0:0:
245,178,45933,1,0,1:0:0:0:
225,158,46051,1,0,1:0:0:0:
201,146,46170,5,8,3:0:0:0:
349,243,46406,1,0,0:0:0:0:
175,229,46642,1,0,1:0:0:0:
335,113,46878,1,0,1:0:0:0:
394,312,47115,2,0,P|339:325|292:303,1,105.975000404263,8|0,3:0|0:0,0:0:0:0:
304,154,47587,2,0,P|342:195|347:246,1,105.975000404263,0|0,1:0|0:0,0:0:0:0:
217,133,48060,6,0,L|229:-8,1,105.975000404263,8|0,3:0|0:0,0:0:0:0:
374,22,48532,1,0,1:0:0:0:
304,154,48768,1,0,1:0:0:0:
225,27,49004,1,8,3:0:0:0:
382,127,49241,1,0,1:0:0:0:
217,133,49477,1,0,1:0:0:0:
492,231,49949,6,0,L|384:222,1,105.975000404263,8|0,3:0|0:0,0:0:0:0:
267,211,50422,1,0,1:0:0:0:
333,311,50658,1,0,1:0:0:0:
412,144,50894,1,8,3:0:0:0:
333,311,51130,1,0,0:0:0:0:
317,123,51367,2,0,P|262:110|205:131,1,105.975000404263,0|0,1:0|0:0,0:0:0:0:
217,299,51839,6,0,P|255:257|266:198,1,105.975000404263,8|0,3:0|0:0,0:0:0:0:
152,74,52312,1,0,1:0:0:0:
183,220,52548,1,0,1:0:0:0:
258,100,52784,1,8,3:0:0:0:
90,181,53020,1,0,1:0:0:0:
258,100,53256,1,0,1:0:0:0:
83,342,53729,6,0,P|139:344|184:317,1,105.975000404263,8|0,3:0|0:0,0:0:0:0:
90,181,54202,1,0,1:0:0:0:
117,261,54438,1,0,1:0:0:0:
124,100,54674,2,0,P|68:98|23:125,1,105.975000404263,8|0,3:0|0:0,0:0:0:0:
203,244,55146,1,0,1:0:0:0:
8,202,55382,1,0,0:0:0:0:
183,164,55619,6,0,P|211:114|200:61,1,105.975000404263,8|0,3:0|0:0,0:0:0:0:
23,28,56091,1,0,1:0:0:0:
124,100,56327,1,0,1:0:0:0:
0,110,56564,1,8,3:0:0:0:
90,181,56800,1,0,1:0:0:0:
104,22,57036,1,0,1:0:0:0:
90,181,57272,1,0,0:0:0:0:
262,84,57508,6,0,P|234:134|245:187,1,105.975000404263,8|0,3:0|1:0,0:0:0:0:
332,122,57863,1,0,1:0:0:0:
332,122,57981,6,0,B|291:129|291:129|241:180,1,113.825003473663,0|0,1:0|1:0,0:0:0:0:
332,334,58453,6,0,L|343:212,1,121.675000928307,8|8,3:0|3:0,0:0:0:0:
449,147,58926,1,0,1:0:0:0:
240,180,59162,6,0,B|124:222|140:135|22:185,1,211.950000808525,6|8,1:2|3:0,0:0:0:0:
183,96,59871,1,0,1:0:0:0:
85,265,60107,1,2,2:0:0:0:
21,56,60343,5,12,1:3:0:0:
71,38,60461,1,0,1:0:0:0:
123,33,60579,1,0,1:0:0:0:
174,47,60697,1,0,1:0:0:0:
224,63,60815,1,0,1:0:0:0:
277,63,60933,1,0,1:0:0:0:
328,49,61051,1,0,1:0:0:0:
440,96,61288,6,0,P|420:154|436:206,1,105.975000404263,4|0,2:0|0:0,0:0:0:0:
510,273,61760,1,0,1:0:0:0:
324,179,61997,1,0,1:0:0:0:
386,361,62233,2,0,P|406:303|390:251,1,105.975000404263,8|0,3:0|0:0,0:0:0:0:
190,246,62705,2,0,P|170:304|186:356,1,105.975000404263,0|0,1:0|0:0,0:0:0:0:
238,153,63178,6,0,P|197:106|144:94,1,105.975000404263,8|0,3:0|0:0,0:0:0:0:
25,124,63650,1,0,1:0:0:0:
154,183,63886,1,0,1:0:0:0:
75,48,64123,1,8,3:0:0:0:
109,251,64359,1,0,1:0:0:0:
75,48,64595,1,4,2:0:0:0:
301,66,65067,6,0,L|409:57,1,105.975000404263,8|0,3:0|0:0,0:0:0:0:
456,229,65540,1,0,1:0:0:0:
488,43,65776,1,0,1:0:0:0:
324,179,66012,1,8,3:0:0:0:
406,57,66249,1,0,0:0:0:0:
456,229,66485,2,0,L|447:337,1,105.975000404263,0|0,1:0|0:0,0:0:0:0:
262,284,66957,6,0,P|160:257|88:327,1,211.950000808525,8|0,3:0|1:0,0:0:0:0:
187,359,67666,1,0,1:0:0:0:
262,284,67902,2,0,L|370:275,1,105.975000404263,8|0,3:0|1:0,0:0:0:0:
508,262,68375,1,0,1:0:0:0:
301,66,68847,6,0,L|193:57,1,105.975000404263,6|0,1:2|0:0,0:0:0:0:
75,48,69330,1,0,1:0:0:0:
42,248,69572,2,0,P|143:235|185:143,1,211.950000808525,4|8,2:0|3:0,0:0:0:0:
75,48,70298,2,0,L|84:156,1,105.975000404263,0|0,1:0|0:0,0:0:0:0:
195,57,70752,5,8,3:0:0:0:
257,167,70984,1,0,0:0:0:0:
83,153,71217,1,0,1:0:0:0:
195,57,71449,1,0,1:0:0:0:
183,231,71682,1,8,3:0:0:0:
301,66,71914,1,8,3:0:0:0:
387,192,72147,1,0,1:0:0:0:
185,143,72393,1,0,1:0:0:0:
444,259,72640,6,0,P|472:174|412:107,1,188.399994250488,6|0,0:0|1:0,0:0:0:0:
301,66,73348,1,0,1:0:0:0:
301,66,73584,2,0,L|182:75,1,94.1999971252442,2|0,0:0|0:0,0:0:0:0:
183,231,74057,2,0,P|198:174|168:126,1,94.1999971252442,4|0,2:0|0:0,0:0:0:0:
125,290,74529,6,0,P|220:305|264:225,1,188.399994250488,2|0,0:0|1:0,0:0:0:0:
146,139,75238,1,0,1:0:0:0:
146,139,75474,2,0,L|27:129,1,94.1999971252442,2|0,0:0|0:0,0:0:0:0:
207,73,75947,2,0,L|326:63,1,94.1999971252442,0|0,1:0|0:0,0:0:0:0:
466,38,76419,6,0,P|432:117|491:211,1,188.399994250488,6|0,0:0|1:0,0:0:0:0:
370,187,77128,1,0,1:0:0:0:
312,56,77364,1,2,0:0:0:0:
241,198,77600,1,0,1:0:0:0:
385,103,77836,1,0,1:0:0:0:
313,245,78073,1,0,0:0:0:0:
177,54,78309,6,0,B|134:34|93:69|60:47|60:47|81:19|116:20,1,176.625006737709,6|0,0:0|0:0,0:0:0:0:
107,20,79490,1,0,0:0:0:0:
219,64,79726,5,0,1:0:0:0:
251,71,79844,1,0,1:0:0:0:
283,66,79962,1,0,1:0:0:0:
315,60,80080,1,0,1:0:0:0:
348,64,80198,1,0,1:0:0:0:
478,173,80671,5,0,1:0:0:0:
478,173,80907,1,0,1:0:0:0:
398,229,81143,2,0,P|361:219|316:225,1,78.5,2|0,0:0|0:0,0:0:0:0:
256,296,81616,2,0,P|217:300|179:290,1,78.5,0|0,1:0|0:0,0:0:0:0:
148,149,82088,6,0,P|161:69|237:42,1,157,2|0,0:0|1:0,0:0:0:0:
299,104,82797,1,0,1:0:0:0:
359,28,83033,2,0,P|394:19|438:30,1,78.5,2|0,0:0|0:0,0:0:0:0:
434,174,83506,2,0,P|399:183|355:172,1,78.5,0|0,1:0|0:0,0:0:0:0:
397,101,83978,5,2,0:0:0:0:
400,266,84214,1,2,0:0:0:0:
255,186,84451,1,0,1:0:0:0:
434,174,84687,5,0,1:0:0:0:
318,262,84923,1,2,0:0:0:0:
300,118,85159,1,0,1:0:0:0:
400,266,85395,6,0,P|381:313|350:338,1,78.5,0|0,1:0|0:0,0:0:0:0:
358,173,85911,5,6,0:0:0:0:
256,192,86029,12,0,89454,0:0:0:0:
