osu file format v14

[General]
AudioFilename: audio.mp3
AudioLeadIn: 0
PreviewTime: 68513
Countdown: 0
SampleSet: Soft
StackLeniency: 0.7
Mode: 0
LetterboxInBreaks: 0
WidescreenStoryboard: 1

[Editor]
Bookmarks: 51206,71974
DistanceSpacing: 1.3
BeatDivisor: 4
GridSize: 4
TimelineZoom: 1.3

[Metadata]
Title:Line (TV Edit)
TitleUnicode:ライン (TV Edit)
Artist:Sukima Switch
ArtistUnicode:スキマスイッチ
Creator:GOUDA
Version:Normal
Source:Naruto
Tags:slow japanese rock
BeatmapID:1208661
BeatmapSetID:568155

[Difficulty]
HPDrainRate:2
CircleSize:3
OverallDifficulty:2
ApproachRate:7
SliderMultiplier:1.00000000596046
SliderTickRate:1

[Events]
//Background and Video events
0,0,"simple-background-anime-rooms-naruto-shippuuden-uzumaki-naruto.jpg",0,0
//Break Periods
//Storyboard Layer 0 (Background)
//Storyboard Layer 1 (Fail)
//Storyboard Layer 2 (Pass)
//Storyboard Layer 3 (Foreground)
//Storyboard Sound Samples

[TimingPoints]
6206,461.538461538462,6,2,0,25,1,0
11744,-100,6,2,0,25,0,0
15206,-200,6,2,0,25,0,0
17282,-100,6,2,0,25,0,0
26282,-100,6,2,0,25,0,0
33898,-100,6,2,0,20,0,0
42898,-200,6,2,0,25,0,0
44975,-200,6,2,0,25,0,0
47744,-100,6,2,0,25,0,0
50513,-66.6666666666667,6,2,0,25,0,0
54667,-100,6,2,0,25,0,0
62975,461.538461538462,3,2,0,25,1,1
68513,-200,3,2,0,25,0,1
70359,-133.333333333333,3,2,0,25,0,1
71282,461.538461538462,6,2,0,25,1,1
71282,-50,6,2,0,25,0,1
72666,-66.6666666666667,6,2,0,25,0,1
74051,461.538461538463,3,2,0,25,1,1
79589,461.538461538462,6,2,0,25,1,0

[HitObjects]
184,104,6206,5,4,0:0:0:0:
120,176,6666,1,0,0:0:0:0:
120,176,6898,2,0,P|104:216|112:272,1,100.000000596046
192,232,7590,5,4,0:0:0:0:
280,200,8052,1,0,0:0:0:0:
280,200,8282,2,0,P|253:165|201:143,1,100.000000596046
312,104,8976,5,4,0:0:0:0:
408,144,9436,1,0,0:0:0:0:
408,144,9668,2,0,P|392:88|400:32,1,100.000000596046
412,0,10359,1,0,0:0:0:0:
144,136,11744,6,4,P|170:97|223:78,1,100.000000596046,4|0,0:0|0:0,0:0:0:0:
248,80,12436,1,0,0:0:0:0:
236,136,12898,1,0,0:0:0:0:
236,136,13129,2,0,B|277:124|332:157,1,100.000000596046,4|0,0:0|0:0,0:0:0:0:
280,232,14282,2,0,P|320:256|336:256,1,50.000000298023
372,232,14975,1,0,0:0:0:0:
256,112,15206,6,0,L|216:80,1,50.000000298023
324,32,15898,2,0,L|328:88,1,50.000000298023
256,112,16821,5,0,0:0:0:0:
324,32,17052,1,0,0:0:0:0:
352,40,17282,6,0,P|397:62|422:115,1,100.000000596046,4|0,0:0|0:0,0:0:0:0:
408,156,17974,1,0,0:0:0:0:
456,228,18436,6,0,P|433:269|422:279,1,50.000000298023,0|4,0:0|0:0,0:0:0:0:
280,308,19128,1,0,0:0:0:0:
192,276,19590,6,0,P|212:244|240:232,1,50.000000298023
296,220,20052,2,0,P|324:224|352:240,2,50.000000298023
152,208,20744,6,0,L|80:128,1,100.000000596046
207,54,21436,2,0,L|228:152,1,100.000000596046
344,68,22129,2,0,L|318:164,1,100.000000596046
148,106,22821,6,0,P|177:70|280:64,1,150.000000894069,4|0,0:0|0:0,0:0:0:0:
340,88,23744,1,0,0:0:0:0:
340,88,23975,1,0,0:0:0:0:
340,88,24206,1,4,0:0:0:0:
184,232,25129,6,0,P|164:247|144:276,1,50.000000298023
124,296,25590,2,0,P|92:252|88:188,1,100.000000596046,4|0,0:0|0:0,0:0:0:0:
92,172,26282,2,0,P|108:140|132:120,2,50.000000298023
92,172,26975,1,0,0:0:0:0:
184,232,27898,5,0,0:0:0:0:
96,176,28129,2,0,P|120:152|156:136,1,50.000000298023
344,160,28821,1,0,0:0:0:0:
256,192,29052,12,0,31129,0:0:0:0:
152,112,31821,6,0,P|187:64|235:42,1,100.000000596046
272,104,32513,2,0,P|296:112|312:152,1,50.000000298023
248,168,32975,1,0,0:0:0:0:
133,111,33898,6,0,P|93:169|83:219,1,100.000000596046,4|0,0:0|0:0,0:0:0:0:
88,232,34590,1,0,0:0:0:0:
152,240,35052,1,0,0:0:0:0:
152,240,35283,2,0,P|204:170|232:152,1,100.000000596046,0|4,0:0|0:0,0:0:0:0:
304,104,36206,6,0,P|325:90|348:82,1,50.000000298023
432,104,36667,1,0,0:0:0:0:
432,104,37128,1,4,0:0:0:0:
200,208,38975,6,0,P|218:243|243:251,1,50.000000298023,4|0,0:0|0:0,0:0:0:0:
312,280,39436,2,0,P|360:258|392:215,1,100.000000596046,0|4,0:0|0:0,0:0:0:0:
376,136,40128,1,0,0:0:0:0:
200,208,40590,2,0,L|136:240,3,50.000000298023
304,184,41744,5,0,0:0:0:0:
360,120,41975,1,0,0:0:0:0:
280,104,42206,2,0,L|232:72,2,50.000000298023
312,192,43129,6,0,L|336:208,4,25.0000001490115
208,320,44513,5,4,0:0:0:0:
208,320,44744,1,0,0:0:0:0:
208,320,44975,2,0,P|168:296|152:264,1,75.0000004470345
200,200,45898,1,0,0:0:0:0:
136,144,46129,1,0,0:0:0:0:
200,88,46359,2,0,L|224:64,2,25.0000001490115
281,157,47283,5,0,0:0:0:0:
281,157,47513,1,0,0:0:0:0:
384,144,47744,2,0,P|374:113|328:64,1,100.000000596046,4|0,0:0|0:0,0:0:0:0:
136,104,48667,2,0,P|147:81|167:67,1,50.000000298023
224,152,49129,1,4,0:0:0:0:
392,48,49589,1,0,0:0:0:0:
392,152,49821,1,4,0:0:0:0:
224,48,50283,1,0,0:0:0:0:
256,192,50513,12,0,52821,0:0:0:0:
232,160,53282,5,4,0:0:0:0:
232,160,53513,1,4,0:0:0:0:
232,160,53744,1,4,0:0:0:0:
280,72,53975,1,0,0:0:0:0:
368,96,54206,1,0,0:0:0:0:
280,72,54436,1,0,0:0:0:0:
192,72,54667,6,0,P|117:104|96:128,1,100.000000596046,0|4,0:0|0:0,0:0:0:0:
224,160,55590,1,0,0:0:0:0:
224,160,55821,1,0,0:0:0:0:
224,160,56052,2,0,P|270:143|319:145,1,100.000000596046,4|0,3:0|3:0,3:0:0:0:
384,160,56744,2,0,P|440:215|416:287,1,150.000000894069,0|0,0:0|0:0,0:3:0:0:
272,224,58128,5,4,0:0:0:0:
272,224,58359,1,0,0:0:0:0:
272,224,58590,1,0,0:0:0:0:
176,176,58821,2,0,P|197:142|256:122,1,100.000000596046,4|0,0:0|0:0,0:0:0:0:
360,128,59513,1,0,0:0:0:0:
272,312,59975,1,0,0:0:0:0:
272,312,60206,2,0,P|209:294|182:251,1,100.000000596046,0|4,0:0|0:0,0:0:0:0:
256,192,61590,12,0,62513,0:0:0:0:
288,48,62975,6,4,P|320:48|384:72,1,100.000000596046,0|4,0:0|0:0,0:0:0:0:
320,152,63667,1,0,0:0:0:0:
320,152,63898,1,0,0:0:0:0:
320,152,64128,1,4,0:0:0:0:
264,240,64359,2,0,P|250:226|236:198,1,50.000000298023
200,112,64821,1,12,0:0:0:0:
200,112,65051,1,0,0:0:0:0:
288,32,65513,5,0,0:0:0:0:
288,32,65744,2,4,P|312:56|312:136,1,100.000000596046,0|4,0:0|0:0,0:0:0:0:
200,128,66897,5,0,0:0:0:0:
200,128,67128,2,4,P|184:176|130:214,1,100.000000596046
96,240,68513,6,4,P|104:272|120:280,1,50.000000298023
192,320,69205,2,0,P|214:310|232:280,1,50.000000298023,4|0,0:0|0:0,0:0:0:0:
176,224,69898,1,0,0:0:0:0:
248,184,70128,1,0,0:0:0:0:
160,104,70359,2,0,L|136:88,2,18.7500008270144
336,160,71282,5,4,0:0:0:0:
336,160,71512,1,0,0:0:0:0:
336,160,71743,1,0,0:0:0:0:
224,264,71974,1,4,0:0:0:0:
224,264,72205,1,0,0:0:0:0:
224,264,72435,1,0,0:0:0:0:
125,219,72666,2,0,B|136:169|183:137|237:187|237:211|213:155|213:91|141:75,1,225.000009924173,4|0,0:0|0:0,0:0:0:0:
376,256,74051,6,0,P|359:283|304:324,1,100.000000596046,4|0,0:0|0:0,0:0:0:0:
200,312,74743,1,0,0:0:0:0:
232,216,74974,1,4,0:0:0:0:
328,200,75204,1,0,0:0:0:0:
400,272,75435,2,0,L|439:303,3,50.000000298023
137,129,76589,5,0,0:0:0:0:
137,129,76820,2,0,P|157:85|200:60,1,100.000000596046,4|0,0:0|0:0,0:0:0:0:
368,88,77743,1,0,0:0:0:0:
368,88,77974,1,0,0:0:0:0:
368,88,78204,2,0,P|352:136|298:174,1,100.000000596046,4|0,0:0|0:0,0:0:0:0:
232,176,78897,2,4,P|232:224|288:248,1,100.000000596046
384,248,79589,5,4,0:0:0:0:
384,248,79819,1,0,0:0:0:0:
384,248,80050,1,0,0:0:0:0:
327,155,80281,2,0,P|341:108|376:72,1,100.000000596046
224,184,80973,5,4,0:0:0:0:
224,184,81204,1,0,0:0:0:0:
224,184,81435,1,0,0:0:0:0:
104,136,81665,2,0,P|120:90|164:68,1,100.000000596046
457,355,83050,6,0,P|450:305|424:264,1,100.000000596046,4|0,0:0|0:0,0:0:0:0:
200,248,83742,2,0,L|168:280,4,25.0000001490115
320,56,84435,2,0,L|328:24,4,25.0000001490115
120,64,85589,5,0,0:0:0:0:
120,64,85819,1,0,0:0:0:0:
256,192,86050,12,0,87665,0:0:0:0:
