osu file format v14

[General]
AudioFilename: audio.mp3
AudioLeadIn: 0
PreviewTime: 68513
Countdown: 0
SampleSet: Soft
StackLeniency: 0.7
Mode: 0
LetterboxInBreaks: 0
WidescreenStoryboard: 0

[Editor]
Bookmarks: 51206,71974
DistanceSpacing: 1.5
BeatDivisor: 4
GridSize: 32
TimelineZoom: 1.3

[Metadata]
Title:Line (TV Edit)
TitleUnicode:ライン (TV Edit)
Artist:Sukima Switch
ArtistUnicode:スキマスイッチ
Creator:GOUDA
Version:Insane
Source:Naruto: Shippūden
Tags:slow rock japanese
BeatmapID:1204056
BeatmapSetID:568155

[Difficulty]
HPDrainRate:6
CircleSize:4.2
OverallDifficulty:6
ApproachRate:8
SliderMultiplier:1.00000000596046
SliderTickRate:1

[Events]
//Background and Video events
0,0,"simple-background-anime-rooms-naruto-shippuuden-uzumaki-naruto.jpg",0,0
//Break Periods
//Storyboard Layer 0 (Background)
//Storyboard Layer 1 (Fail)
//Storyboard Layer 2 (Pass)
//Storyboard Layer 3 (Foreground)
//Storyboard Sound Samples

[TimingPoints]
6206,461.538461538462,6,2,1,30,1,0
11282,-100,6,2,1,40,0,0
11744,-100,6,2,1,30,0,0
22821,-200,6,2,1,25,0,0
26282,-100,6,2,1,25,0,0
28359,-50,6,2,1,25,0,0
29052,-50,6,2,1,25,0,0
31821,-100,6,2,1,25,0,0
33898,-100,6,2,1,25,0,0
36667,-66.6666666666667,6,2,1,25,0,0
38975,-100,6,2,1,20,0,0
42898,-200,6,2,1,25,0,0
44975,-200,6,2,1,25,0,0
47744,-100,6,2,1,25,0,0
50513,-66.6666666666667,6,2,1,25,0,0
53282,-66.6666666666667,6,2,2,25,0,0
54667,-100,6,2,1,25,0,0
56052,-100,6,2,1,25,0,0
62975,461.538461538462,3,2,2,25,1,1
68513,-200,3,2,2,25,0,0
69898,-200,3,2,2,25,0,0
70359,-133.333333333333,3,2,2,25,0,0
71282,461.538461538462,6,2,1,25,1,0
71282,-50,6,2,2,25,0,1
72666,-66.6666666666667,6,2,2,20,0,0
74051,461.538461538463,3,2,2,25,1,1
79589,461.538461538462,6,2,2,25,1,1

[Colours]
Combo1 : 215,101,243
Combo2 : 118,140,245
Combo3 : 135,56,241
Combo4 : 255,154,53

[HitObjects]
77,102,6206,6,2,P|114:66|128:64,1,50.000000298023,2|0,0:0|0:0,0:0:0:0:
209,42,6667,2,8,P|256:62|263:75,1,50.000000298023,0|10,0:0|0:0,0:0:0:0:
190,130,7129,1,0,0:0:0:0:
139,185,7360,1,0,0:0:0:0:
383,100,7590,2,2,P|420:82|438:82,1,50.000000298023,2|0,0:0|0:0,0:0:0:0:
511,146,8052,2,0,P|504:181|480:208,1,50.000000298023,2|8,0:0|0:0,0:0:0:0:
383,100,8513,1,0,0:0:0:0:
327,57,8743,1,0,0:0:0:0:
310,219,8975,5,2,0:0:0:0:
502,219,9206,1,0,0:0:0:0:
383,365,9437,1,0,0:0:0:0:
310,301,9667,1,8,0:0:0:0:
438,173,9898,1,0,0:0:0:0:
484,319,10129,1,0,0:0:0:0:
201,201,10359,6,0,P|201:164|216:136,1,50.000000298023,2|0,0:0|0:0,0:0:0:0:
164,54,10821,2,0,P|198:40|232:48,1,50.000000298023,2|8,0:0|0:0,0:0:0:0:
306,101,11282,1,0,0:3:0:0:
232,111,11513,1,0,0:0:0:0:
429,314,11744,6,2,P|382:307|342:268,1,100.000000596046,2|0,0:0|0:0,0:0:0:0:
325,238,12436,1,8,0:0:0:0:
175,143,12898,1,0,0:0:0:0:
176,104,13129,2,2,B|185:46|244:43,1,100.000000596046
240,128,14282,1,2,0:0:0:0:
240,128,14513,2,0,B|246:110|275:92,2,50.000000298023,2|0|2,0:0|0:0|0:0,0:0:0:0:
179,0,15206,5,8,0:0:0:0:
171,81,15436,1,0,0:0:0:0:
240,128,15666,1,8,0:0:0:0:
362,140,15898,5,2,0:0:0:0:
370,220,16128,1,0,0:0:0:0:
330,284,16358,1,2,0:0:0:0:
239,236,16590,5,8,0:0:0:0:
152,253,16820,1,0,0:0:0:0:
100,319,17051,1,8,0:0:0:0:
100,319,17282,2,2,P|66:282|67:216,1,100.000000596046,2|0,0:0|0:0,0:0:0:0:
168,192,17975,2,0,P|208:144|200:112,1,100.000000596046,2|0,0:0|0:0,0:0:0:0:
120,56,18667,2,2,P|135:36|208:23,1,100.000000596046
272,208,19591,6,0,P|259:228|236:236,1,50.000000298023
24,152,20052,1,0,0:0:0:0:
167,119,20282,1,2,0:0:0:0:
112,257,20513,1,0,0:0:0:0:
16,344,20744,2,0,P|38:333|66:300,1,50.000000298023,8|0,0:0|0:0,0:0:0:0:
112,257,21206,1,0,0:0:0:0:
35,159,21436,5,2,0:0:0:0:
115,72,21667,1,2,0:0:0:0:
225,117,21898,1,0,0:0:0:0:
35,159,22129,2,0,P|26:138|23:103,2,50.000000298023,8|0|8,0:0|0:0|0:0,0:0:0:0:
117,92,22821,6,2,P|146:56|176:48,1,75.0000004470345,2|10,0:0|0:0,0:0:0:0:
320,29,23744,1,0,0:0:0:0:
444,117,23975,1,0,0:0:0:0:
433,273,24206,1,2,0:0:0:0:
332,139,24436,1,0,0:0:0:0:
444,117,24667,1,2,0:0:0:0:
348,254,24898,1,8,0:0:0:0:
511,188,25129,1,0,0:0:0:0:
332,139,25359,1,0,0:0:0:0:
444,117,25590,6,4,P|427:91|383:73,1,75.0000004470345,2|8,0:0|0:0,0:0:0:0:
290,97,26513,2,0,P|272:109|258:149,1,50.000000298023
367,192,26975,2,2,P|390:204|410:223,1,50.000000298023,2|0,0:0|0:0,0:0:0:0:
487,320,27436,1,2,0:0:0:0:
358,311,27667,1,8,0:0:0:0:
453,157,27898,1,0,0:0:0:0:
300,81,28129,1,8,0:0:0:0:
300,81,28359,6,2,P|318:102|412:145,1,100.000000596046
425,67,28821,1,2,0:0:0:0:
313,201,29052,2,0,P|260:222|203:223,1,100.000000596046,8|8,0:0|0:0,0:0:0:0:
213,145,29513,1,8,0:0:0:0:
128,0,29744,2,2,P|80:28|64:82,1,100.000000596046
12,153,30206,2,0,P|66:171|118:152,1,100.000000596046
205,44,30667,1,8,0:0:0:0:
278,88,30898,2,0,P|314:133|272:200,1,100.000000596046
172,301,31821,6,2,P|120:272|92:227,1,100.000000596046,2|0,0:0|0:0,0:0:0:0:
336,40,32513,2,2,P|360:64|352:96,1,50.000000298023
224,200,32975,1,0,0:0:0:0:
85,196,33898,6,2,P|101:149|133:111,1,100.000000596046
232,56,34590,1,8,0:0:0:0:
48,208,35052,1,0,0:0:0:0:
138,192,35283,2,2,P|223:211|250:229,1,100.000000596046,2|8,0:0|0:0,0:0:0:0:
368,312,36206,1,0,0:0:0:0:
233,216,36436,1,0,0:0:0:0:
321,193,36667,2,0,P|294:270|224:298,1,150.000006616115
160,72,37359,5,8,0:0:0:0:
240,214,37589,1,8,0:0:0:0:
316,76,37820,1,8,0:0:0:0:
160,72,38052,2,2,P|175:123|214:111,1,75.0000033080576
247,27,38513,1,8,0:0:0:0:
96,248,38975,6,0,P|74:259|62:281,1,50.000000298023,2|0,0:0|0:0,0:0:0:0:
344,184,39436,2,2,P|317:138|270:112,1,100.000000596046
240,224,40128,1,8,0:0:0:0:
321,158,40591,1,2,0:0:0:0:
108,75,40821,1,2,0:0:0:0:
256,48,41052,1,2,0:0:0:0:
72,221,41282,1,2,0:0:0:0:
327,276,41744,5,2,0:0:0:0:
126,121,41975,1,0,0:0:0:0:
249,155,42206,1,2,0:0:0:0:
64,232,42436,2,0,P|56:200|64:168,1,50.000000298023,2|0,0:0|0:0,0:0:0:0:
368,104,42898,6,0,L|403:96,2,25.0000001490115,2|0|0,0:0|0:0|0:0,0:0:0:0:
198,179,43590,2,0,L|169:166,2,25.0000001490115,2|0|0,0:0|0:0|0:0,0:0:0:0:
352,288,44283,1,2,0:0:0:0:
198,179,44513,1,2,0:0:0:0:
352,288,44744,1,2,0:0:0:0:
160,296,44975,6,2,P|120:272|104:240,1,75.0000004470345,2|10,0:0|0:0,0:0:0:0:
68,125,45898,1,0,0:0:0:0:
99,74,46129,1,0,0:0:0:0:
150,43,46360,1,2,0:0:0:0:
296,56,46590,1,0,0:0:0:0:
350,76,46821,1,0,0:0:0:0:
371,124,47052,1,8,0:0:0:0:
312,192,47282,1,2,2:0:0:0:
432,64,47513,1,8,2:0:0:0:
312,192,47744,6,2,P|288:199|259:191,1,50.000000298023
200,160,48205,1,8,0:0:0:0:
124,42,48436,2,0,P|104:56|91:78,1,50.000000298023,2|2,0:0|0:0,0:0:0:0:
67,142,48897,1,8,0:0:0:0:
232,32,49129,1,2,0:0:0:0:
373,198,49360,1,2,0:0:0:0:
67,142,49590,1,2,0:0:0:0:
336,80,49821,1,10,0:0:0:0:
240,280,50052,1,8,0:0:0:0:
160,56,50283,1,8,0:0:0:0:
118,157,50513,6,2,P|123:192|147:229,1,75.0000033080576
172,253,50860,1,2,0:0:0:0:
215,272,50975,1,8,0:0:0:0:
416,120,51206,2,0,P|383:101|346:96,1,75.0000033080576,2|2,0:0|0:0,0:0:0:0:
306,96,51553,1,2,0:0:0:0:
259,111,51668,1,8,0:0:0:0:
395,348,51898,6,0,P|404:314|395:270,1,75.0000033080576,2|2,0:0|0:0,0:0:0:0:
383,237,52245,1,2,0:0:0:0:
355,196,52360,1,8,0:0:0:0:
200,144,52591,2,0,P|221:113|252:92,1,75.0000033080576,2|0,0:0|0:0,0:0:0:0:
287,74,52936,1,2,0:0:0:0:
336,73,53052,1,8,0:0:0:0:
363,299,53282,5,0,0:0:0:0:
291,190,53513,1,0,0:0:0:0:
257,80,53744,1,0,0:0:0:0:
280,0,53975,1,2,0:0:0:0:
166,6,54206,1,2,0:0:0:0:
101,97,54436,1,2,0:0:0:0:
103,294,54667,6,8,P|81:250|77:201,1,100.000000596046,8|10,0:0|0:0,0:0:0:0:
76,201,55590,1,10,0:0:0:0:
101,97,55821,1,10,0:0:0:0:
204,149,56052,6,0,P|234:172|242:240,1,100.000000596046,4|0,0:0|0:0,0:0:0:0:
400,66,56744,1,8,0:0:0:0:
304,160,56975,2,0,P|280:158|261:127,1,50.000000298023
416,192,57436,5,2,0:0:0:0:
324,307,57667,2,2,L|301:334,2,25.0000001490115
144,99,58128,1,8,0:0:0:0:
224,160,58359,1,0,0:0:0:0:
328,152,58590,1,0,0:0:0:0:
264,72,58821,2,0,P|227:39|178:36,1,100.000000596046,2|0,0:0|0:0,0:0:0:0:
88,80,59513,1,8,0:0:0:0:
216,210,59975,1,0,0:0:0:0:
136,208,60206,2,2,P|168:152|216:136,1,100.000000596046,2|10,0:0|0:0,0:0:0:0:
256,192,60898,12,0,62744,0:0:0:0:
288,48,62975,6,4,P|320:48|384:72,1,100.000000596046,0|2,0:0|0:0,0:0:0:0:
271,292,63667,1,2,0:0:0:0:
132,159,63898,1,0,0:0:0:0:
313,108,64128,1,8,0:0:0:0:
365,244,64359,2,0,P|355:226|333:204,1,50.000000298023
212,26,64821,1,2,0:0:0:0:
161,278,65051,1,12,0:0:0:0:
136,40,65513,5,8,0:0:0:0:
292,196,65744,2,0,P|328:163|338:114,1,100.000000596046,0|2,0:0|0:0,0:0:0:0:
112,208,66897,1,10,0:0:0:0:
299,105,67128,2,8,P|268:66|222:47,1,100.000000596046,0|14,0:0|0:0,0:0:0:0:
64,224,68513,6,8,P|72:256|88:264,1,50.000000298023,0|8,0:0|0:0,0:0:0:0:
280,336,69205,2,8,P|302:326|311:304,1,50.000000298023,0|8,0:0|0:0,0:0:0:0:
171,181,69898,1,0,0:0:0:0:
362,95,70128,1,8,0:0:0:0:
189,22,70359,2,2,L|165:6,2,18.7500008270144
296,143,71282,5,0,0:0:0:0:
363,66,71513,1,0,0:0:0:0:
468,34,71743,1,2,0:0:0:0:
240,264,71974,1,0,0:0:0:0:
188,312,72204,1,0,0:0:0:0:
123,285,72435,1,2,0:0:0:0:
125,219,72666,2,4,B|136:169|183:137|237:187|237:211|213:155|213:91|141:75,1,225.000009924173
329,331,74051,6,8,P|370:304|400:264,1,100.000000596046,14|10,0:0|0:0,0:0:0:0:
309,163,74743,2,2,P|284:161|260:166,1,50.000000298023,0|2,0:0|0:0,0:0:0:0:
192,304,75204,1,2,0:0:0:0:
155,79,75435,2,0,P|153:56|176:48,1,50.000000298023,2|0,0:0|0:0,0:0:0:0:
152,176,75897,1,10,0:0:0:0:
280,64,76127,1,8,0:0:0:0:
425,91,76589,5,2,0:0:0:0:
344,136,76820,2,8,P|326:183|287:212,1,100.000000596046,0|10,0:0|0:0,0:0:0:0:
128,160,77743,1,2,0:0:0:0:
280,16,77974,1,8,0:0:0:0:
336,248,78204,2,10,P|320:296|266:334,1,100.000000596046
112,184,78897,2,10,P|107:134|127:89,1,100.000000596046
191,80,79589,5,12,0:0:0:0:
273,164,79819,1,8,0:0:0:0:
372,258,80050,1,8,0:0:0:0:
492,23,80281,2,0,P|458:58|444:106,1,100.000000596046,0|2,0:0|0:0,0:0:0:0:
337,83,80973,1,4,0:0:0:0:
230,173,81204,1,2,0:0:0:0:
123,266,81435,1,2,0:0:0:0:
0,89,81665,2,0,P|40:118|63:161,1,100.000000596046,0|2,0:0|0:0,0:0:0:0:
448,280,82358,5,0,0:0:0:0:
240,264,82589,1,8,0:0:0:0:
360,112,82819,1,0,0:0:0:0:
192,104,83050,2,8,P|147:82|144:32,1,100.000000596046,12|10,0:0|0:0,0:0:0:0:
76,180,83742,5,8,0:0:0:0:
69,216,83857,1,0,0:0:0:0:
82,252,83972,1,0,0:0:0:0:
106,281,84088,1,0,0:0:0:0:
139,298,84203,1,10,0:0:0:0:
263,170,84435,1,8,0:0:0:0:
271,134,84550,1,0,0:0:0:0:
291,106,84665,1,0,0:0:0:0:
319,86,84781,1,0,0:0:0:0:
353,79,84896,2,0,P|394:71|420:83,2,50.000000298023,2|8|8,0:0|0:0|0:0,0:0:0:0:
128,285,85589,5,2,0:0:0:0:
312,109,85819,1,4,0:0:0:0:
256,192,86512,12,0,87665,0:0:0:0:
