osu file format v14

[General]
AudioFilename: audio.mp3
AudioLeadIn: 0
PreviewTime: 89896
Countdown: 0
SampleSet: None
StackLeniency: 0.7
Mode: 0
LetterboxInBreaks: 0
WidescreenStoryboard: 0

[Editor]
DistanceSpacing: 0.4
BeatDivisor: 8
GridSize: 4
TimelineZoom: 1

[Metadata]
Title:Fuujin Shoujo (Suigetsu Yamato Remix)
TitleUnicode:風神少女(水月やまと Remix)
Artist:Suigetsu Yamato
ArtistUnicode:水月やまと
Creator:ktgster
Version:Lunatic
Source:東方花映塚 ~ Phantasmagoria of Flower View.
Tags:touhou project house set of ymto wind god girl
BeatmapID:1371758
BeatmapSetID:647546

[Difficulty]
HPDrainRate:6
CircleSize:5
OverallDifficulty:9
ApproachRate:9
SliderMultiplier:2
SliderTickRate:1

[Events]
//Background and Video events
0,0,"Aya.jpg",0,0
//Break Periods
2,147752,161015
//Storyboard Layer 0 (Background)
//Storyboard Layer 1 (Fail)
//Storyboard Layer 2 (Pass)
//Storyboard Layer 3 (Foreground)
//Storyboard Sound Samples

[TimingPoints]
1303,468.75,4,2,1,80,1,0
1303,-55.5555555555556,4,2,1,80,0,0
1771,-100,4,2,1,60,0,0
3236,-100,4,2,1,5,0,0
3412,-100,4,2,1,60,0,0
3470,-100,4,2,1,5,0,0
3646,-100,4,2,1,60,0,0
3705,-100,4,2,1,5,0,0
3881,-100,4,2,1,60,0,0
3939,-100,4,2,1,5,0,0
4115,-100,4,2,1,60,0,0
4174,-100,4,2,1,5,0,0
4349,-100,4,2,1,60,0,0
4408,-100,4,2,1,5,0,0
4584,-100,4,2,1,60,0,0
4642,-100,4,2,1,5,0,0
4818,-100,4,2,1,60,0,0
4877,-100,4,2,1,5,0,0
5053,-100,4,2,1,60,0,0
5111,-100,4,2,1,5,0,0
5287,-100,4,2,1,60,0,0
5345,-100,4,2,1,5,0,0
5521,-100,4,2,1,60,0,0
5580,-100,4,2,1,5,0,0
5756,-100,4,2,1,60,0,0
5814,-100,4,2,1,5,0,0
5990,-100,4,2,1,60,0,0
6049,-100,4,2,1,5,0,0
6224,-100,4,2,1,60,0,0
6283,-100,4,2,1,5,0,0
6459,-100,4,2,1,60,0,0
6517,-100,4,2,1,5,0,0
6693,-100,4,2,1,60,0,0
6752,-100,4,2,1,5,0,0
6928,-100,4,2,1,60,0,0
6986,-100,4,2,1,5,0,0
7162,-100,4,2,1,60,0,0
7220,-100,4,2,1,5,0,0
7396,-100,4,2,1,60,0,0
7455,-100,4,2,1,5,0,0
7631,-100,4,2,1,60,0,0
7689,-100,4,2,1,5,0,0
7865,-100,4,2,1,60,0,0
7924,-100,4,2,1,5,0,0
8099,-100,4,2,1,60,0,0
8158,-100,4,2,1,5,0,0
8334,-100,4,2,1,60,0,0
8392,-100,4,2,1,5,0,0
8568,-100,4,2,1,60,0,0
8627,-100,4,2,1,5,0,0
8803,-55.5555555555556,4,2,1,80,0,0
9271,-100,4,2,1,60,0,0
10736,-100,4,2,1,5,0,0
10912,-100,4,2,1,60,0,0
10970,-100,4,2,1,5,0,0
11146,-100,4,2,1,60,0,0
11205,-100,4,2,1,5,0,0
11381,-100,4,2,1,60,0,0
11439,-100,4,2,1,5,0,0
11615,-100,4,2,1,60,0,0
11674,-100,4,2,1,5,0,0
11849,-100,4,2,1,60,0,0
11908,-100,4,2,1,5,0,0
12084,-100,4,2,1,60,0,0
12142,-100,4,2,1,5,0,0
12318,-100,4,2,1,60,0,0
12377,-100,4,2,1,5,0,0
12553,-100,4,2,1,60,0,0
12611,-100,4,2,1,5,0,0
12787,-100,4,2,1,60,0,0
12845,-100,4,2,1,5,0,0
13021,-100,4,2,1,60,0,0
13080,-100,4,2,1,5,0,0
13256,-100,4,2,1,60,0,0
13314,-100,4,2,1,5,0,0
13490,-100,4,2,1,60,0,0
13549,-100,4,2,1,5,0,0
13724,-100,4,2,1,60,0,0
13783,-100,4,2,1,5,0,0
13959,-100,4,2,1,60,0,0
14017,-100,4,2,1,5,0,0
14193,-100,4,2,1,60,0,0
14252,-100,4,2,1,5,0,0
14428,-100,4,2,1,60,0,0
14486,-100,4,2,1,5,0,0
14662,-100,4,2,1,60,0,0
14720,-100,4,2,1,5,0,0
14896,-100,4,2,1,60,0,0
14955,-100,4,2,1,5,0,0
15131,-100,4,2,1,60,0,0
15189,-100,4,2,1,5,0,0
15365,-100,4,2,1,60,0,0
15424,-100,4,2,1,5,0,0
15599,-100,4,2,1,60,0,0
15658,-100,4,2,1,5,0,0
15834,-100,4,2,1,60,0,0
15892,-100,4,2,1,5,0,0
16068,-100,4,2,1,60,0,0
16127,-100,4,2,1,5,0,0
16303,-55.5555555555556,4,2,1,80,0,0
16771,-100,4,2,1,60,0,0
18236,-100,4,2,1,5,0,0
18412,-100,4,2,1,60,0,0
18470,-100,4,2,1,5,0,0
18646,-100,4,2,1,60,0,0
18705,-100,4,2,1,5,0,0
18881,-100,4,2,1,60,0,0
18939,-100,4,2,1,5,0,0
19115,-100,4,2,1,60,0,0
19174,-100,4,2,1,5,0,0
19349,-100,4,2,1,60,0,0
19408,-100,4,2,1,5,0,0
19584,-100,4,2,1,60,0,0
19642,-100,4,2,1,5,0,0
19818,-100,4,2,1,60,0,0
19877,-100,4,2,1,5,0,0
20053,-100,4,2,1,60,0,0
20111,-100,4,2,1,5,0,0
20287,-100,4,2,1,60,0,0
20345,-100,4,2,1,5,0,0
20521,-100,4,2,1,60,0,0
20580,-100,4,2,1,5,0,0
20756,-100,4,2,1,60,0,0
20814,-100,4,2,1,5,0,0
20990,-100,4,2,1,60,0,0
21049,-100,4,2,1,5,0,0
21224,-100,4,2,1,60,0,0
21283,-100,4,2,1,5,0,0
21459,-100,4,2,1,60,0,0
21517,-100,4,2,1,5,0,0
21693,-100,4,2,1,60,0,0
21752,-100,4,2,1,5,0,0
21928,-100,4,2,1,60,0,0
21986,-100,4,2,1,5,0,0
22162,-100,4,2,1,60,0,0
22220,-100,4,2,1,5,0,0
22396,-100,4,2,1,60,0,0
22455,-100,4,2,1,5,0,0
22631,-100,4,2,1,60,0,0
22689,-100,4,2,1,5,0,0
22865,-100,4,2,1,60,0,0
22924,-100,4,2,1,5,0,0
23099,-100,4,2,1,60,0,0
23158,-100,4,2,1,5,0,0
23334,-100,4,2,1,60,0,0
23392,-100,4,2,1,5,0,0
23568,-100,4,2,1,60,0,0
23627,-100,4,2,1,5,0,0
23803,-125,4,2,1,60,0,0
31537,-125,4,3,1,50,0,0
46303,-125,4,2,1,60,0,0
76303,-125,4,2,1,70,0,0
88490,-125,4,2,1,80,0,0
89896,-200,4,3,1,60,0,0
91303,-66.6666666666667,4,2,1,90,0,1
91771,-90.9090909090909,4,2,1,80,0,1
117084,-90.9090909090909,4,2,1,80,0,0
117553,-66.6666666666667,4,2,1,80,0,1
121303,-66.6666666666667,4,2,1,70,0,0
122474,-50,4,2,1,70,0,0
123178,-66.6666666666667,4,2,1,70,0,0
125053,-66.6666666666667,4,2,1,80,0,1
128803,-66.6666666666667,4,2,1,70,0,0
129974,-50,4,2,1,70,0,0
130678,-66.6666666666667,4,2,1,70,0,0
131381,-50,4,2,1,70,0,0
131615,-66.6666666666667,4,2,1,70,0,0
132553,-66.6666666666667,4,2,1,80,0,1
136303,-66.6666666666667,4,2,1,70,0,0
140053,-66.6666666666667,4,2,1,80,0,1
145678,-66.6666666666667,4,2,1,80,0,0
146146,-200,4,3,1,60,0,0
147553,-200,4,2,1,80,0,0
161615,-200,4,2,1,60,0,0
173803,-200,4,2,1,80,0,0
174271,-200,4,3,1,60,0,0
175678,-76.9230769230769,4,3,1,70,0,0
175912,-100,4,3,1,70,0,0
176615,-76.9230769230769,4,3,1,70,0,0
176849,-200,4,3,1,70,0,0
177553,-76.9230769230769,4,3,1,70,0,0
177787,-100,4,3,1,70,0,0
178138,-200,4,3,1,70,0,0
178373,-76.9230769230769,4,3,1,70,0,0
178959,-200,4,3,1,70,0,0
179428,-76.9230769230769,4,3,1,70,0,0
179662,-100,4,3,1,70,0,0
180365,-76.9230769230769,4,3,1,70,0,0
180834,-200,4,3,1,70,0,0
181303,-100,4,3,1,70,0,0
182709,-200,4,3,1,70,0,0
183178,-76.9230769230769,4,3,1,70,0,0
184584,-200,4,3,1,70,0,0
185053,-76.9230769230769,4,3,1,70,0,0
185638,-200,4,3,1,70,0,0
185873,-76.9230769230769,4,3,1,70,0,0
186459,-200,4,3,1,70,0,0
186928,-76.9230769230769,4,3,1,70,0,0
188334,-200,4,3,1,70,0,0
190678,-66.6666666666667,4,2,1,90,0,1
191146,-90.9090909090909,4,2,1,80,0,1
196303,-58.8235294117647,4,2,1,80,0,1
196771,-90.9090909090909,4,2,1,80,0,1
197709,-50,4,2,1,80,0,1
198178,-90.9090909090909,4,2,1,80,0,1
206263,-50,4,2,1,80,0,1
206615,-90.9090909090909,4,2,1,80,0,1
209428,-66.6666666666667,4,2,1,80,0,1
210131,-200,4,2,1,80,0,1
210365,-90.9090909090909,4,2,1,80,0,1
216928,-90.9090909090909,4,2,1,80,0,0
220209,-90.9090909090909,4,2,1,5,0,0
220443,-90.9090909090909,4,2,1,80,0,0
224428,-90.9090909090909,4,2,1,5,0,0

[Colours]
Combo1 : 255,192,0
Combo2 : 0,242,121
Combo3 : 255,182,108
Combo4 : 255,151,203

[HitObjects]
40,66,1303,6,0,P|140:114|26:114,1,269.999991760254,4|0,1:0|0:2,0:0:0:0:
196,23,1771,2,0,P|210:50|201:110,1,50,8|0,1:2|0:2,0:0:0:0:
212,149,2006,2,0,P|202:177|154:214,1,50,2|0,0:2|0:2,0:0:0:0:
134,249,2240,2,0,P|107:261|53:258,1,50,0|0,1:2|0:2,0:0:0:0:
190,305,2474,2,0,P|180:331|140:369,1,50,2|0,0:2|0:2,0:0:0:0:
269,305,2709,2,0,P|281:331|278:385,1,50,8|0,1:2|0:2,0:0:0:0:
325,249,2943,2,0,P|351:259|389:299,1,50,2|0,0:2|0:2,0:0:0:0:
325,169,3178,6,0,P|338:162|367:163,1,25,0|0,1:2|0:2,0:0:0:0:
297,163,3412,2,0,P|310:156|339:157,1,25,2|0,0:2|0:2,0:0:0:0:
269,157,3646,2,0,P|282:150|311:151,1,25,8|0,1:2|0:2,0:0:0:0:
241,151,3881,2,0,P|254:144|283:145,1,25,2|0,0:2|0:2,0:0:0:0:
213,145,4115,6,0,P|199:138|170:139,1,25,0|0,1:2|0:2,0:0:0:0:
241,139,4349,2,0,P|227:132|198:133,1,25,2|0,0:2|0:2,0:0:0:0:
269,133,4583,2,0,P|255:126|226:127,1,25,8|0,1:2|0:2,0:0:0:0:
297,127,4818,2,0,P|283:120|254:121,1,25,2|0,0:2|0:2,0:0:0:0:
325,121,5053,6,0,P|339:114|368:115,1,25,0|0,1:2|0:2,0:0:0:0:
297,115,5287,2,0,P|311:108|340:109,1,25,2|0,0:2|0:2,0:0:0:0:
269,109,5521,2,0,P|283:102|312:103,1,25,8|0,1:2|0:2,0:0:0:0:
241,103,5756,2,0,P|255:96|284:97,1,25,2|0,0:2|0:2,0:0:0:0:
213,97,5990,6,0,P|199:90|170:91,1,25,0|0,1:2|0:2,0:0:0:0:
241,91,6224,2,0,P|227:84|198:85,1,25,2|0,0:2|0:2,0:0:0:0:
269,85,6458,2,0,P|255:78|226:79,1,25,8|0,1:2|0:2,0:0:0:0:
297,79,6693,2,0,P|283:72|254:73,1,25,2|0,0:2|0:2,0:0:0:0:
325,73,6928,6,0,P|332:59|331:30,1,25,0|0,1:2|0:2,0:0:0:0:
331,101,7162,2,0,P|338:87|337:58,1,25,2|0,0:2|0:2,0:0:0:0:
337,129,7396,2,0,P|344:115|343:86,1,25,8|0,1:2|0:2,0:0:0:0:
343,157,7631,2,0,P|350:143|349:114,1,25,2|0,0:2|0:2,0:0:0:0:
351,189,7865,6,0,P|358:203|357:232,1,25,0|0,1:2|0:2,0:0:0:0:
357,161,8099,2,0,P|364:175|363:204,1,25,2|0,0:2|0:2,0:0:0:0:
363,133,8333,2,0,P|370:147|369:176,1,25,8|0,1:2|0:2,0:0:0:0:
369,105,8568,2,0,P|376:119|375:148,1,25,2|0,0:2|0:2,0:0:0:0:
472,66,8803,6,0,P|372:114|486:114,1,269.999991760254,4|0,1:0|0:2,0:0:0:0:
316,23,9271,2,0,P|302:50|311:110,1,50,8|0,1:2|0:2,0:0:0:0:
300,149,9506,2,0,P|310:177|358:214,1,50,2|0,0:2|0:2,0:0:0:0:
378,249,9740,2,0,P|405:261|459:258,1,50,0|0,1:2|0:2,0:0:0:0:
322,305,9974,2,0,P|332:331|372:369,1,50,2|0,0:2|0:2,0:0:0:0:
243,305,10209,2,0,P|231:331|234:385,1,50,8|0,1:2|0:2,0:0:0:0:
187,249,10443,2,0,P|161:259|123:299,1,50,2|0,0:2|0:2,0:0:0:0:
187,169,10678,6,0,P|174:162|145:163,1,25,0|0,1:2|0:2,0:0:0:0:
215,163,10912,2,0,P|202:156|173:157,1,25,2|0,0:2|0:2,0:0:0:0:
243,157,11146,2,0,P|230:150|201:151,1,25,8|0,1:2|0:2,0:0:0:0:
271,151,11381,2,0,P|258:144|229:145,1,25,2|0,0:2|0:2,0:0:0:0:
299,145,11615,6,0,P|313:138|342:139,1,25,0|0,1:2|0:2,0:0:0:0:
271,139,11849,2,0,P|285:132|314:133,1,25,2|0,0:2|0:2,0:0:0:0:
243,133,12083,2,0,P|257:126|286:127,1,25,8|0,1:2|0:2,0:0:0:0:
215,127,12318,2,0,P|229:120|258:121,1,25,2|0,0:2|0:2,0:0:0:0:
187,121,12553,6,0,P|173:114|144:115,1,25,0|0,1:2|0:2,0:0:0:0:
215,115,12787,2,0,P|201:108|172:109,1,25,2|0,0:2|0:2,0:0:0:0:
243,109,13021,2,0,P|229:102|200:103,1,25,8|0,1:2|0:2,0:0:0:0:
271,103,13256,2,0,P|257:96|228:97,1,25,2|0,0:2|0:2,0:0:0:0:
299,97,13490,6,0,P|313:90|342:91,1,25,0|0,1:2|0:2,0:0:0:0:
271,91,13724,2,0,P|285:84|314:85,1,25,2|0,0:2|0:2,0:0:0:0:
243,85,13958,2,0,P|257:78|286:79,1,25,8|0,1:2|0:2,0:0:0:0:
215,79,14193,2,0,P|229:72|258:73,1,25,2|0,0:2|0:2,0:0:0:0:
187,73,14428,6,0,P|180:59|181:30,1,25,0|0,1:2|0:2,0:0:0:0:
181,101,14662,2,0,P|174:87|175:58,1,25,2|0,0:2|0:2,0:0:0:0:
175,129,14896,2,0,P|168:115|169:86,1,25,8|0,1:2|0:2,0:0:0:0:
169,157,15131,2,0,P|162:143|163:114,1,25,2|0,0:2|0:2,0:0:0:0:
161,189,15365,6,0,P|154:203|155:232,1,25,0|0,1:2|0:2,0:0:0:0:
155,161,15599,2,0,P|148:175|149:204,1,25,2|0,0:2|0:2,0:0:0:0:
149,133,15833,2,0,P|142:147|143:176,1,25,8|0,1:2|0:2,0:0:0:0:
143,105,16068,2,0,P|136:119|137:148,1,25,2|0,0:2|0:2,0:0:0:0:
40,66,16303,6,0,P|140:114|26:114,1,269.999991760254,4|0,1:0|0:2,0:0:0:0:
196,23,16771,2,0,P|210:50|201:110,1,50,8|0,1:2|0:2,0:0:0:0:
212,149,17006,2,0,P|202:177|154:214,1,50,2|0,0:2|0:2,0:0:0:0:
134,249,17240,2,0,P|107:261|53:258,1,50,0|0,1:2|0:2,0:0:0:0:
190,305,17474,2,0,P|180:331|140:369,1,50,2|0,0:2|0:2,0:0:0:0:
269,305,17709,2,0,P|281:331|278:385,1,50,8|0,1:2|0:2,0:0:0:0:
325,249,17943,2,0,P|351:259|389:299,1,50,2|0,0:2|0:2,0:0:0:0:
325,169,18178,6,0,P|338:162|367:163,1,25,0|0,1:2|0:2,0:0:0:0:
376,151,18412,2,0,P|363:144|334:145,1,25,2|0,0:2|0:2,0:0:0:0:
325,133,18646,2,0,P|338:126|367:127,1,25,8|0,1:2|0:2,0:0:0:0:
376,115,18881,2,0,P|363:108|334:109,1,25,2|0,0:2|0:2,0:0:0:0:
325,95,19115,6,0,P|312:88|283:89,1,25,0|0,1:2|0:2,0:0:0:0:
274,77,19349,2,0,P|287:70|316:71,1,25,2|0,0:2|0:2,0:0:0:0:
325,59,19583,2,0,P|312:52|283:53,1,25,8|0,1:2|0:2,0:0:0:0:
274,41,19818,2,0,P|287:34|316:35,1,25,2|0,0:2|0:2,0:0:0:0:
326,25,20053,6,0,P|333:38|332:67,1,25,0|0,1:2|0:2,0:0:0:0:
344,76,20287,2,0,P|351:63|350:34,1,25,2|0,0:2|0:2,0:0:0:0:
362,25,20521,2,0,P|369:38|368:67,1,25,8|0,1:2|0:2,0:0:0:0:
380,76,20756,2,0,P|387:63|386:34,1,25,2|0,0:2|0:2,0:0:0:0:
398,25,20990,6,0,P|405:38|404:67,1,25,0|0,1:2|0:2,0:0:0:0:
428,26,21224,2,0,P|435:39|434:68,1,25,2|0,0:2|0:2,0:0:0:0:
415,70,21458,2,0,P|422:83|421:112,1,25,8|0,1:2|0:2,0:0:0:0:
445,71,21693,2,0,P|452:84|451:113,1,25,2|0,0:2|0:2,0:0:0:0:
432,115,21928,6,0,P|425:128|426:157,1,25,0|0,1:2|0:2,0:0:0:0:
402,116,22162,2,0,P|395:129|396:158,1,25,2|0,0:2|0:2,0:0:0:0:
415,160,22396,2,0,P|408:173|409:202,1,25,8|0,1:2|0:2,0:0:0:0:
385,161,22631,2,0,P|378:174|379:203,1,25,2|0,0:2|0:2,0:0:0:0:
354,205,22865,6,0,P|361:218|360:247,1,25,0|0,1:2|0:2,0:0:0:0:
384,206,23099,2,0,P|391:219|390:248,1,25,2|0,0:2|0:2,0:0:0:0:
371,250,23333,2,0,P|378:263|377:292,1,25,8|0,1:2|0:2,0:0:0:0:
401,251,23568,2,0,P|408:264|407:293,1,25,2|0,0:2|0:2,0:0:0:0:
492,262,23803,6,0,L|497:186,2,53.3333333333333,4|0|0,1:0|0:2|0:2,0:0:0:0:
355,319,24271,2,0,L|350:243,2,53.3333333333333,8|0|0,1:2|0:2|0:2,0:0:0:0:
504,368,24740,1,0,1:2:0:0:
504,368,24896,1,0,0:2:0:0:
504,368,25053,1,0,0:2:0:0:
504,368,25209,1,8,1:2:0:0:
20,262,25678,6,0,L|15:186,2,53.3333333333333,0|0|0,1:0|0:2|0:2,0:0:0:0:
157,319,26146,2,0,L|162:243,2,53.3333333333333,8|0|0,1:2|0:2|0:2,0:0:0:0:
8,368,26615,1,0,1:2:0:0:
8,368,26771,1,0,0:2:0:0:
8,368,26928,1,0,0:2:0:0:
8,368,27084,1,8,1:2:0:0:
406,168,27553,6,0,L|482:163,2,53.3333333333333,0|0|0,1:2|0:2|0:2,0:0:0:0:
319,100,28021,1,8,1:2:0:0:
319,100,28177,1,0,0:2:0:0:
319,100,28333,1,0,0:2:0:0:
292,274,28490,2,0,L|368:279,1,53.3333333333333,0|0,1:2|0:2,0:0:0:0:
402,334,28803,1,0,0:2:0:0:
473,227,28959,1,8,1:2:0:0:
106,168,29428,6,0,L|30:163,2,53.3333333333333,0|0|0,1:2|0:2|0:2,0:0:0:0:
193,100,29896,1,8,1:2:0:0:
193,100,30052,1,0,0:2:0:0:
193,100,30208,1,0,0:2:0:0:
220,274,30365,2,0,L|144:279,1,53.3333333333333,0|0,1:2|0:2,0:0:0:0:
110,334,30678,1,0,0:2:0:0:
39,227,30834,2,0,P|44:262|27:318,1,80,8|0,1:2|0:2,0:0:0:0:
334,364,31303,5,4,1:0:0:0:
397,315,31537,1,2,0:2:0:0:
476,320,31771,1,8,0:2:0:0:
268,301,32006,2,0,B|310:289|310:289|359:239|359:239|405:226,1,160,2|2,0:2|0:2,0:0:0:0:
481,247,32709,1,8,0:2:0:0:
458,169,32943,1,2,0:2:0:0:
178,364,33178,5,0,0:2:0:0:
115,315,33412,1,2,0:2:0:0:
36,320,33646,1,8,0:2:0:0:
244,301,33881,2,0,B|201:289|201:289|152:239|152:239|106:226,1,160,2|2,0:2|0:2,0:0:0:0:
31,247,34584,1,8,0:2:0:0:
54,169,34818,1,2,0:2:0:0:
161,43,35053,5,0,0:2:0:0:
235,74,35287,1,2,0:2:0:0:
171,123,35521,1,8,0:2:0:0:
288,144,35756,2,0,B|244:155|244:155|195:206|195:206|153:217,1,160,2|2,0:2|0:2,0:0:0:0:
97,160,36459,1,8,0:2:0:0:
97,160,36693,1,2,0:2:0:0:
351,43,36928,5,0,0:2:0:0:
277,74,37162,1,2,0:2:0:0:
341,123,37396,1,8,0:2:0:0:
224,144,37631,2,0,B|268:155|268:155|317:206|317:206|359:217,1,160,2|2,0:2|0:2,0:0:0:0:
415,160,38334,1,8,0:2:0:0:
415,160,38568,1,2,0:2:0:0:
491,334,38803,6,0,B|448:319|448:319|401:329,1,80,4|2,0:1|0:2,0:0:0:0:
337,348,39271,1,8,0:2:0:0:
498,255,39506,2,0,B|454:240|454:240|386:254|386:254|344:240,1,160,2|2,3:2|0:2,0:0:0:0:
287,183,40209,1,8,0:2:0:0:
343,126,40443,1,2,0:2:0:0:
21,334,40678,6,0,B|64:319|64:319|111:329,1,80,0|2,0:2|0:2,0:0:0:0:
175,348,41146,1,8,0:2:0:0:
14,255,41381,2,0,B|57:240|57:240|125:254|125:254|167:240,1,160,2|2,3:2|0:2,0:0:0:0:
225,183,42084,1,8,0:2:0:0:
169,126,42318,1,2,0:2:0:0:
63,308,42553,6,0,B|48:351|48:351|58:398,1,80,0|2,0:2|0:2,0:0:0:0:
129,354,43021,1,8,0:2:0:0:
218,226,43256,2,0,B|203:269|203:269|218:338|218:338|204:380,1,160,2|2,3:2|0:2,0:0:0:0:
129,354,43959,1,8,0:2:0:0:
293,251,44193,1,2,0:2:0:0:
449,308,44428,6,0,B|464:351|464:351|454:398,1,80,0|2,0:2|0:2,0:0:0:0:
383,354,44896,1,8,0:2:0:0:
293,226,45131,5,4,0:0:0:0:
308,379,45599,1,4,0:0:0:0:
359,279,45834,1,8,0:2:0:0:
247,285,46068,2,0,L|196:289,1,40,4|0,0:0|0:2,0:0:0:0:
27,344,46303,6,0,P|77:335|128:349,1,80,4|2,1:2|0:2,0:0:0:0:
181,362,46771,1,8,1:2:0:0:
39,251,47006,1,2,0:2:0:0:
204,215,47240,1,0,1:2:0:0:
126,234,47474,1,2,0:2:0:0:
70,177,47709,1,8,1:2:0:0:
148,157,47943,1,2,0:2:0:0:
33,266,48178,6,0,P|24:316|38:367,1,80,0|2,1:2|0:2,0:0:0:0:
100,379,48646,1,8,1:2:0:0:
204,215,48881,1,2,0:2:0:0:
90,101,49115,1,0,1:2:0:0:
71,179,49349,1,2,0:2:0:0:
128,235,49584,1,8,1:2:0:0:
148,157,49818,1,2,0:2:0:0:
265,329,50053,6,0,P|274:279|260:228,1,80,4|2,1:0|0:2,0:0:0:0:
247,175,50521,1,8,1:2:0:0:
358,317,50756,1,2,0:2:0:0:
394,152,50990,1,0,1:2:0:0:
432,286,51224,1,2,0:2:0:0:
375,230,51459,1,8,1:2:0:0:
452,208,51693,1,2,0:2:0:0:
281,259,51928,6,0,P|272:309|286:360,1,80,0|2,1:2|0:2,0:0:0:0:
348,372,52396,1,8,1:2:0:0:
452,208,52631,1,2,0:2:0:0:
338,94,52865,1,0,1:2:0:0:
319,172,53099,1,2,0:2:0:0:
396,150,53334,1,8,1:2:0:0:
376,228,53568,1,2,0:2:0:0:
468,42,53803,6,0,B|428:50|428:50|371:33,1,80,4|2,1:0|0:2,0:0:0:0:
311,26,54271,1,8,1:2:0:0:
499,113,54506,1,2,0:2:0:0:
423,137,54740,1,0,1:2:0:0:
423,137,54857,1,0,0:0:0:0:
423,137,54974,1,2,0:2:0:0:
265,137,55209,1,8,1:2:0:0:
344,122,55443,1,2,0:2:0:0:
162,229,55678,6,0,B|202:237|202:237|259:220,1,80,0|2,1:2|0:2,0:0:0:0:
319,213,56146,1,8,1:2:0:0:
131,300,56381,1,2,0:2:0:0:
207,324,56615,1,0,1:2:0:0:
207,324,56732,1,0,0:0:0:0:
207,324,56849,1,2,0:2:0:0:
365,294,57084,1,8,1:2:0:0:
286,309,57318,1,2,0:2:0:0:
191,167,57553,6,0,B|183:207|183:207|200:264,1,80,4|2,1:0|0:2,0:0:0:0:
207,324,58021,1,8,1:2:0:0:
120,136,58256,1,2,0:2:0:0:
96,212,58490,1,0,1:2:0:0:
96,212,58607,1,0,0:0:0:0:
96,212,58724,1,2,0:2:0:0:
96,370,58959,1,8,1:2:0:0:
111,291,59193,1,2,0:2:0:0:
278,293,59428,6,0,B|270:253|270:253|287:196,1,80,0|2,1:2|0:2,0:0:0:0:
294,136,59896,1,8,1:2:0:0:
207,324,60131,1,2,0:2:0:0:
183,248,60365,1,0,1:2:0:0:
183,248,60482,1,0,0:0:0:0:
183,248,60599,1,2,0:2:0:0:
213,90,60834,1,8,1:2:0:0:
198,169,61068,1,2,0:2:0:0:
25,31,61303,5,4,1:0:0:0:
143,16,61537,1,2,0:2:0:0:
91,76,61771,1,8,1:2:0:0:
209,61,62006,1,2,0:2:0:0:
17,166,62240,2,0,B|63:154|63:154|124:168,1,80,0|2,1:2|0:2,0:0:0:0:
114,166,62592,1,0,0:0:0:0:
170,222,62709,2,0,L|178:314,1,80,8|2,1:2|0:2,0:0:0:0:
33,381,63178,6,0,B|21:335|21:335|29:304,1,80,0|2,1:2|0:2,0:0:0:0:
34,284,63530,1,0,0:0:0:0:
90,228,63647,2,0,L|170:222,1,80,8|2,1:2|0:2,0:0:0:0:
319,357,64115,1,0,1:2:0:0:
117,306,64349,1,2,0:2:0:0:
137,304,64467,2,0,L|176:301,1,40,0|8,0:0|1:2,0:0:0:0:
311,255,64701,1,0,0:0:0:0:
291,253,64818,1,2,0:2:0:0:
487,31,65053,5,0,1:2:0:0:
369,16,65287,1,2,0:2:0:0:
421,76,65521,1,8,1:2:0:0:
303,61,65756,1,2,0:2:0:0:
495,166,65990,2,0,B|449:154|449:154|388:168,1,80,0|2,1:2|0:2,0:0:0:0:
398,166,66342,1,0,0:0:0:0:
342,222,66459,2,0,L|334:314,1,80,8|2,1:2|0:2,0:0:0:0:
479,381,66928,6,0,B|491:335|491:335|483:304,1,80,0|2,1:2|0:2,0:0:0:0:
478,284,67280,1,0,0:0:0:0:
422,228,67397,2,0,L|342:222,1,80,8|2,1:2|0:2,0:0:0:0:
193,357,67865,1,0,1:2:0:0:
395,306,68099,1,2,0:2:0:0:
201,255,68334,1,8,1:2:0:0:
221,253,68451,1,0,0:0:0:0:
240,251,68568,1,2,0:2:0:0:
4,191,68803,6,0,B|-8:237|-8:237|6:298,1,80,4|2,1:0|0:2,0:0:0:0:
4,288,69155,1,0,0:0:0:0:
60,344,69272,2,0,L|152:352,1,80,8|2,1:2|0:2,0:0:0:0:
311,308,69740,1,0,1:2:0:0:
117,241,69975,1,2,0:2:0:0:
136,239,70092,1,0,0:0:0:0:
155,236,70209,1,8,1:2:0:0:
280,384,70443,1,2,0:2:0:0:
280,384,70560,1,0,0:0:0:0:
200,374,70677,5,0,1:2:0:0:
273,225,70912,1,2,0:2:0:0:
380,345,71147,1,8,1:2:0:0:
361,341,71264,1,0,0:0:0:0:
342,336,71381,1,2,0:2:0:0:
340,177,71615,2,0,B|352:223|352:223|338:284,1,80,0|2,1:2|0:2,0:0:0:0:
261,382,71967,1,0,0:0:0:0:
261,382,72084,2,0,B|249:336|249:336|263:275,1,80,8|2,1:2|0:0,0:0:0:0:
508,191,72553,6,0,B|520:237|520:237|506:298,1,80,0|2,1:2|0:2,0:0:0:0:
508,288,72905,1,0,0:0:0:0:
452,344,73022,2,0,L|360:352,1,80,8|2,1:2|0:2,0:0:0:0:
201,308,73490,1,0,1:2:0:0:
395,241,73725,1,2,0:2:0:0:
376,239,73842,1,0,0:0:0:0:
357,236,73959,1,8,1:2:0:0:
232,384,74193,1,2,0:2:0:0:
232,384,74310,1,0,0:0:0:0:
311,374,74427,5,0,1:2:0:0:
239,225,74662,1,2,0:2:0:0:
132,345,74897,1,8,1:2:0:0:
151,341,75014,1,0,0:0:0:0:
170,336,75131,1,2,0:2:0:0:
172,177,75365,2,0,B|160:223|160:223|174:284,1,80,0|2,1:2|0:2,0:0:0:0:
251,382,75834,1,8,1:2:0:0:
14,239,76068,2,0,P|40:239|85:226,1,40,2|0,0:2|0:0,0:0:0:0:
177,102,76303,6,0,L|75:94,1,80,4|2,1:0|0:2,0:0:0:0:
77,96,76654,1,0,0:0:0:0:
20,152,76771,2,0,P|43:186|46:245,1,80,8|2,1:2|0:2,0:0:0:0:
174,324,77240,2,0,L|182:222,1,80,0|2,1:2|0:2,0:0:0:0:
237,187,77592,1,0,0:0:0:0:
237,187,77709,2,0,L|242:121,1,40,8|0,1:2|0:0,0:0:0:0:
259,299,77943,2,0,L|264:233,1,40,2|0,0:2|0:0,0:0:0:0:
155,164,78178,5,0,1:2:0:0:
322,170,78412,1,2,0:2:0:0:
237,187,78646,1,8,1:2:0:0:
404,181,78880,1,2,0:2:0:0:
264,104,79115,2,0,B|310:92|310:92|371:106,1,80,0|2,1:2|0:2,0:0:0:0:
361,104,79467,1,0,0:0:0:0:
237,187,79584,2,0,B|283:175|283:175|344:189,1,80,8|2,1:2|0:2,0:0:0:0:
474,377,80053,6,0,L|372:385,1,80,0|2,1:2|0:2,0:0:0:0:
374,383,80404,1,0,0:0:0:0:
317,327,80521,2,0,P|340:293|343:234,1,80,8|2,1:2|0:2,0:0:0:0:
354,83,80990,2,0,L|360:3,1,80,0|2,1:2|0:2,0:0:0:0:
293,179,81342,1,0,0:0:0:0:
293,179,81459,2,0,L|297:140,1,40,8|0,1:2|0:0,0:0:0:0:
271,67,81693,2,0,L|275:28,1,40,2|0,0:2|0:0,0:0:0:0:
379,163,81928,5,0,1:2:0:0:
212,157,82162,1,2,0:2:0:0:
297,140,82396,1,8,1:2:0:0:
130,146,82630,1,2,0:2:0:0:
270,223,82865,2,0,B|224:235|224:235|163:221,1,80,0|2,1:2|0:2,0:0:0:0:
284,237,83334,2,0,B|238:249|238:249|177:235,1,80,8|2,1:2|0:2,0:0:0:0:
41,172,83803,6,0,B|53:218|53:218|39:279,1,80,4|2,1:0|0:2,0:0:0:0:
39,268,84154,1,0,0:0:0:0:
206,241,84271,2,0,L|126:235,1,80,8|2,1:2|0:2,0:0:0:0:
345,363,84740,2,0,L|265:357,1,80,0|2,1:2|0:2,0:0:0:0:
245,356,85092,1,0,0:0:0:0:
366,278,85209,2,0,L|300:282,1,40,8|0,1:2|0:0,0:0:0:0:
289,170,85443,2,0,L|284:235,1,40,2|0,0:2|0:0,0:0:0:0:
448,371,85678,6,0,B|436:325|436:325|450:264,1,80,0|2,1:2|0:2,0:0:0:0:
492,230,86146,1,8,1:2:0:0:
418,371,86381,1,2,0:2:0:0:
389,198,86615,1,0,1:2:0:0:
476,331,86850,1,2,0:2:0:0:
476,331,86967,1,0,0:0:0:0:
407,289,87084,2,0,P|366:285|309:300,1,80,8|2,1:2|0:2,0:0:0:0:
30,158,87553,6,0,L|131:173,1,80,4|2,1:0|0:2,0:0:0:0:
128,172,87904,1,0,0:0:0:0:
72,277,88021,2,0,P|60:253|64:217,1,40,8|0,1:2|0:0,0:0:0:0:
212,238,88256,1,2,0:2:0:0:
209,257,88373,1,0,0:0:0:0:
298,320,88490,2,0,L|289:262,1,40,4|0,1:0|0:0,0:0:0:0:
363,179,88724,2,0,L|354:237,1,40,2|0,0:2|0:0,0:0:0:0:
413,359,88959,2,0,L|389:305,1,40,8|0,1:2|0:0,0:0:0:0:
483,214,89193,2,0,P|466:236|459:267,1,40,2|0,0:2|0:0,0:0:0:0:
512,384,89428,5,4,1:0:0:0:
512,384,89896,1,0,0:2:0:0:
495,364,90013,1,0,0:2:0:0:
486,340,90131,1,0,0:2:0:0:
486,315,90248,1,0,0:2:0:0:
433,262,90365,5,0,2:2:0:0:
435,235,90482,1,0,2:2:0:0:
446,212,90600,1,0,2:2:0:0:
464,194,90717,1,0,2:2:0:0:
463,120,90834,2,0,L|483:118,6,12.5,0|0|0|0|0|0|0,0:2|0:2|0:2|0:2|0:2|0:2|0:2,0:0:0:0:
409,66,91303,6,0,P|399:160|511:180,1,225.000008583069,4|0,1:0|0:2,0:0:0:0:
365,334,91771,2,0,B|357:306|357:306|371:262,1,55.0000016784668,8|0,1:2|0:2,0:0:0:0:
465,319,92006,1,2,0:2:0:0:
238,229,92240,1,0,1:2:0:0:
178,268,92357,1,8,1:2:0:0:
242,300,92474,1,2,0:2:0:0:
145,157,92709,1,8,1:2:0:0:
70,313,92943,1,2,0:2:0:0:
343,231,93178,6,0,B|303:246|303:246|231:227,1,110.000003356934,0|2,1:2|0:2,0:0:0:0:
212,221,93529,1,0,0:2:0:0:
144,343,93646,2,0,B|172:335|172:335|216:349,1,55.0000016784668,8|0,1:2|0:2,0:0:0:0:
127,250,93881,1,2,0:2:0:0:
407,199,94115,1,0,1:2:0:0:
467,238,94232,1,8,1:2:0:0:
403,270,94349,1,2,0:2:0:0:
492,134,94584,1,8,1:2:0:0:
454,361,94818,1,2,0:2:0:0:
276,214,95053,5,0,1:2:0:0:
385,228,95287,1,2,0:2:0:0:
385,228,95404,1,0,0:2:0:0:
466,237,95521,1,8,1:2:0:0:
318,315,95756,1,2,0:2:0:0:
431,96,95990,1,0,1:2:0:0:
371,135,96107,1,8,1:2:0:0:
435,167,96224,1,2,0:2:0:0:
276,214,96459,1,8,1:2:0:0:
492,280,96693,1,2,0:2:0:0:
175,353,96928,5,0,1:2:0:0:
279,218,97162,1,2,0:2:0:0:
279,218,97279,1,0,0:2:0:0:
297,298,97396,1,8,1:2:0:0:
116,214,97631,1,2,0:2:0:0:
65,163,97748,1,8,1:2:0:0:
98,98,97865,1,0,1:2:0:0:
169,109,97982,1,0,1:2:0:0:
181,181,98099,1,2,0:2:0:0:
0,290,98334,2,0,B|53:273|53:273|177:310,1,165.000005035401,4|0,1:2|0:2,0:0:0:0:
10,205,98803,6,0,B|47:193|47:193|116:214,1,110.000003356934,4|2,1:0|0:2,0:0:0:0:
142,221,99154,1,0,0:2:0:0:
109,75,99271,2,0,B|101:103|101:103|115:147,1,55.0000016784668,8|0,1:2|0:2,0:0:0:0:
188,101,99506,1,2,0:2:0:0:
174,285,99740,1,0,1:2:0:0:
135,345,99857,1,8,1:2:0:0:
103,281,99974,1,2,0:2:0:0:
233,175,100209,1,8,1:2:0:0:
290,384,100443,1,2,0:2:0:0:
501,205,100678,6,0,B|464:193|464:193|396:214,1,110.000003356934,0|2,1:2|0:2,0:0:0:0:
370,221,101029,1,0,0:2:0:0:
403,75,101146,2,0,B|411:103|411:103|397:147,1,55.0000016784668,8|0,1:2|0:0,0:0:0:0:
324,101,101381,1,2,0:2:0:0:
338,285,101615,1,0,1:2:0:0:
377,345,101732,1,8,1:2:0:0:
409,281,101849,1,2,0:2:0:0:
279,175,102084,1,8,1:2:0:0:
222,384,102318,1,2,0:2:0:0:
7,224,102553,6,0,L|119:242,1,110.000003356934,0|2,1:2|0:2,0:0:0:0:
218,204,103021,1,8,1:2:0:0:
92,135,103256,1,2,0:2:0:0:
291,78,103490,1,0,1:2:0:0:
231,117,103607,1,8,1:2:0:0:
295,149,103724,1,2,0:2:0:0:
92,135,103959,1,8,1:2:0:0:
355,110,104193,1,2,0:2:0:0:
24,51,104428,6,0,B|77:34|77:34|201:71,1,165.000005035401,0|0,1:2|0:2,0:0:0:0:
92,187,104896,2,0,B|84:159|84:159|92:135,1,55.0000016784668,8|0,1:2|0:0,0:0:0:0:
328,214,105131,1,2,0:2:0:0:
277,265,105248,1,8,1:2:0:0:
212,232,105365,1,0,1:2:0:0:
223,161,105482,1,0,1:2:0:0:
295,149,105599,1,2,0:2:0:0:
126,359,105834,2,0,B|179:342|179:342|303:379,1,165.000005035401,4|0,1:2|0:0,0:0:0:0:
503,303,106303,6,0,B|463:288|463:288|397:305,1,110.000003356934,4|2,1:0|0:2,0:0:0:0:
372,314,106654,1,0,0:2:0:0:
446,166,106771,2,0,B|454:194|454:194|446:218,1,55.0000016784668,8|0,1:2|0:2,0:0:0:0:
303,192,107006,2,0,B|331:184|331:184|355:192,1,55.0000016784668,2|0,0:2|0:0,0:0:0:0:
262,360,107240,1,0,1:2:0:0:
202,321,107357,1,8,1:2:0:0:
266,289,107474,2,0,L|262:360,1,55.0000016784668,2|0,0:2|0:0,0:0:0:0:
206,250,107709,1,8,1:2:0:0:
372,314,107943,1,2,0:2:0:0:
9,303,108178,6,0,B|49:288|49:288|115:305,1,110.000003356934,0|2,1:2|0:2,0:0:0:0:
140,314,108529,1,0,0:2:0:0:
66,166,108646,2,0,B|58:194|58:194|66:218,1,55.0000016784668,8|0,1:2|0:0,0:0:0:0:
209,192,108881,2,0,B|181:184|181:184|157:192,1,55.0000016784668,2|0,0:2|0:0,0:0:0:0:
250,360,109115,1,0,1:2:0:0:
310,321,109232,1,8,1:2:0:0:
246,289,109349,2,0,L|250:360,1,55.0000016784668,2|0,0:2|0:0,0:0:0:0:
306,250,109584,1,8,1:2:0:0:
140,314,109818,1,2,0:2:0:0:
412,379,110053,6,0,B|427:339|427:339|410:273,1,110.000003356934,4|2,1:0|0:2,0:0:0:0:
402,247,110404,1,0,0:2:0:0:
499,367,110521,2,0,B|507:339|507:339|499:315,1,55.0000016784668,8|0,1:2|0:2,0:0:0:0:
376,176,110756,2,0,B|404:168|404:168|428:176,1,55.0000016784668,2|0,0:2|0:0,0:0:0:0:
262,303,110990,1,0,1:2:0:0:
301,243,111107,1,8,1:2:0:0:
333,307,111224,2,0,L|262:303,1,55.0000016784668,2|0,0:2|0:0,0:0:0:0:
405,286,111459,2,0,B|413:314|413:314|405:338,1,55.0000016784668,8|0,1:2|0:0,0:0:0:0:
206,324,111693,2,0,B|198:296|198:296|206:272,1,55.0000016784668,2|0,0:2|0:0,0:0:0:0:
368,174,111928,6,0,B|328:189|328:189|262:172,1,110.000003356934,0|2,1:2|0:2,0:0:0:0:
235,166,112279,1,0,0:2:0:0:
327,46,112396,2,0,B|335:74|335:74|327:98,1,55.0000016784668,8|0,1:2|0:0,0:0:0:0:
170,199,112631,1,2,0:2:0:0:
119,148,112748,1,8,1:2:0:0:
152,83,112865,1,0,1:2:0:0:
223,94,112982,1,0,1:2:0:0:
235,166,113099,2,0,L|176:197,1,55.0000016784668,2|0,0:2|0:0,0:0:0:0:
341,17,113334,2,0,B|288:34|288:34|164:-3,1,165.000005035401,4|0,1:2|0:0,0:0:0:0:
46,81,113803,6,0,B|86:66|86:66|152:83,1,110.000003356934,4|2,1:0|0:2,0:0:0:0:
177,91,114154,1,0,0:2:0:0:
254,117,114271,1,8,1:2:0:0:
17,176,114506,1,2,0:2:0:0:
283,262,114740,1,0,1:2:0:0:
216,235,114857,1,8,1:2:0:0:
151,264,114974,1,2,0:2:0:0:
84,237,115092,1,0,0:0:0:0:
19,266,115209,1,8,1:2:0:0:
208,360,115443,1,2,0:2:0:0:
466,81,115678,6,0,B|426:66|426:66|360:83,1,110.000003356934,4|2,1:0|0:2,0:0:0:0:
335,91,116029,1,0,0:2:0:0:
258,117,116146,1,8,1:2:0:0:
495,176,116381,1,2,0:2:0:0:
229,262,116615,1,0,1:2:0:0:
296,235,116732,1,8,1:2:0:0:
361,264,116849,1,2,0:2:0:0:
428,237,116967,1,0,0:0:0:0:
493,266,117084,1,8,1:2:0:0:
304,360,117318,1,2,0:2:0:0:
39,301,117553,6,0,P|118:225|228:223,1,225.000008583069,4|0,1:0|0:2,0:0:0:0:
2,220,118021,2,0,P|93:153|219:143,1,225.000008583069,8|0,1:2|0:2,0:0:0:0:
299,286,118490,6,0,P|317:253|321:192,1,75.0000028610231,0|0,1:2|0:2,0:0:0:0:
331,141,118724,2,0,P|330:103|303:48,1,75.0000028610231,2|0,0:2|0:2,0:0:0:0:
39,301,118959,6,0,P|118:225|228:223,1,225.000008583069,8|0,1:2|0:2,0:0:0:0:
299,286,119428,6,0,P|317:253|321:192,1,75.0000028610231,0|0,1:2|0:2,0:0:0:0:
331,141,119662,2,0,P|330:103|303:48,1,75.0000028610231,2|0,0:2|0:2,0:0:0:0:
335,373,119896,6,0,P|373:332|402:247,1,75.0000028610231,8|0,1:2|0:2,0:0:0:0:
436,178,120130,2,0,P|449:124|431:35,1,75.0000028610231,2|0,0:2|0:2,0:0:0:0:
39,301,120365,6,0,P|118:225|228:223,1,225.000008583069,0|0,1:2|0:2,0:0:0:0:
2,220,120834,2,0,P|93:153|219:143,1,225.000008583069,8|0,1:2|0:2,0:0:0:0:
318,344,121303,6,0,B|130:333|130:333|206:296,1,225.000008583069,0|0,1:2|0:2,0:0:0:0:
415,275,121771,2,0,B|227:264|227:264|303:227,1,225.000008583069,8|0,1:2|0:2,0:0:0:0:
409,372,122240,1,0,1:2:0:0:
512,206,122474,6,0,B|435:201|435:201|466:186,1,100,2|0,0:2|0:2,0:0:0:0:
309,144,122709,2,0,B|385:148|385:148|354:163,1,100,8|0,1:2|0:2,0:0:0:0:
318,344,123178,6,0,B|71:329|71:329|171:281,1,300.000011444092,0|8,1:2|1:2,0:0:0:0:
415,275,123881,2,0,B|168:260|168:260|268:212,1,300.000011444092,2|2,0:2|0:2,0:0:0:0:
512,206,124584,2,0,B|404:199|404:199|448:178,1,150.000005722046,8|2,1:2|0:2,0:0:0:0:
39,301,125053,6,0,P|118:225|228:223,1,225.000008583069,4|0,1:0|0:2,0:0:0:0:
2,220,125521,2,0,P|93:153|219:143,1,225.000008583069,8|0,1:2|0:2,0:0:0:0:
299,286,125990,6,0,P|317:253|321:192,1,75.0000028610231,0|0,1:2|0:2,0:0:0:0:
331,141,126224,2,0,P|330:103|303:48,1,75.0000028610231,2|0,0:2|0:2,0:0:0:0:
39,301,126459,6,0,P|118:225|228:223,1,225.000008583069,8|0,1:2|0:2,0:0:0:0:
299,286,126928,6,0,P|317:253|321:192,1,75.0000028610231,0|0,1:2|0:2,0:0:0:0:
331,141,127162,2,0,P|330:103|303:48,1,75.0000028610231,2|0,0:2|0:2,0:0:0:0:
335,373,127396,6,0,P|373:332|402:247,1,75.0000028610231,8|0,1:2|0:2,0:0:0:0:
436,178,127630,2,0,P|449:124|431:35,1,75.0000028610231,2|0,0:2|0:2,0:0:0:0:
39,301,127865,6,0,P|118:225|228:223,1,225.000008583069,0|0,1:2|0:2,0:0:0:0:
2,220,128334,2,0,P|93:153|219:143,1,225.000008583069,8|0,1:2|0:2,0:0:0:0:
318,344,128803,6,0,B|130:355|130:355|206:392,1,225.000008583069,0|0,1:2|0:2,0:0:0:0:
415,275,129271,2,0,B|227:264|227:264|303:227,1,225.000008583069,8|0,1:2|0:2,0:0:0:0:
409,372,129740,1,0,1:2:0:0:
512,206,129974,6,0,B|435:201|435:201|466:186,1,100,2|0,0:2|0:2,0:0:0:0:
307,311,130209,2,0,B|349:246|349:246|347:281,1,100,8|0,1:2|0:2,0:0:0:0:
318,80,130443,2,0,B|352:149|352:149|323:129,1,100,2|0,0:2|0:2,0:0:0:0:
400,342,130678,6,0,B|153:357|153:357|253:405,1,300.000011444092,0|8,1:2|1:2,0:0:0:0:
439,256,131381,2,0,B|362:261|362:261|393:276,1,100,2|0,0:2|0:2,0:0:0:0:
93,284,131615,2,0,B|281:273|281:273|205:236,1,225.000008583069,0|0,1:2|0:2,0:0:0:0:
480,179,132084,2,0,B|292:190|292:190|368:227,1,225.000008583069,8|0,1:2|0:2,0:0:0:0:
39,301,132553,6,0,P|118:225|228:223,1,225.000008583069,4|0,1:0|0:2,0:0:0:0:
2,220,133021,2,0,P|93:153|219:143,1,225.000008583069,8|0,1:2|0:2,0:0:0:0:
299,286,133490,6,0,P|317:253|321:192,1,75.0000028610231,0|0,1:2|0:2,0:0:0:0:
331,141,133724,2,0,P|330:103|303:48,1,75.0000028610231,2|0,0:2|0:2,0:0:0:0:
39,301,133959,6,0,P|118:225|228:223,1,225.000008583069,8|0,1:2|0:2,0:0:0:0:
299,286,134428,6,0,P|317:253|321:192,1,75.0000028610231,0|0,1:2|0:2,0:0:0:0:
331,141,134662,2,0,P|330:103|303:48,1,75.0000028610231,2|0,0:2|0:2,0:0:0:0:
335,373,134896,6,0,P|373:332|402:247,1,75.0000028610231,8|0,1:2|0:2,0:0:0:0:
436,178,135130,2,0,P|449:124|431:35,1,75.0000028610231,2|0,0:2|0:2,0:0:0:0:
39,301,135365,6,0,P|118:225|228:223,1,225.000008583069,0|0,1:2|0:2,0:0:0:0:
2,220,135834,2,0,P|93:153|219:143,1,225.000008583069,8|0,1:2|0:2,0:0:0:0:
447,30,136303,6,0,B|259:41|259:41|335:78,1,225.000008583069,0|0,1:2|0:2,0:0:0:0:
382,183,136771,2,0,B|394:151|394:151|378:95,1,75.0000028610231,8|0,1:2|0:2,0:0:0:0:
118,136,137006,2,0,B|306:147|306:147|230:184,1,225.000008583069,2|0,0:2|0:2,0:0:0:0:
183,289,137474,2,0,B|171:257|171:257|187:201,1,75.0000028610231,2|0,0:2|0:2,0:0:0:0:
323,368,137709,2,0,L|223:360,1,75.0000028610231,8|0,1:2|0:2,0:0:0:0:
7,278,137943,2,0,L|107:270,1,75.0000028610231,2|0,0:2|0:2,0:0:0:0:
50,370,138178,5,0,1:2:0:0:
248,136,138412,2,0,B|60:147|60:147|136:184,1,225.000008583069,2|0,0:2|0:2,0:0:0:0:
183,289,138880,2,0,B|195:257|195:257|179:201,1,75.0000028610231,2|0,0:2|0:2,0:0:0:0:
44,295,139115,2,0,L|50:370,1,75.0000028610231,0|0,1:2|0:2,0:0:0:0:
92,163,139349,2,0,L|97:237,1,75.0000028610231,2|0,0:2|0:2,0:0:0:0:
210,372,139584,2,0,B|199:184|199:184|183:217,1,225.000008583069,8|0,1:2|0:2,0:0:0:0:
39,301,140053,6,0,P|118:225|228:223,1,225.000008583069,4|0,1:0|0:2,0:0:0:0:
2,220,140521,2,0,P|93:153|219:143,1,225.000008583069,8|0,1:2|0:2,0:0:0:0:
299,286,140990,6,0,P|317:253|321:192,1,75.0000028610231,0|0,1:2|0:2,0:0:0:0:
331,141,141224,2,0,P|330:103|303:48,1,75.0000028610231,2|0,0:2|0:2,0:0:0:0:
39,301,141459,6,0,P|118:225|228:223,1,225.000008583069,8|0,1:2|0:2,0:0:0:0:
299,286,141928,6,0,P|317:253|321:192,1,75.0000028610231,0|0,1:2|0:2,0:0:0:0:
331,141,142162,2,0,P|330:103|303:48,1,75.0000028610231,2|0,0:2|0:2,0:0:0:0:
335,373,142396,6,0,P|373:332|402:247,1,75.0000028610231,8|0,1:2|0:2,0:0:0:0:
436,178,142630,2,0,P|449:124|431:35,1,75.0000028610231,2|0,0:2|0:2,0:0:0:0:
39,301,142865,6,0,P|118:225|228:223,1,225.000008583069,0|0,1:2|0:2,0:0:0:0:
2,220,143334,2,0,P|93:153|219:143,1,225.000008583069,8|0,1:2|0:2,0:0:0:0:
498,320,143803,6,0,B|310:331|310:331|386:368,1,225.000008583069,0|0,1:0|0:2,0:0:0:0:
396,250,144271,2,0,B|208:261|208:261|284:298,1,225.000008583069,8|0,1:2|0:2,0:0:0:0:
294,180,144740,2,0,B|106:191|106:191|182:228,1,225.000008583069,0|0,1:2|0:2,0:0:0:0:
192,110,145209,2,0,B|4:121|4:121|80:158,1,225.000008583069,8|0,1:2|0:2,0:0:0:0:
90,40,145678,5,0,1:2:0:0:
138,207,145912,1,2,0:2:0:0:
259,82,146146,1,8,1:2:0:0:
280,96,146263,1,0,0:2:0:0:
295,116,146381,1,0,0:2:0:0:
302,141,146498,1,0,0:2:0:0:
366,178,146615,5,0,1:2:0:0:
371,204,146732,1,0,2:2:0:0:
367,230,146850,1,0,2:2:0:0:
354,252,146967,1,0,2:2:0:0:
374,324,147084,2,0,L|355:331,6,12.5,8|0|0|0|0|0|0,1:2|0:2|0:2|0:2|0:2|0:2|0:2,0:0:0:0:
440,362,147552,5,4,1:0:0:0:
87,344,161615,5,0,0:2:0:0:
87,344,162084,2,0,P|96:318|88:268,1,75,4|0,0:2|0:2,0:0:0:0:
45,227,162553,6,0,B|91:242|91:242|149:232,1,100,4|2,0:2|0:2,0:0:0:0:
204,191,163256,1,0,0:2:0:0:
274,292,163490,2,0,B|232:278|232:278|180:287,2,75,0|0|0,0:2|0:2|0:2,0:0:0:0:
366,358,164428,6,0,B|381:312|381:312|371:254,1,100,0|2,0:2|0:2,0:0:0:0:
330,199,165131,1,0,0:2:0:0:
431,129,165365,2,0,B|417:170|417:170|426:222,2,75,0|0|0,0:2|0:2|0:2,0:0:0:0:
265,70,166303,6,0,P|311:90|376:72,1,100,4|2,0:2|0:2,0:0:0:0:
424,57,167006,1,0,0:2:0:0:
465,162,167240,1,0,0:2:0:0:
441,153,167357,1,0,0:2:0:0:
416,155,167474,1,0,0:2:0:0:
393,166,167592,1,0,0:2:0:0:
343,262,167943,1,0,0:2:0:0:
376,323,168178,5,0,0:2:0:0:
352,332,168295,1,0,0:2:0:0:
327,330,168412,1,0,0:2:0:0:
304,319,168530,1,0,0:2:0:0:
285,302,168646,1,2,0:2:0:0:
254,223,168881,1,0,0:2:0:0:
170,358,169115,2,0,B|200:369|200:369|260:360,1,75,0|0,0:2|0:2,0:0:0:0:
114,282,169584,2,0,B|144:271|144:271|187:277,1,75,4|0,0:2|0:2,0:0:0:0:
254,223,170053,6,0,B|266:187|266:187|256:117,1,100,4|2,0:2|0:2,0:0:0:0:
191,102,170756,1,0,0:2:0:0:
328,41,170990,1,0,0:2:0:0:
303,45,171107,1,0,0:2:0:0:
278,44,171224,1,0,0:2:0:0:
254,34,171342,1,0,0:2:0:0:
233,20,171459,1,0,0:2:0:0:
340,120,171693,1,0,0:2:0:0:
125,53,171928,6,0,B|113:89|113:89|123:159,1,100,4|2,0:2|0:2,0:0:0:0:
188,174,172631,1,0,0:2:0:0:
51,235,172865,1,0,0:2:0:0:
76,231,172982,1,0,0:2:0:0:
101,232,173099,1,0,0:2:0:0:
125,242,173217,1,0,0:2:0:0:
146,256,173334,1,0,0:2:0:0:
39,156,173568,1,0,0:2:0:0:
58,368,173803,5,4,1:2:0:0:
58,368,174271,1,0,0:2:0:0:
72,347,174388,1,0,0:2:0:0:
92,332,174506,1,0,0:2:0:0:
117,325,174623,1,0,0:2:0:0:
154,261,174740,5,0,2:2:0:0:
180,256,174857,1,0,2:2:0:0:
206,260,174975,1,0,2:2:0:0:
228,273,175092,1,0,2:2:0:0:
300,253,175209,2,0,L|307:272,6,12.5,0|0|0|0|0|0|0,0:2|0:2|0:2|0:2|0:2|0:2|0:2,0:0:0:0:
338,187,175678,6,0,P|372:178|415:189,1,64.9999970245363,4|0,1:0|0:2,0:0:0:0:
461,226,175912,2,0,L|466:261,2,25,0|0|0,0:2|0:2|0:2,0:0:0:0:
469,152,176146,1,8,1:2:0:0:
359,341,176381,5,0,0:2:0:0:
363,317,176498,1,0,0:2:0:0:
463,384,176615,2,0,P|462:359|450:318,1,64.9999970245363,4|0,1:0|0:2,0:0:0:0:
440,298,176849,1,0,0:2:0:0:
279,364,176967,1,4,0:0:0:0:
355,267,177084,6,0,L|363:318,1,50,4|0,0:0|0:2,0:0:0:0:
189,355,177553,6,0,P|155:364|110:356,1,64.9999970245363,4|0,1:0|0:2,0:0:0:0:
51,350,177787,2,0,L|16:345,4,25,0|0|0|0|0,0:2|0:2|0:2|0:2|0:2,0:0:0:0:
143,239,178138,6,0,L|148:277,1,25,4|0,0:0|0:2,0:0:0:0:
54,250,178373,5,4,1:0:0:0:
226,246,178490,2,0,L|290:257,1,64.9999970245363,4|0,1:0|0:2,0:0:0:0:
115,338,178724,2,0,L|51:350,1,64.9999970245363,4|0,1:0|0:2,0:0:0:0:
131,164,178959,6,0,L|144:247,1,75,4|0,0:0|0:2,0:0:0:0:
251,380,179428,6,0,P|242:346|253:303,1,64.9999970245363,4|0,1:0|0:2,0:0:0:0:
317,342,179662,2,0,L|322:377,2,25,0|0|0,0:2|0:2|0:2,0:0:0:0:
302,267,179896,1,8,1:2:0:0:
161,353,180131,1,0,0:2:0:0:
413,318,180365,6,0,L|425:254,1,64.9999970245363,4|0,1:0|0:2,0:0:0:0:
496,368,180599,1,0,0:2:0:0:
486,209,180717,1,4,1:0:0:0:
302,267,180834,6,0,L|310:318,1,50,4|0,0:0|0:2,0:0:0:0:
119,224,181303,5,4,1:0:0:0:
113,178,181420,2,0,L|108:143,2,25,0|0|0,0:2|0:2|0:2,0:0:0:0:
225,142,181654,5,4,1:0:0:0:
231,96,181771,2,0,L|236:61,2,25,0|0|0,0:2|0:2|0:2,0:0:0:0:
21,99,182006,5,4,1:0:0:0:
15,53,182123,1,0,0:2:0:0:
92,13,182240,5,0,2:2:0:0:
103,36,182357,1,0,2:2:0:0:
106,62,182475,1,0,2:2:0:0:
99,87,182592,1,0,2:2:0:0:
137,151,182709,2,0,L|120:162,6,12.5,0|0|0|0|0|0|0,0:2|0:2|0:2|0:2|0:2|0:2|0:2,0:0:0:0:
211,171,183178,6,0,P|228:201|228:245,1,64.9999970245363,4|0,1:0|0:2,0:0:0:0:
158,373,183412,1,0,0:2:0:0:
241,363,183529,1,0,0:2:0:0:
324,353,183646,1,8,1:2:0:0:
0,309,183881,5,0,0:2:0:0:
83,299,183998,1,0,0:2:0:0:
166,289,184115,2,0,L|154:353,1,64.9999970245363,4|0,1:0|0:2,0:0:0:0:
109,176,184349,1,0,0:2:0:0:
192,186,184466,1,4,0:0:0:0:
275,196,184584,6,0,L|282:256,1,50,4|0,0:0|0:2,0:0:0:0:
154,352,185053,6,0,L|166:288,1,64.9999970245363,4|0,1:0|0:2,0:0:0:0:
265,113,185287,1,0,0:2:0:0:
342,145,185404,1,0,0:2:0:0:
275,196,185521,1,0,0:2:0:0:
352,228,185638,6,0,L|356:264,1,25,4|0,0:0|0:2,0:0:0:0:
265,290,185873,5,4,1:0:0:0:
437,294,185990,2,0,L|501:283,1,64.9999970245363,4|0,1:0|0:2,0:0:0:0:
435,166,186224,1,0,0:2:0:0:
352,156,186341,1,0,0:2:0:0:
269,146,186459,6,0,L|279:234,1,75,4|0,0:0|0:2,0:0:0:0:
164,363,186928,6,0,L|176:299,1,64.9999970245363,4|0,1:0|0:2,0:0:0:0:
1,171,187162,1,0,0:2:0:0:
33,94,187279,1,4,0:0:0:0:
84,161,187396,1,8,1:2:0:0:
52,238,187513,1,0,0:2:0:0:
20,315,187631,1,0,0:2:0:0:
317,324,187865,6,0,L|305:260,1,64.9999970245363,4|0,1:0|0:2,0:0:0:0:
234,374,188099,1,0,0:2:0:0:
244,215,188217,1,4,1:0:0:0:
428,273,188334,6,0,L|436:324,1,50,4|0,0:0|0:2,0:0:0:0:
441,240,188803,6,0,L|449:291,1,50,4|0,0:0|0:2,0:0:0:0:
248,364,189271,1,0,0:2:0:0:
265,344,189388,1,0,0:2:0:0:
274,320,189506,1,0,0:2:0:0:
274,295,189623,1,0,0:2:0:0:
327,242,189740,5,0,2:2:0:0:
325,215,189857,1,0,2:2:0:0:
314,192,189975,1,0,2:2:0:0:
296,174,190092,1,0,2:2:0:0:
297,100,190209,2,0,L|277:98,6,12.5,0|0|0|0|0|0|0,0:2|0:2|0:2|0:2|0:2|0:2|0:2,0:0:0:0:
351,46,190678,6,0,P|361:140|249:160,1,225.000008583069,4|0,1:0|0:2,0:0:0:0:
389,255,191146,2,0,B|361:247|361:247|317:261,1,55.0000016784668,8|0,1:2|0:2,0:0:0:0:
363,322,191381,1,2,0:2:0:0:
169,330,191615,1,0,1:2:0:0:
208,270,191732,1,8,1:2:0:0:
240,334,191849,1,2,0:2:0:0:
97,237,192084,1,8,1:2:0:0:
253,162,192318,1,2,0:2:0:0:
19,112,192553,5,0,1:2:0:0:
159,84,192787,1,2,0:2:0:0:
89,98,192904,1,0,1:2:0:0:
19,112,193021,1,8,1:2:0:0:
253,162,193256,1,2,0:2:0:0:
85,319,193490,1,0,1:2:0:0:
124,259,193607,1,8,1:2:0:0:
156,323,193724,1,2,0:2:0:0:
13,226,193959,1,8,1:2:0:0:
169,151,194193,1,2,0:2:0:0:
369,192,194428,5,0,1:2:0:0:
304,356,194662,1,2,0:2:0:0:
295,330,194779,1,0,0:2:0:0:
267,252,194896,1,8,1:2:0:0:
477,315,195131,1,2,0:2:0:0:
433,160,195365,1,0,1:2:0:0:
493,199,195482,1,8,1:2:0:0:
429,231,195599,1,2,0:2:0:0:
237,178,195834,1,8,1:2:0:0:
378,38,196068,1,2,0:2:0:0:
296,277,196303,6,0,B|304:249|304:249|332:249|332:249|350:311,3,85.0000016212464,0|0|0|0,1:2|0:0|0:0|0:0,0:0:0:0:
192,348,196771,2,0,L|212:272,1,55.0000016784668,8|0,1:2|0:2,0:0:0:0:
424,280,197006,2,0,L|404:204,1,55.0000016784668,8|0,1:2|0:2,0:0:0:0:
255,155,197240,1,0,1:2:0:0:
305,104,197357,1,8,1:2:0:0:
334,169,197474,1,8,1:2:0:0:
307,236,197592,1,8,1:2:0:0:
336,301,197709,6,0,B|354:288|354:288|320:357,1,100,4|0,1:0|0:2,0:0:0:0:
239,211,197943,2,0,B|220:223|220:223|254:154,1,100,0|0,1:2|0:2,0:0:0:0:
449,344,198178,5,4,1:0:0:0:
232,338,198412,1,2,0:2:0:0:
258,329,198529,1,0,0:2:0:0:
336,301,198646,1,8,1:2:0:0:
148,263,198881,1,2,0:2:0:0:
363,150,199115,1,0,1:2:0:0:
423,189,199232,1,8,1:2:0:0:
359,221,199349,1,2,0:2:0:0:
193,180,199584,1,8,1:2:0:0:
241,345,199818,1,2,0:2:0:0:
423,189,200053,5,0,1:2:0:0:
451,49,200287,1,2,0:2:0:0:
437,119,200404,1,0,1:2:0:0:
423,189,200521,1,8,1:2:0:0:
296,44,200756,1,2,0:2:0:0:
139,212,200990,1,0,1:2:0:0:
199,173,201107,1,8,1:2:0:0:
135,141,201224,1,2,0:2:0:0:
232,284,201459,1,8,1:2:0:0:
307,128,201693,1,2,0:2:0:0:
371,337,201928,5,0,1:2:0:0:
387,339,202045,1,0,0:2:0:0:
403,341,202162,1,0,0:2:0:0:
419,343,202279,1,0,0:2:0:0:
404,262,202396,5,8,1:2:0:0:
420,264,202513,1,0,0:2:0:0:
436,266,202630,1,0,0:2:0:0:
452,268,202747,1,0,0:2:0:0:
437,187,202865,6,0,L|511:198,1,55.0000016784668,0|0,1:2|0:2,0:0:0:0:
268,262,203099,2,0,L|342:273,1,55.0000016784668,8|0,1:2|0:2,0:0:0:0:
414,158,203334,2,0,L|488:169,1,55.0000016784668,8|0,1:2|0:2,0:0:0:0:
245,233,203568,2,0,L|319:244,1,55.0000016784668,8|0,1:2|0:2,0:0:0:0:
323,0,203803,5,0,1:2:0:0:
258,164,204037,1,2,0:2:0:0:
249,138,204154,1,0,0:2:0:0:
221,60,204271,1,8,1:2:0:0:
447,123,204506,1,2,0:2:0:0:
396,174,204623,1,8,1:2:0:0:
331,141,204740,1,0,1:2:0:0:
342,70,204857,1,0,1:2:0:0:
414,58,204974,1,2,0:2:0:0:
512,290,205209,2,0,B|459:273|459:273|335:310,1,165.000005035401,4|0,1:2|0:0,0:0:0:0:
159,230,205678,6,0,B|199:215|199:215|265:232,1,110.000003356934,4|2,1:0|0:2,0:0:0:0:
290,239,206029,1,0,0:2:0:0:
211,304,206146,1,8,1:2:0:0:
184,115,206263,6,0,B|185:38|185:38|174:57,1,100,2|0,0:2|0:2,0:0:0:0:
85,203,206498,2,0,B|83:279|83:279|94:260,1,100,2|0,0:2|1:2,0:0:0:0:
32,156,206732,1,8,1:2:0:0:
18,226,206849,1,2,0:2:0:0:
261,196,207084,1,8,1:2:0:0:
91,82,207318,1,2,0:2:0:0:
211,304,207553,5,0,1:2:0:0:
18,226,207787,1,2,0:2:0:0:
44,217,207904,1,0,0:2:0:0:
122,189,208021,1,8,1:2:0:0:
84,353,208256,2,0,B|76:325|76:325|90:281,1,55.0000016784668,2|0,0:2|0:2,0:0:0:0:
275,272,208490,1,0,1:2:0:0:
335,311,208607,1,8,1:2:0:0:
271,343,208724,2,0,L|275:284,1,55.0000016784668,2|0,0:2|0:2,0:0:0:0:
417,160,208959,1,8,1:2:0:0:
461,384,209193,1,2,0:2:0:0:
184,326,209428,6,0,L|106:311,1,75.0000028610231,4|0,1:0|0:2,0:0:0:0:
376,244,209662,2,0,L|453:229,1,75.0000028610231,8|0,1:2|0:2,0:0:0:0:
307,160,209896,1,8,1:2:0:0:
262,384,210013,1,8,1:2:0:0:
267,362,210131,2,0,L|273:330,1,25,0|0,0:2|0:2,0:0:0:0:
177,269,210365,5,0,1:2:0:0:
244,242,210482,1,8,1:2:0:0:
309,271,210599,1,8,1:2:0:0:
376,244,210717,1,8,1:2:0:0:
441,273,210834,1,8,1:2:0:0:
307,160,211068,1,2,0:2:0:0:
94,318,211303,6,0,B|79:278|79:278|96:212,1,110.000003356934,0|2,1:2|0:2,0:0:0:0:
104,186,211654,1,0,0:2:0:0:
7,306,211771,2,0,B|-1:278|-1:278|7:254,1,55.0000016784668,8|0,1:2|0:2,0:0:0:0:
130,115,212006,2,0,B|102:107|102:107|78:115,1,55.0000016784668,2|8,0:2|1:2,0:0:0:0:
244,242,212240,1,0,1:2:0:0:
205,182,212357,1,8,1:2:0:0:
135,200,212474,1,8,1:2:0:0:
131,271,212592,1,8,1:2:0:0:
198,298,212709,2,0,L|240:247,1,55.0000016784668,4|0,1:2|0:2,0:0:0:0:
318,384,212943,2,0,B|326:356|326:356|318:332,1,55.0000016784668,2|0,0:2|0:2,0:0:0:0:
133,94,213178,6,0,B|118:134|118:134|135:200,1,110.000003356934,4|2,1:0|0:2,0:0:0:0:
207,146,213529,1,0,1:2:0:0:
18,119,213646,1,8,1:2:0:0:
276,48,213881,1,2,0:2:0:0:
283,262,214115,1,0,1:2:0:0:
216,235,214232,1,8,1:2:0:0:
151,264,214349,1,2,0:2:0:0:
84,237,214467,1,0,0:2:0:0:
19,266,214584,1,8,1:2:0:0:
208,360,214818,1,2,0:2:0:0:
379,94,215053,5,4,1:0:0:0:
387,119,215170,1,0,0:2:0:0:
394,144,215287,1,0,0:2:0:0:
402,170,215404,1,0,0:2:0:0:
494,119,215521,1,8,1:2:0:0:
236,48,215756,1,2,0:2:0:0:
229,262,215990,1,0,1:2:0:0:
296,235,216107,1,8,1:2:0:0:
361,264,216224,1,2,0:2:0:0:
428,237,216342,1,0,0:2:0:0:
493,266,216459,1,8,1:2:0:0:
304,360,216693,1,2,0:2:0:0:
256,112,216928,5,4,1:0:0:0:
256,192,217045,12,0,220209,0:2:0:0:
256,192,220443,5,0,0:2:0:0:
256,164,220560,2,0,L|256:122,2,27.5000008392334,0|0|0,0:2|0:2|0:2,0:0:0:0:
256,192,220795,12,0,224428,0:2:0:0:
