osu file format v14

[General]
AudioFilename: audio.mp3
AudioLeadIn: 0
PreviewTime: 89896
Countdown: 0
SampleSet: Soft
StackLeniency: 0.7
Mode: 0
LetterboxInBreaks: 0
StoryFireInFront: 0
WidescreenStoryboard: 0

[Editor]
DistanceSpacing: 1.5
BeatDivisor: 4
GridSize: 4
TimelineZoom: 1

[Metadata]
Title:Fuujin Shoujo (Suigetsu Yamato Remix)
TitleUnicode:風神少女(水月やまと Remix)
Artist:Suigetsu Yamato
ArtistUnicode:水月やまと
Creator:ktgster
Version:Insane
Source:東方花映塚 ~ Phantasmagoria of Flower View.
Tags:touhou project house set of ymto wind god girl
BeatmapID:1372439
BeatmapSetID:647546

[Difficulty]
HPDrainRate:5
CircleSize:4.5
OverallDifficulty:8
ApproachRate:8.5
SliderMultiplier:1.8
SliderTickRate:1

[Events]
//Background and Video events
0,0,"Aya.jpg",0,0
//Break Periods
2,147753,160940
//Storyboard Layer 0 (Background)
//Storyboard Layer 1 (Fail)
//Storyboard Layer 2 (Pass)
//Storyboard Layer 3 (Foreground)
//Storyboard Sound Samples

[TimingPoints]
1303,468.75,4,2,1,80,1,0
1303,-55.55555555556,4,2,1,80,0,0
1771,-100,4,2,1,60,0,0
8803,-55.55555555556,4,2,1,80,0,0
9271,-100,4,2,1,60,0,0
16303,-55.55555555556,4,2,1,80,0,0
16771,-100,4,2,1,60,0,0
23803,-125,4,2,1,60,0,0
31537,-125,4,3,1,50,0,0
46303,-125,4,2,1,60,0,0
76303,-125,4,2,1,70,0,0
88490,-125,4,2,1,80,0,0
89896,-200,4,3,1,60,0,0
91303,-90.90909090909,4,2,1,90,0,1
91771,-90.90909090909,4,2,1,80,0,1
117084,-90.90909090909,4,2,1,80,0,0
117553,-66.66666666667,4,2,1,80,0,1
121303,-76.92307692308,4,2,1,70,0,0
125053,-66.66666666667,4,2,1,80,0,1
128803,-76.92307692308,4,2,1,70,0,0
132553,-66.66666666667,4,2,1,80,0,1
136303,-76.92307692308,4,2,1,70,0,0
140053,-66.66666666667,4,2,1,80,0,1
145678,-76.92307692308,4,2,1,80,0,0
146146,-200,4,3,1,60,0,0
147553,-200,4,2,1,80,0,0
161615,-200,4,2,1,60,0,0
173803,-200,4,2,1,80,0,0
174271,-200,4,3,1,60,0,0
175678,-76.92307692308,4,3,1,70,0,0
177904,-100,4,3,1,70,0,0
178373,-76.92307692308,4,3,1,70,0,0
181303,-100,4,3,1,70,0,0
182240,-200,4,3,1,70,0,0
183178,-76.92307692308,4,3,1,70,0,0
188334,-200,4,3,1,70,0,0
190678,-90.90909090909,4,2,1,90,0,1
191146,-90.90909090909,4,2,1,80,0,1
196303,-200,4,2,1,80,0,1
196771,-90.90909090909,4,2,1,80,0,1
201928,-200,4,2,1,80,0,1
202865,-90.90909090909,4,2,1,80,0,1
216928,-90.90909090909,4,2,1,80,0,0
220209,-90.90909090909,4,2,1,5,0,0
220443,-90.90909090909,4,2,1,80,0,0
224428,-90.90909090909,4,2,1,5,0,0

[Colours]
Combo1 : 255,192,0
Combo2 : 0,242,121
Combo3 : 255,182,108
Combo4 : 255,151,203

[HitObjects]
393,39,1303,6,0,P|477:111|367:81,1,242.9999925842,4|0,1:0|0:2,0:0:0:0:
332,119,1771,2,0,P|306:110|282:111,1,45,8|0,1:2|0:2,0:0:0:0:
240,61,2006,2,8,P|215:73|198:90,1,45,2|0,0:2|0:2,0:0:0:0:
133,85,2240,2,8,P|124:111|125:135,1,45,0|0,1:2|0:2,0:0:0:0:
75,176,2474,2,8,P|87:200|104:217,1,45,2|0,0:2|0:2,0:0:0:0:
98,281,2709,2,8,P|124:290|148:289,1,45,8|0,1:2|0:2,0:0:0:0:
189,339,2943,2,8,P|213:326|230:309,1,45,2|0,0:2|0:2,0:0:0:0:
263,257,3178,5,0,1:2:0:0:
265,248,3412,1,2,0:2:0:0:
267,239,3646,1,8,1:2:0:0:
269,230,3881,1,2,0:2:0:0:
271,221,4115,1,0,1:2:0:0:
273,212,4349,1,2,0:2:0:0:
275,203,4584,1,8,1:2:0:0:
277,194,4818,1,2,0:2:0:0:
340,257,5053,5,0,1:2:0:0:
342,248,5287,1,2,0:2:0:0:
344,239,5521,1,8,1:2:0:0:
346,230,5756,1,2,0:2:0:0:
348,221,5990,1,0,1:2:0:0:
350,212,6224,1,2,0:2:0:0:
352,203,6459,1,8,1:2:0:0:
354,194,6693,1,2,0:2:0:0:
417,257,6928,5,0,1:2:0:0:
419,248,7162,1,2,0:2:0:0:
421,239,7396,1,8,1:2:0:0:
423,230,7631,1,2,0:2:0:0:
425,221,7865,1,0,1:2:0:0:
427,212,8099,1,2,0:2:0:0:
429,203,8334,1,8,1:2:0:0:
431,194,8568,1,2,0:2:0:0:
393,345,8803,6,0,P|477:273|367:303,1,242.9999925842,4|0,1:0|0:2,0:0:0:0:
332,265,9271,2,0,P|306:274|282:273,1,45,8|0,1:2|0:2,0:0:0:0:
240,323,9506,2,8,P|215:311|198:294,1,45,2|0,0:2|0:2,0:0:0:0:
133,299,9740,2,8,P|124:273|125:249,1,45,0|0,1:2|0:2,0:0:0:0:
75,208,9974,2,8,P|87:184|104:167,1,45,2|0,0:2|0:2,0:0:0:0:
98,103,10209,2,8,P|124:94|148:95,1,45,8|0,1:2|0:2,0:0:0:0:
189,45,10443,2,8,P|213:58|230:75,1,45,2|0,0:2|0:2,0:0:0:0:
263,127,10678,5,0,1:2:0:0:
265,136,10912,1,2,0:2:0:0:
267,145,11146,1,8,1:2:0:0:
269,154,11381,1,2,0:2:0:0:
271,163,11615,1,0,1:2:0:0:
273,172,11849,1,2,0:2:0:0:
275,181,12084,1,8,1:2:0:0:
277,190,12318,1,2,0:2:0:0:
340,127,12553,5,0,1:2:0:0:
342,136,12787,1,2,0:2:0:0:
344,145,13021,1,8,1:2:0:0:
346,154,13256,1,2,0:2:0:0:
348,163,13490,1,0,1:2:0:0:
350,172,13724,1,2,0:2:0:0:
352,181,13959,1,8,1:2:0:0:
354,190,14193,1,2,0:2:0:0:
417,127,14428,5,0,1:2:0:0:
419,136,14662,1,2,0:2:0:0:
421,145,14896,1,8,1:2:0:0:
423,154,15131,1,2,0:2:0:0:
425,163,15365,1,0,1:2:0:0:
427,172,15599,1,2,0:2:0:0:
429,181,15834,1,8,1:2:0:0:
431,190,16068,1,2,0:2:0:0:
393,39,16303,6,0,P|477:111|367:81,1,242.9999925842,4|0,1:0|0:2,0:0:0:0:
332,119,16771,2,0,P|306:110|282:111,1,45,8|0,1:2|0:2,0:0:0:0:
240,61,17006,2,8,P|215:73|198:90,1,45,2|0,0:2|0:2,0:0:0:0:
133,85,17240,2,8,P|124:111|125:135,1,45,0|0,1:2|0:2,0:0:0:0:
75,176,17474,2,8,P|87:200|104:217,1,45,2|0,0:2|0:2,0:0:0:0:
98,281,17709,2,8,P|124:290|148:289,1,45,8|0,1:2|0:2,0:0:0:0:
189,339,17943,2,8,P|213:326|230:309,1,45,2|0,0:2|0:2,0:0:0:0:
263,257,18178,5,0,1:2:0:0:
265,248,18412,1,2,0:2:0:0:
258,241,18646,1,8,1:2:0:0:
260,232,18880,1,2,0:2:0:0:
253,225,19115,1,0,1:2:0:0:
255,216,19349,1,2,0:2:0:0:
248,209,19583,1,8,1:2:0:0:
250,200,19817,1,2,0:2:0:0:
344,227,20053,5,0,1:2:0:0:
346,218,20287,1,2,0:2:0:0:
339,211,20521,1,8,1:2:0:0:
341,202,20755,1,2,0:2:0:0:
334,195,20990,1,0,1:2:0:0:
336,186,21224,1,2,0:2:0:0:
329,179,21458,1,8,1:2:0:0:
331,170,21692,1,2,0:2:0:0:
425,197,21928,5,0,1:2:0:0:
427,188,22162,1,2,0:2:0:0:
420,181,22396,1,8,1:2:0:0:
422,172,22630,1,2,0:2:0:0:
415,165,22865,1,0,1:2:0:0:
417,156,23099,1,2,0:2:0:0:
410,149,23333,1,8,1:2:0:0:
412,140,23567,1,2,0:2:0:0:
443,75,23803,6,0,B|468:84|468:84|491:143,2,48,4|0|0,1:0|0:2|0:2,0:0:0:0:
371,80,24271,2,0,B|366:53|366:53|405:4,2,48,8|0|0,1:2|0:2|0:2,0:0:0:0:
412,140,24740,2,0,B|391:157|391:157|329:147,2,48,0|0|0,1:2|0:2|0:2,0:0:0:0:
443,75,25209,1,8,1:2:0:0:
69,75,25678,6,0,B|44:84|44:84|21:143,2,48,0|0|0,1:0|0:2|0:2,0:0:0:0:
141,80,26146,2,0,B|145:53|145:53|106:4,2,48,8|0|0,1:2|0:2|0:2,0:0:0:0:
100,140,26615,2,0,B|120:157|120:157|182:147,2,48,0|0|0,1:2|0:2|0:2,0:0:0:0:
69,75,27084,1,8,1:2:0:0:
486,296,27553,6,0,B|477:321|477:321|418:344,2,48,0|0|0,1:2|0:2|0:2,0:0:0:0:
424,258,28021,2,0,B|433:233|433:233|492:210,2,48,8|0|0,1:2|0:2|0:2,0:0:0:0:
372,309,28490,2,0,L|309:300,1,48,0|0,1:2|0:2,0:0:0:0:
256,296,28803,1,0,0:2:0:0:
256,296,28959,1,8,1:2:0:0:
26,296,29428,6,0,B|35:321|35:321|94:344,2,48,0|0|0,1:2|0:2|0:2,0:0:0:0:
88,258,29896,2,0,B|79:233|79:233|20:210,2,48,8|0|0,1:2|0:2|0:2,0:0:0:0:
140,309,30365,2,0,L|203:300,1,48,0|0,1:2|0:2,0:0:0:0:
256,296,30678,1,0,0:2:0:0:
256,296,30834,2,0,P|281:317|293:360,1,72,8|0,1:2|0:0,0:0:0:0:
502,200,31303,6,0,L|421:188,1,72,4|2,1:0|0:2,0:0:0:0:
379,138,31771,1,8,0:2:0:0:
327,189,32006,2,0,B|331:232|331:232|360:281|360:281|365:329,1,144,2|2,0:2|0:2,0:0:0:0:
313,375,32709,1,8,0:2:0:0:
256,331,32943,1,2,0:2:0:0:
10,200,33178,6,0,L|91:188,1,72,0|2,0:2|0:2,0:0:0:0:
133,138,33646,1,8,0:2:0:0:
185,189,33881,2,0,B|181:232|181:232|152:281|152:281|147:329,1,144,2|2,0:2|0:2,0:0:0:0:
199,375,34584,1,8,0:2:0:0:
256,331,34818,1,2,0:2:0:0:
420,176,35053,6,0,P|427:207|415:255,1,72,0|2,0:2|0:2,0:0:0:0:
375,302,35521,1,8,0:2:0:0:
323,250,35756,2,0,B|315:207|315:207|282:161|282:161|273:118,1,144,2|2,0:2|0:2,0:0:0:0:
220,68,36459,1,8,0:2:0:0:
220,68,36693,1,2,0:2:0:0:
92,176,36928,6,0,P|85:207|97:255,1,72,0|2,0:2|0:2,0:0:0:0:
137,302,37396,1,8,0:2:0:0:
189,250,37631,2,0,B|197:207|197:207|230:161|230:161|238:118,1,144,2|2,0:2|0:2,0:0:0:0:
292,68,38334,1,8,0:2:0:0:
292,68,38568,1,2,0:2:0:0:
295,192,38803,5,4,0:1:0:0:
362,167,39037,1,2,0:2:0:0:
430,188,39271,1,8,0:2:0:0:
497,163,39506,2,0,B|489:121|489:121|456:75|456:75|446:27,1,144,2|2,3:2|0:2,0:0:0:0:
377,9,40209,1,8,0:2:0:0:
377,9,40443,1,2,0:2:0:0:
217,192,40678,5,0,0:2:0:0:
150,167,40912,1,2,0:2:0:0:
82,188,41146,1,8,0:2:0:0:
15,163,41381,2,0,B|23:121|23:121|56:75|56:75|66:27,1,144,2|2,3:2|0:2,0:0:0:0:
135,9,42084,1,8,0:2:0:0:
135,9,42318,1,2,0:2:0:0:
217,192,42553,5,0,0:2:0:0:
192,259,42787,1,2,0:2:0:0:
123,279,43021,1,8,0:2:0:0:
90,343,43256,2,0,B|131:351|131:351|186:337|186:337|235:346,1,144,2|2,3:2|0:2,0:0:0:0:
300,364,43959,1,8,0:2:0:0:
300,364,44193,1,2,0:2:0:0:
295,192,44428,5,0,0:2:0:0:
320,259,44662,1,2,0:2:0:0:
389,279,44896,1,8,0:2:0:0:
421,343,45131,5,4,0:0:0:0:
281,345,45599,1,4,0:0:0:0:
389,279,45834,1,8,0:2:0:0:
512,307,46068,2,0,L|502:241,1,36,4|0,0:0|0:2,0:0:0:0:
494,189,46303,6,0,B|480:156|480:156|492:104,1,72,4|2,1:2|0:2,0:0:0:0:
506,43,46771,1,8,1:2:0:0:
430,67,47006,1,2,0:2:0:0:
357,34,47240,1,0,1:2:0:0:
319,181,47474,2,0,L|408:172,2,72,2|8|2,0:2|1:2|0:2,0:0:0:0:
188,119,48178,6,0,B|174:152|174:152|186:204,1,72,0|2,1:2|0:2,0:0:0:0:
200,265,48646,1,8,1:2:0:0:
124,241,48881,1,2,0:2:0:0:
51,274,49115,1,0,1:2:0:0:
50,123,49349,2,0,L|58:195,2,72,2|8|2,0:2|1:2|0:2,0:0:0:0:
279,104,50053,6,0,B|246:118|246:118|194:106,1,72,4|2,1:0|0:2,0:0:0:0:
133,92,50521,1,8,1:2:0:0:
157,168,50756,1,2,0:2:0:0:
124,241,50990,1,0,1:2:0:0:
271,175,51224,2,0,L|280:86,2,72,2|8|2,0:2|1:2|0:2,0:0:0:0:
426,312,51928,6,0,B|393:298|393:298|341:310,1,72,0|2,1:2|0:2,0:0:0:0:
280,324,52396,1,8,1:2:0:0:
304,248,52631,1,2,0:2:0:0:
271,175,52865,1,0,1:2:0:0:
463,146,53099,2,0,L|455:218,2,72,2|8|2,0:2|1:2|0:2,0:0:0:0:
280,324,53803,6,0,L|352:316,1,72,4|2,1:0|0:2,0:0:0:0:
417,359,54271,1,8,1:2:0:0:
422,279,54506,1,2,0:2:0:0:
280,237,54740,2,0,L|232:231,2,36,0|0|2,1:2|0:0|0:2,0:0:0:0:
496,227,55209,2,0,B|511:261|511:261|509:300,1,72,8|2,1:2|0:2,0:0:0:0:
312,156,55678,6,0,L|240:148,1,72,0|2,1:2|0:2,0:0:0:0:
175,191,56146,1,8,1:2:0:0:
170,111,56381,1,2,0:2:0:0:
312,69,56615,2,0,L|359:63,2,36,0|0|2,1:2|0:0|0:2,0:0:0:0:
82,127,57084,2,0,B|81:93|81:93|96:59,1,72,8|2,1:2|0:2,0:0:0:0:
324,144,57553,6,0,L|332:216,1,72,4|2,1:0|0:2,0:0:0:0:
289,281,58021,1,8,1:2:0:0:
369,286,58256,1,2,0:2:0:0:
411,144,58490,2,0,L|417:96,2,36,0|0|2,1:2|0:0|0:2,0:0:0:0:
421,360,58959,2,0,B|387:375|387:375|348:373,1,72,8|2,1:2|0:2,0:0:0:0:
146,269,59428,6,0,L|154:197,1,72,0|2,1:2|0:2,0:0:0:0:
111,132,59896,1,8,1:2:0:0:
191,127,60131,1,2,0:2:0:0:
233,269,60365,2,0,L|239:316,2,36,0|0|2,1:2|0:0|0:2,0:0:0:0:
175,39,60834,2,0,B|209:38|209:38|243:53,1,72,8|2,1:2|0:2,0:0:0:0:
36,192,61303,5,4,1:0:0:0:
114,184,61537,1,2,0:2:0:0:
192,176,61771,1,8,1:2:0:0:
271,168,62006,1,2,0:2:0:0:
150,292,62240,2,0,B|184:277|184:277|218:278,1,72,0|2,1:2|0:2,0:0:0:0:
290,290,62592,1,0,0:0:0:0:
290,290,62709,2,0,P|292:333|271:387,1,72,8|2,1:2|0:2,0:0:0:0:
405,254,63178,6,0,P|403:211|424:157,1,72,0|2,1:2|0:2,0:0:0:0:
439,121,63529,1,0,0:0:0:0:
439,121,63646,2,0,B|407:106|407:106|370:106,1,72,8|2,1:2|0:2,0:0:0:0:
275,174,64115,1,0,1:2:0:0:
479,230,64349,1,2,0:2:0:0:
479,230,64467,1,0,0:0:0:0:
479,230,64584,1,8,1:2:0:0:
327,273,64818,1,2,0:2:0:0:
445,135,65053,5,0,1:2:0:0:
367,127,65287,1,2,0:2:0:0:
289,119,65521,1,8,1:2:0:0:
210,111,65756,1,2,0:2:0:0:
331,235,65990,2,0,B|297:220|297:220|263:221,1,72,0|2,1:2|0:2,0:0:0:0:
192,240,66342,1,0,0:0:0:0:
192,240,66459,2,0,P|190:283|211:337,1,72,8|2,1:2|0:2,0:0:0:0:
76,197,66928,6,0,P|78:154|57:100,1,72,0|2,1:2|0:2,0:0:0:0:
43,63,67279,1,0,0:0:0:0:
43,63,67396,2,0,B|74:48|74:48|111:48,1,72,8|2,1:2|0:2,0:0:0:0:
206,117,67865,1,0,1:2:0:0:
2,173,68099,1,2,0:2:0:0:
154,216,68334,1,8,1:2:0:0:
154,216,68568,1,2,0:2:0:0:
245,370,68803,6,0,L|254:282,1,72,4|2,1:0|0:2,0:0:0:0:
273,229,69154,1,0,0:0:0:0:
273,229,69271,2,0,P|314:221|358:239,1,72,8|2,1:2|0:2,0:0:0:0:
441,316,69740,1,0,1:2:0:0:
485,179,69974,1,2,0:2:0:0:
483,161,70092,1,0,0:0:0:0:
480,143,70209,1,8,1:2:0:0:
359,109,70443,1,2,0:2:0:0:
361,91,70561,1,0,0:0:0:0:
364,73,70678,5,0,1:2:0:0:
295,51,70912,1,2,0:2:0:0:
226,73,71146,1,8,1:2:0:0:
157,51,71381,1,2,0:2:0:0:
229,237,71615,2,0,L|238:149,1,72,0|2,1:2|0:2,0:0:0:0:
144,275,71967,1,0,0:0:0:0:
144,275,72084,2,0,L|135:187,1,72,8|2,1:2|0:2,0:0:0:0:
383,358,72553,6,0,L|374:270,1,72,0|2,1:2|0:2,0:0:0:0:
355,217,72904,1,0,0:0:0:0:
355,217,73021,2,0,P|314:209|270:227,1,72,8|2,1:2|0:2,0:0:0:0:
187,304,73490,1,0,1:2:0:0:
143,167,73724,1,2,0:2:0:0:
145,149,73842,1,0,0:0:0:0:
148,131,73959,1,8,1:2:0:0:
269,97,74193,1,2,0:2:0:0:
267,79,74311,1,0,0:0:0:0:
264,61,74428,5,0,1:2:0:0:
333,39,74662,1,2,0:2:0:0:
402,61,74896,1,8,1:2:0:0:
471,39,75131,1,2,0:2:0:0:
399,225,75365,2,0,L|390:137,1,72,0|2,1:2|0:2,0:0:0:0:
484,263,75834,2,0,L|493:175,1,72,8|2,1:2|0:2,0:0:0:0:
396,325,76303,6,0,P|343:313|286:322,1,108,4|0,1:0|0:0,0:0:0:0:
224,349,76771,2,0,P|217:311|240:266,1,72,8|2,1:2|0:2,0:0:0:0:
366,239,77240,1,0,1:2:0:0:
133,174,77474,1,2,0:2:0:0:
135,192,77592,1,0,0:0:0:0:
138,210,77709,2,0,P|134:248|101:286,1,72,8|2,1:2|0:2,0:0:0:0:
4,110,78178,5,0,1:2:0:0:
75,118,78412,1,2,0:2:0:0:
140,87,78646,1,8,1:2:0:0:
211,95,78880,1,2,0:2:0:0:
345,37,79115,1,0,1:2:0:0:
305,233,79349,1,2,0:2:0:0:
305,233,79467,1,0,0:0:0:0:
305,233,79584,2,0,P|271:197|237:190,1,72,8|2,1:2|0:2,0:0:0:0:
47,143,80053,6,0,P|59:196|50:253,1,108,0|0,1:2|0:0,0:0:0:0:
23,315,80521,2,0,P|61:322|106:299,1,72,8|2,1:2|0:2,0:0:0:0:
301,370,80990,2,0,P|263:377|218:354,1,72,0|2,1:2|0:2,0:0:0:0:
188,308,81342,1,0,0:0:0:0:
188,308,81459,2,0,L|186:222,1,72,8|2,1:2|0:2,0:0:0:0:
352,152,81928,5,0,1:2:0:0:
280,160,82162,1,2,0:2:0:0:
216,129,82396,1,8,1:2:0:0:
144,137,82630,1,2,0:2:0:0:
11,79,82865,2,0,P|42:105|56:151,1,72,0|2,1:2|0:2,0:0:0:0:
180,0,83334,2,0,P|184:35|172:69,1,72,8|2,1:2|0:2,0:0:0:0:
23,303,83803,6,0,P|76:291|133:300,1,108,4|0,1:0|0:0,0:0:0:0:
195,327,84271,2,0,P|202:289|179:244,1,72,8|2,1:2|0:2,0:0:0:0:
80,198,84740,1,0,1:2:0:0:
224,128,84974,1,2,0:2:0:0:
206,126,85092,1,0,0:0:0:0:
188,123,85209,1,8,1:2:0:0:
137,72,85443,1,2,0:2:0:0:
315,14,85678,5,0,1:2:0:0:
323,86,85912,1,2,0:2:0:0:
292,150,86146,1,8,1:2:0:0:
300,222,86380,1,2,0:2:0:0:
242,355,86615,2,0,P|268:324|314:310,1,72,0|2,1:2|0:2,0:0:0:0:
368,308,86967,1,0,0:0:0:0:
368,308,87084,2,0,L|473:318,1,72,8|2,1:2|0:2,0:0:0:0:
512,211,87553,5,4,1:0:0:0:
389,134,87787,1,2,0:2:0:0:
407,132,87905,1,0,0:0:0:0:
425,129,88022,1,8,1:2:0:0:
332,230,88256,1,2,0:2:0:0:
314,228,88374,1,0,0:0:0:0:
296,225,88491,1,4,1:0:0:0:
247,143,88724,1,2,0:2:0:0:
188,254,88959,1,8,1:2:0:0:
132,80,89193,1,2,0:2:0:0:
57,339,89428,5,4,1:0:0:0:
57,339,89896,1,0,0:2:0:0:
75,325,90013,1,0,0:2:0:0:
97,321,90131,1,0,0:2:0:0:
119,323,90248,1,0,0:2:0:0:
138,334,90365,1,0,2:2:0:0:
157,345,90482,1,0,2:2:0:0:
179,347,90599,1,0,2:2:0:0:
201,343,90717,1,0,2:2:0:0:
219,329,90834,2,0,L|223:315,6,11.25,0|0|0|0|0|0|0,0:2|0:2|0:2|0:2|0:2|0:2|0:2,0:0:0:0:
229,296,91303,6,0,P|202:230|95:265,1,198.0000060425,4|8,1:0|1:2,0:0:0:0:
45,341,92006,1,2,0:2:0:0:
8,197,92240,1,0,1:2:0:0:
18,148,92357,1,8,1:2:0:0:
28,99,92474,1,2,0:2:0:0:
145,8,92709,1,8,1:2:0:0:
165,154,92943,1,2,0:2:0:0:
90,322,93178,6,0,B|143:311|143:311|226:329,1,99.00000302124,0|2,1:2|0:2,0:0:0:0:
328,363,93646,1,8,1:2:0:0:
293,219,93881,1,2,0:2:0:0:
435,260,94115,1,0,1:2:0:0:
386,271,94232,1,8,1:2:0:0:
337,281,94349,1,2,0:2:0:0:
497,316,94584,2,0,B|514:275|514:275|513:221,1,99.00000302124,8|2,1:2|0:2,0:0:0:0:
396,149,95053,6,0,L|514:133,2,99.00000302124,0|2|8,1:2|0:2|1:2,0:0:0:0:
290,43,95756,1,2,0:2:0:0:
245,255,95990,1,0,1:2:0:0:
293,246,96107,1,8,1:2:0:0:
342,240,96224,1,2,0:2:0:0:
187,142,96459,1,8,1:2:0:0:
148,287,96693,1,2,0:2:0:0:
88,81,96928,6,0,B|77:134|77:134|95:217,1,99.00000302124,0|2,1:2|0:2,0:0:0:0:
225,228,97396,1,8,1:2:0:0:
48,322,97631,1,2,0:2:0:0:
91,299,97748,1,8,1:2:0:0:
140,299,97865,1,0,1:2:0:0:
183,322,97982,1,0,1:2:0:0:
207,364,98099,1,2,0:2:0:0:
444,301,98334,2,0,B|391:318|391:318|267:281,1,148.5000045319,4|0,1:2|0:2,0:0:0:0:
250,238,98803,6,0,L|234:120,1,99.00000302124,4|2,1:0|0:2,0:0:0:0:
349,34,99271,1,8,1:2:0:0:
387,177,99506,1,2,0:2:0:0:
148,135,99740,1,0,1:2:0:0:
154,85,99857,1,8,1:2:0:0:
161,36,99974,1,2,0:2:0:0:
298,283,100209,2,0,B|245:272|245:272|162:290,1,99.00000302124,8|2,1:2|0:2,0:0:0:0:
25,188,100678,6,0,L|143:204,2,99.00000302124,0|2|8,1:2|0:2|1:2,0:0:0:0:
94,56,101381,1,2,0:2:0:0:
239,28,101615,1,0,1:2:0:0:
245,78,101732,1,8,1:2:0:0:
252,127,101849,1,2,0:2:0:0:
123,201,102084,1,8,1:2:0:0:
312,244,102318,1,2,0:2:0:0:
64,343,102553,6,0,L|182:327,1,99.00000302124,0|2,1:2|0:2,0:0:0:0:
305,367,103021,1,8,1:2:0:0:
480,239,103256,2,0,L|362:223,1,99.00000302124,2|0,0:2|1:2,0:0:0:0:
332,218,103607,1,8,1:2:0:0:
283,210,103724,1,2,0:2:0:0:
140,247,103959,1,8,1:2:0:0:
179,104,104193,1,2,0:2:0:0:
381,225,104428,6,0,B|398:278|398:278|361:402,1,148.5000045319,0|0,1:2|0:2,0:0:0:0:
324,381,104896,1,8,1:2:0:0:
472,181,105131,1,2,0:2:0:0:
426,197,105248,1,8,1:2:0:0:
377,192,105365,1,0,1:2:0:0:
331,175,105482,1,0,1:2:0:0:
300,137,105599,1,2,0:2:0:0:
104,254,105834,2,0,B|157:271|157:271|281:234,1,148.5000045319,4|0,1:2|0:0,0:0:0:0:
148,79,106303,6,0,B|138:122|138:122|149:175,1,99.00000302124,4|2,1:0|0:2,0:0:0:0:
289,126,106771,1,8,1:2:0:0:
262,270,107006,1,2,0:2:0:0:
97,340,107240,1,0,1:2:0:0:
145,347,107357,1,8,1:2:0:0:
193,355,107474,1,2,0:2:0:0:
13,285,107709,2,0,B|4:328|4:328|15:381,1,99.00000302124,8|2,1:2|0:2,0:0:0:0:
272,312,108178,6,0,B|282:269|282:269|271:216,1,99.00000302124,0|2,1:2|0:2,0:0:0:0:
131,265,108646,1,8,1:2:0:0:
158,121,108881,1,2,0:2:0:0:
323,51,109115,1,0,1:2:0:0:
274,41,109232,1,8,1:2:0:0:
225,31,109349,1,2,0:2:0:0:
407,106,109584,2,0,B|416:63|416:63|405:10,1,99.00000302124,8|2,1:2|0:2,0:0:0:0:
365,203,110053,6,0,L|483:187,2,99.00000302124,4|2|8,1:0|0:2|1:2,0:0:0:0:
228,142,110756,1,2,0:2:0:0:
301,321,110990,1,0,1:2:0:0:
349,328,111107,1,8,1:2:0:0:
397,338,111224,1,2,0:2:0:0:
188,250,111459,2,0,B|145:241|145:241|92:252,1,99.00000302124,8|2,1:2|0:2,0:0:0:0:
165,42,111928,6,0,B|156:85|156:85|167:138,1,99.00000302124,0|2,1:2|0:2,0:0:0:0:
212,158,112279,1,0,0:2:0:0:
255,181,112396,1,8,1:2:0:0:
249,359,112631,1,2,0:2:0:0:
229,313,112748,1,8,1:2:0:0:
188,285,112865,1,0,1:2:0:0:
138,290,112982,1,0,1:2:0:0:
94,314,113099,1,2,0:2:0:0:
336,198,113334,2,0,B|283:215|283:215|195:189,1,148.5000045319,4|0,1:2|0:0,0:0:0:0:
282,18,113803,6,0,B|291:61|291:61|280:114,1,99.00000302124,4|2,1:0|0:2,0:0:0:0:
140,64,114271,1,8,1:2:0:0:
164,209,114506,1,2,0:2:0:0:
0,161,114740,1,0,1:2:0:0:
48,153,114857,1,8,1:2:0:0:
96,146,114974,1,2,0:2:0:0:
145,138,115092,1,0,0:0:0:0:
194,133,115209,1,8,1:2:0:0:
259,247,115443,1,2,0:2:0:0:
230,18,115678,6,0,B|221:61|221:61|232:114,1,99.00000302124,4|2,1:0|0:2,0:0:0:0:
372,64,116146,1,8,1:2:0:0:
347,209,116381,1,2,0:2:0:0:
512,161,116615,1,0,1:2:0:0:
464,153,116732,1,8,1:2:0:0:
416,146,116849,1,2,0:2:0:0:
367,138,116967,1,0,0:0:0:0:
318,133,117084,1,8,1:2:0:0:
253,247,117318,1,2,0:2:0:0:
56,276,117553,6,0,B|12:204|56:152|60:152|64:152|120:88|52:0,2,270.0000102997,4|8|0,1:0|1:2|1:2,0:0:0:0:
176,336,118724,1,2,0:2:0:0:
303,289,118959,2,0,P|339:246|493:244,1,202.5000077248,8|0,1:2|0:2,0:0:0:0:
503,157,119428,5,0,1:2:0:0:
369,141,119662,1,2,0:2:0:0:
262,58,119896,1,8,1:2:0:0:
128,42,120130,1,2,0:2:0:0:
12,181,120365,2,0,B|84:137|136:181|136:185|136:189|200:245|288:177,1,270.0000102997,0|8,1:2|1:2,0:0:0:0:
424,336,121303,6,0,B|311:296|311:296|176:333,2,233.999989288331,0|8|0,1:2|1:2|1:2,0:0:0:0:
254,220,122474,1,2,0:2:0:0:
492,161,122709,2,0,B|472:215|472:215|499:281,1,116.9999946442,8|2,1:2|0:0,0:0:0:0:
374,233,123178,6,0,B|353:179|353:179|412:13,1,233.999989288331,0|8,1:2|1:2,0:0:0:0:
270,230,123881,2,0,B|249:176|249:176|308:8,1,233.999989288331,2|2,0:2|0:2,0:0:0:0:
166,227,124584,2,0,B|145:175|145:175|177:74,1,116.999994644165,8|2,1:2|0:2,0:0:0:0:
56,276,125053,6,0,B|12:204|56:152|60:152|64:152|120:88|52:0,2,270.0000102997,4|8|0,1:0|1:2|1:2,0:0:0:0:
176,336,126224,1,2,0:2:0:0:
303,289,126459,2,0,P|339:246|493:244,1,202.5000077248,8|0,1:2|0:2,0:0:0:0:
503,157,126928,5,0,1:2:0:0:
369,141,127162,1,2,0:2:0:0:
262,58,127396,1,8,1:2:0:0:
128,42,127630,1,2,0:2:0:0:
12,181,127865,2,0,B|84:137|136:181|136:185|136:189|200:245|288:177,1,270.0000102997,0|8,1:2|1:2,0:0:0:0:
467,38,128803,6,0,B|507:151|507:151|470:286,2,233.999989288331,0|8|0,1:2|1:2|1:2,0:0:0:0:
321,151,129974,1,2,0:2:0:0:
362,351,130209,2,0,B|416:331|416:331|482:358,1,116.9999946442,8|2,1:2|0:2,0:0:0:0:
263,255,130678,6,0,B|157:221|157:221|45:274,1,233.999989288331,0|8,1:2|1:2,0:0:0:0:
66,161,131381,1,2,0:2:0:0:
209,345,131615,2,0,B|263:365|263:365|329:338,1,116.9999946442,0|2,1:2|0:0,0:0:0:0:
318,152,132084,2,0,B|264:132|264:132|198:159,1,116.9999946442,8|2,1:2|0:0,0:0:0:0:
56,276,132553,6,0,B|12:204|56:152|60:152|64:152|120:88|52:0,2,270.0000102997,4|8|0,1:0|1:2|1:2,0:0:0:0:
176,336,133724,1,2,0:2:0:0:
303,289,133959,2,0,P|339:246|493:244,1,202.5000077248,8|0,1:2|0:2,0:0:0:0:
503,157,134428,5,0,1:2:0:0:
369,141,134662,1,2,0:2:0:0:
262,58,134896,1,8,1:2:0:0:
128,42,135130,1,2,0:2:0:0:
12,181,135365,2,0,B|84:137|136:181|136:185|136:189|200:245|288:177,1,270.0000102997,0|8,1:2|1:2,0:0:0:0:
496,344,136303,6,0,B|388:304|388:304|260:352,1,233.9999892883,0|8,1:2|1:2,0:0:0:0:
110,217,137006,2,0,B|218:257|218:257|346:209,1,233.9999892883,2|2,0:2|0:2,0:0:0:0:
146,350,137709,1,8,1:2:0:0:
218,149,137943,1,2,0:2:0:0:
388,304,138178,5,0,1:2:0:0:
258,44,138412,2,0,B|218:152|218:152|266:280,1,233.9999892883,2|2,0:2|0:2,0:0:0:0:
481,339,139115,1,0,1:2:0:0:
323,376,139349,1,2,0:2:0:0:
426,148,139584,2,0,B|372:127|372:127|308:151,1,116.9999946442,8|2,1:2|0:0,0:0:0:0:
56,276,140053,6,0,B|12:204|56:152|60:152|64:152|120:88|52:0,2,270.0000102997,4|8|0,1:0|1:2|1:2,0:0:0:0:
176,336,141224,1,2,0:2:0:0:
303,289,141459,2,0,P|339:246|493:244,1,202.5000077248,8|0,1:2|0:2,0:0:0:0:
503,157,141928,5,0,1:2:0:0:
369,141,142162,1,2,0:2:0:0:
262,58,142396,1,8,1:2:0:0:
128,42,142630,1,2,0:2:0:0:
12,181,142865,2,0,B|84:137|136:181|136:185|136:189|200:245|288:177,1,270.0000102997,0|8,1:2|1:2,0:0:0:0:
474,350,143803,6,0,L|460:138,1,202.5000077248,0|0,1:0|0:2,0:0:0:0:
375,126,144271,2,0,L|388:328,1,202.5000077248,8|0,1:2|0:2,0:0:0:0:
302,306,144740,2,0,L|289:104,1,202.5000077248,0|0,1:2|0:2,0:0:0:0:
203,82,145209,2,0,L|217:294,1,202.5000077248,8|0,1:2|0:2,0:0:0:0:
43,363,145678,6,0,B|22:309|22:309|46:245,1,116.9999946442,0|2,1:2|0:2,0:0:0:0:
195,118,146146,1,8,1:2:0:0:
209,136,146263,1,0,0:2:0:0:
213,158,146381,1,0,0:2:0:0:
211,180,146498,1,0,0:2:0:0:
200,199,146615,1,0,1:2:0:0:
189,218,146732,1,0,2:2:0:0:
187,240,146849,1,0,2:2:0:0:
191,262,146967,1,0,2:2:0:0:
205,280,147084,2,0,L|219:284,6,11.25,8|0|0|0|0|0|0,1:2|0:2|0:2|0:2|0:2|0:2|0:2,0:0:0:0:
238,290,147553,5,4,1:0:0:0:
127,343,161615,5,0,0:2:0:0:
127,343,162084,1,4,0:2:0:0:
127,343,162553,2,0,P|141:301|133:248,1,90,4|2,0:2|0:2,0:0:0:0:
99,199,163256,1,0,0:2:0:0:
99,199,163490,2,0,L|28:193,2,67.5,0|0|0,0:2|0:2|0:2,0:0:0:0:
179,141,164428,6,0,P|221:127|274:135,1,90,0|2,0:2|0:2,0:0:0:0:
327,171,165131,1,0,0:2:0:0:
327,171,165365,2,0,L|333:242,2,67.5,0|0|0,0:2|0:2|0:2,0:0:0:0:
422,120,166303,6,0,B|403:146|403:146|408:205,1,90,4|2,0:2|0:2,0:0:0:0:
455,252,167006,1,0,0:2:0:0:
390,269,167240,2,0,L|316:262,2,67.5,0|0|0,0:2|0:2|0:2,0:0:0:0:
438,317,168178,2,0,P|465:340|503:345,1,67.5,0|0,0:2|0:2,0:0:0:0:
512,344,168646,1,2,0:2:0:0:
495,272,168881,1,0,0:2:0:0:
478,206,169115,2,0,L|404:199,1,67.5,0|0,0:2|0:2,0:0:0:0:
395,198,169584,2,0,P|381:166|384:128,1,67.5,4|0,0:2|0:2,0:0:0:0:
388,119,170053,5,4,0:2:0:0:
263,66,170521,1,2,0:2:0:0:
209,107,170756,1,0,0:2:0:0:
161,59,170990,2,0,B|135:40|135:40|81:40,2,67.5,0|0|0,0:2|0:2|0:2,0:0:0:0:
209,107,171928,5,4,0:2:0:0:
334,54,172396,1,2,0:2:0:0:
388,95,172631,1,0,0:2:0:0:
436,47,172865,2,0,B|461:28|461:28|516:28,2,67.5,0|0|0,0:2|0:2|0:2,0:0:0:0:
388,95,173803,5,4,1:2:0:0:
388,95,174271,1,0,0:2:0:0:
374,113,174388,1,0,0:2:0:0:
370,135,174506,1,0,0:2:0:0:
372,157,174623,1,0,0:2:0:0:
383,176,174740,1,0,2:2:0:0:
394,195,174857,1,0,2:2:0:0:
396,217,174974,1,0,2:2:0:0:
392,239,175092,1,0,2:2:0:0:
378,257,175209,2,0,L|364:261,6,11.25,0|0|0|0|0|0|0,0:2|0:2|0:2|0:2|0:2|0:2|0:2,0:0:0:0:
297,293,175678,6,0,B|245:313|245:313|145:273,1,116.9999946442,4|0,1:0|0:2,0:0:0:0:
127,261,176029,1,0,0:2:0:0:
127,261,176146,1,8,1:2:0:0:
211,31,176381,5,0,0:2:0:0:
228,72,176498,1,0,0:2:0:0:
245,113,176615,2,0,B|267:169|267:169|247:221,1,116.9999946442,4|0,1:0|0:2,0:0:0:0:
188,172,176967,1,4,0:0:0:0:
188,172,177084,1,4,0:0:0:0:
382,210,177318,1,0,0:2:0:0:
183,359,177553,6,0,B|218:332|218:332|295:333,1,116.9999946442,4|0,1:0|0:2,0:0:0:0:
362,332,177904,2,0,L|388:332,4,22.5,0|0|0|0|4,0:2|0:2|0:2|0:0|0:0,0:0:0:0:
499,104,178373,5,4,1:0:0:0:
499,104,178490,2,0,L|435:117,1,58.49999732208,4|0,1:0|0:2,0:0:0:0:
481,194,178724,2,0,L|417:207,1,58.49999732208,4|0,1:0|0:2,0:0:0:0:
463,284,178959,1,4,0:0:0:0:
28,295,179428,6,0,B|8:243|8:243|48:143,1,116.9999946442,4|0,1:0|0:2,0:0:0:0:
60,125,179779,1,0,0:2:0:0:
60,125,179896,1,8,1:2:0:0:
290,209,180131,5,0,0:2:0:0:
249,226,180248,1,0,0:0:0:0:
208,243,180365,2,0,B|151:265|151:265|99:245,1,116.9999946442,4|0,1:0|0:2,0:0:0:0:
157,186,180717,1,4,1:0:0:0:
157,186,180834,1,4,0:0:0:0:
364,268,181068,1,0,0:2:0:0:
333,43,181303,6,0,L|339:16,4,22.5,4|0|0|0|0,1:0|0:0|0:2|0:2|0:2,0:0:0:0:
359,109,181654,2,0,L|379:127,4,22.5,4|0|0|0|0,1:0|0:0|0:2|0:2|0:2,0:0:0:0:
289,98,182006,2,0,L|262:106,2,22.5,4|0|0,1:0|0:0|0:2,0:0:0:0:
315,164,182240,5,0,2:2:0:0:
326,183,182357,1,0,2:2:0:0:
328,205,182474,1,0,2:2:0:0:
324,227,182592,1,0,2:2:0:0:
310,245,182709,2,0,L|296:249,6,11.25,0|0|0|0|0|0|0,0:2|0:2|0:2|0:2|0:2|0:2|0:2,0:0:0:0:
230,266,183178,5,4,1:0:0:0:
92,176,183412,1,0,0:2:0:0:
102,124,183529,1,0,0:2:0:0:
112,72,183646,1,8,1:2:0:0:
269,128,183881,1,0,0:2:0:0:
259,76,183998,1,0,0:2:0:0:
249,24,184115,1,4,1:0:0:0:
184,208,184349,1,0,0:2:0:0:
174,260,184466,1,4,0:0:0:0:
164,312,184583,1,4,0:0:0:0:
310,242,184818,1,0,0:2:0:0:
458,354,185053,5,4,1:0:0:0:
496,183,185287,2,0,L|486:115,1,58.49999732208,0|0,0:2|0:2,0:0:0:0:
414,76,185521,1,0,0:2:0:0:
414,76,185638,1,4,0:0:0:0:
293,265,185873,5,4,1:0:0:0:
293,265,185990,2,0,L|361:255,1,58.49999732208,4|0,1:0|0:2,0:0:0:0:
204,194,186225,1,0,0:2:0:0:
194,246,186342,1,0,0:2:0:0:
184,298,186459,1,4,0:0:0:0:
446,363,186928,6,0,B|470:329|470:329|470:253,1,116.9999946442,4|0,1:0|0:2,0:0:0:0:
433,217,187279,1,4,0:0:0:0:
380,211,187396,1,8,1:2:0:0:
334,237,187513,1,0,0:2:0:0:
317,287,187631,1,0,0:2:0:0:
165,139,187865,6,0,L|233:129,1,58.49999732208,4|0,1:0|0:2,0:0:0:0:
62,182,188099,1,0,0:2:0:0:
72,130,188216,1,4,1:0:0:0:
82,78,188333,1,4,0:0:0:0:
313,183,188568,1,0,0:2:0:0:
200,252,188803,6,0,L|207:300,1,45,4|0,0:0|0:2,0:0:0:0:
109,375,189271,1,0,0:2:0:0:
127,361,189388,1,0,0:2:0:0:
149,357,189506,1,0,0:2:0:0:
171,359,189623,1,0,0:2:0:0:
190,370,189740,1,0,2:2:0:0:
209,381,189857,1,0,2:2:0:0:
231,383,189974,1,0,2:2:0:0:
253,379,190092,1,0,2:2:0:0:
271,365,190209,2,0,L|275:351,6,11.25,0|0|0|0|0|0|0,0:2|0:2|0:2|0:2|0:2|0:2|0:2,0:0:0:0:
284,333,190678,6,0,P|328:268|466:281,1,198.0000060425,4|8,1:0|1:2,0:0:0:0:
489,347,191381,1,2,0:2:0:0:
334,170,191615,1,0,1:2:0:0:
345,121,191732,1,8,1:2:0:0:
356,72,191849,1,2,0:2:0:0:
495,19,192084,1,8,1:2:0:0:
471,165,192318,1,2,0:2:0:0:
219,77,192553,5,0,1:2:0:0:
334,170,192787,1,2,0:2:0:0:
345,121,192904,1,0,1:2:0:0:
356,72,193021,1,8,1:2:0:0:
197,175,193256,1,2,0:2:0:0:
400,259,193490,1,0,1:2:0:0:
449,248,193607,1,8,1:2:0:0:
498,237,193724,1,2,0:2:0:0:
421,69,193959,2,0,B|408:113|408:113|430:176,1,99.00000302124,8|2,1:2|0:2,0:0:0:0:
473,354,194428,5,0,1:2:0:0:
274,330,194662,2,0,L|222:324,2,49.50000151062,2|0|8,0:2|0:2|1:2,0:0:0:0:
410,271,195131,1,2,0:2:0:0:
243,139,195365,1,0,1:2:0:0:
254,188,195482,1,8,1:2:0:0:
265,237,195599,1,2,0:2:0:0:
366,128,195834,1,8,1:2:0:0:
142,248,196068,1,2,0:2:0:0:
456,287,196303,6,0,L|484:287,3,22.5,0|0|0|0,1:2|0:2|0:2|0:2,0:0:0:0:
505,217,196771,2,0,P|493:197|492:142,1,49.50000151062,8|0,1:2|0:2,0:0:0:0:
389,192,197006,2,0,P|394:169|432:129,1,49.50000151062,8|0,1:2|0:2,0:0:0:0:
369,74,197240,1,0,1:2:0:0:
323,93,197357,1,8,1:2:0:0:
276,111,197474,1,8,1:2:0:0:
229,93,197592,1,8,1:2:0:0:
182,75,197709,2,0,P|187:52|225:12,1,49.50000151062,4|0,1:0|0:2,0:0:0:0:
87,130,197943,2,0,P|81:107|43:67,1,49.50000151062,0|0,1:2|0:2,0:0:0:0:
183,185,198178,5,4,1:0:0:0:
73,314,198412,2,0,L|22:338,2,49.50000151062,2|0|8,0:2|0:2|1:2,0:0:0:0:
240,345,198881,1,2,0:2:0:0:
396,268,199115,1,0,1:2:0:0:
347,257,199232,1,8,1:2:0:0:
298,246,199349,1,2,0:2:0:0:
431,179,199584,1,8,1:2:0:0:
474,346,199818,1,2,0:2:0:0:
216,229,200053,5,0,1:2:0:0:
431,179,200287,1,2,0:2:0:0:
382,190,200404,1,0,1:2:0:0:
333,201,200521,1,8,1:2:0:0:
475,276,200756,1,2,0:2:0:0:
362,107,200990,1,0,1:2:0:0:
373,58,201107,1,8,1:2:0:0:
384,9,201224,1,2,0:2:0:0:
480,168,201459,1,8,1:2:0:0:
284,212,201693,1,2,0:2:0:0:
456,287,201928,6,0,L|484:292,3,22.5,0|0|0|0,1:2|0:2|0:2|0:2,0:0:0:0:
407,355,202396,2,0,L|435:360,3,22.5,8|0|0|0,1:2|0:2|0:2|0:2,0:0:0:0:
372,278,202865,2,0,L|363:219,1,49.50000151062,0|0,1:2|0:2,0:0:0:0:
295,267,203099,2,0,L|286:208,1,49.50000151062,8|0,1:2|0:2,0:0:0:0:
218,256,203334,2,0,L|209:197,1,49.50000151062,8|0,1:2|0:2,0:0:0:0:
141,245,203568,2,0,L|132:186,1,49.50000151062,8|0,1:2|0:2,0:0:0:0:
64,234,203803,5,0,1:2:0:0:
181,135,204037,1,2,0:2:0:0:
170,318,204271,1,8,1:2:0:0:
89,112,204506,1,2,0:2:0:0:
132,135,204623,1,8,1:2:0:0:
181,135,204740,1,0,1:2:0:0:
224,112,204857,1,0,1:2:0:0:
248,70,204974,1,2,0:2:0:0:
476,203,205209,2,0,B|423:220|423:220|299:183,1,148.5000045319,4|0,1:2|0:0,0:0:0:0:
257,170,205678,5,4,1:0:0:0:
272,326,205912,2,0,L|281:385,2,49.50000151062,2|0|8,0:2|0:2|1:2,0:0:0:0:
197,364,206263,6,0,L|149:372,1,49.50000151062,2|0,0:2|0:2,0:0:0:0:
338,269,206498,2,0,L|387:277,1,49.50000151062,2|0,0:2|1:2,0:0:0:0:
285,217,206732,1,8,1:2:0:0:
285,217,206849,1,2,0:2:0:0:
496,149,207084,2,0,B|509:193|509:193|487:256,1,99.00000302124,8|2,1:2|0:2,0:0:0:0:
368,110,207553,5,0,1:2:0:0:
386,276,207787,2,0,L|395:335,2,49.50000151062,2|0|8,0:2|0:2|1:2,0:0:0:0:
233,208,208256,2,0,P|205:211|177:233,1,49.50000151062,2|0,0:2|0:2,0:0:0:0:
136,275,208490,1,0,1:2:0:0:
125,324,208607,1,8,1:2:0:0:
114,373,208724,1,2,0:2:0:0:
38,244,208959,1,8,1:2:0:0:
237,351,209193,1,2,0:2:0:0:
104,160,209428,6,0,L|153:152,1,49.50000151062,4|0,1:0|0:2,0:0:0:0:
351,282,209662,2,0,L|302:274,1,49.50000151062,8|0,1:2|0:2,0:0:0:0:
248,75,209896,1,8,1:2:0:0:
248,75,210013,1,8,1:2:0:0:
126,384,210365,1,0,1:2:0:0:
174,376,210482,1,8,1:2:0:0:
222,369,210599,1,8,1:2:0:0:
271,361,210717,1,8,1:2:0:0:
320,356,210834,1,8,1:2:0:0:
146,250,211068,1,2,0:2:0:0:
372,198,211303,5,0,1:2:0:0:
461,335,211537,2,0,L|452:394,2,49.50000151062,2|0|8,0:2|0:2|1:2,0:0:0:0:
499,130,212006,2,0,P|468:132|429:111,1,49.50000151062,2|8,0:2|1:2,0:0:0:0:
316,30,212240,1,0,1:2:0:0:
348,69,212357,1,8,1:2:0:0:
359,118,212474,1,8,1:2:0:0:
347,167,212592,1,8,1:2:0:0:
315,205,212709,2,0,L|202:210,1,99.00000302124,4|2,1:2|0:2,0:0:0:0:
42,314,213178,6,0,B|86:301|86:301|149:323,1,99.00000302124,4|2,1:0|0:2,0:0:0:0:
182,335,213529,1,0,1:2:0:0:
228,352,213646,1,8,1:2:0:0:
397,309,213881,1,2,0:2:0:0:
211,192,214115,1,0,1:2:0:0:
257,211,214232,1,8,1:2:0:0:
304,229,214349,1,2,0:2:0:0:
351,211,214467,1,0,0:2:0:0:
398,193,214584,1,8,1:2:0:0:
303,102,214818,1,2,0:2:0:0:
470,314,215053,6,0,L|383:289,3,49.50000151062,4|0|0|0,1:0|0:2|0:2|0:2,0:0:0:0:
353,326,215521,1,8,1:2:0:0:
115,309,215756,1,2,0:2:0:0:
301,192,215990,1,0,1:2:0:0:
255,211,216107,1,8,1:2:0:0:
208,229,216224,1,2,0:2:0:0:
161,211,216342,1,0,0:2:0:0:
114,193,216459,1,8,1:2:0:0:
209,102,216693,1,2,0:2:0:0:
472,192,216928,5,4,1:0:0:0:
256,192,217045,12,0,220209,0:2:0:0:
256,192,220443,5,0,0:2:0:0:
256,192,220560,2,0,L|256:168,2,24.75000075531,0|0|0,0:2|0:2|0:2,0:0:0:0:
256,192,220795,12,0,224428,0:2:0:0:
