osu file format v14

[General]
AudioFilename: audio.mp3
AudioLeadIn: 0
PreviewTime: 89896
Countdown: 0
SampleSet: Soft
StackLeniency: 0.7
Mode: 0
LetterboxInBreaks: 0
StoryFireInFront: 0
WidescreenStoryboard: 0

[Editor]
DistanceSpacing: 1
BeatDivisor: 4
GridSize: 4
TimelineZoom: 1

[Metadata]
Title:Fuujin Shoujo (Suigetsu Yamato Remix)
TitleUnicode:風神少女(水月やまと Remix)
Artist:Suigetsu Yamato
ArtistUnicode:水月やまと
Creator:ktgster
Version:Easy
Source:東方花映塚 ~ Phantasmagoria of Flower View.
Tags:touhou project house set of ymto wind god girl
BeatmapID:1376957
BeatmapSetID:647546

[Difficulty]
HPDrainRate:2
CircleSize:2.5
OverallDifficulty:3
ApproachRate:3
SliderMultiplier:1
SliderTickRate:1

[Events]
//Background and Video events
0,0,"Aya.jpg",0,0
//Break Periods
2,147753,160175
//Storyboard Layer 0 (Background)
//Storyboard Layer 1 (Fail)
//Storyboard Layer 2 (Pass)
//Storyboard Layer 3 (Foreground)
//Storyboard Sound Samples

[TimingPoints]
1303,468.75,4,2,1,80,1,0
1771,-100,4,2,1,60,0,0
8803,-100,4,2,1,80,0,0
9271,-100,4,2,1,60,0,0
16303,-100,4,2,1,80,0,0
16771,-100,4,2,1,60,0,0
31537,-100,4,3,1,50,0,0
46303,-100,4,2,1,60,0,0
76303,-100,4,2,1,70,0,0
88490,-100,4,2,1,80,0,0
89896,-100,4,3,1,60,0,0
91303,-100,4,2,1,90,0,1
91771,-100,4,2,1,80,0,1
117084,-100,4,2,1,80,0,0
117553,-100,4,2,1,80,0,1
121303,-100,4,2,1,70,0,0
125053,-100,4,2,1,80,0,1
128803,-100,4,2,1,70,0,0
132553,-100,4,2,1,80,0,1
136303,-100,4,2,1,70,0,0
140053,-100,4,2,1,80,0,1
145678,-100,4,2,1,80,0,0
146146,-100,4,3,1,60,0,0
147553,-125,4,2,1,80,0,0
161615,-100,4,2,1,60,0,0
173803,-100,4,2,1,80,0,0
174271,-100,4,3,1,60,0,0
175678,-100,4,3,1,70,0,0
182240,-100,4,3,1,70,0,0
183178,-100,4,3,1,70,0,0
189271,-100,4,3,1,70,0,0
190678,-100,4,2,1,90,0,1
191146,-100,4,2,1,80,0,1
216928,-100,4,2,1,80,0,0
224428,-100,4,2,1,5,0,0

[Colours]
Combo1 : 255,192,0
Combo2 : 0,242,121
Combo3 : 255,182,108
Combo4 : 255,151,203

[HitObjects]
396,13,1303,6,0,P|279:25|306:173,1,300,4|8,1:0|1:2,0:0:0:0:
399,202,3178,2,0,L|514:193,2,100,0|8|0,1:2|1:2|1:2,0:0:0:0:
325,269,4584,1,8,1:2:0:0:
408,325,5053,2,0,P|374:358|308:368,2,100,0|8|0,1:2|1:2|1:2,0:0:0:0:
325,269,6459,1,8,1:2:0:0:
232,230,6928,2,0,L|109:224,1,100,0|8,1:2|1:2,0:0:0:0:
92,133,7865,2,0,L|215:127,1,100,0|8,1:2|1:2,0:0:0:0:
188,27,8803,6,0,P|305:39|278:187,1,300,4|8,1:0|1:2,0:0:0:0:
185,216,10678,2,0,L|70:207,2,100,0|8|0,1:2|1:2|1:2,0:0:0:0:
259,283,12084,1,8,1:2:0:0:
176,339,12553,2,0,P|210:372|276:382,2,100,0|8|0,1:2|1:2|1:2,0:0:0:0:
259,283,13959,1,8,1:2:0:0:
352,244,14428,2,0,L|475:238,1,100,0|8,1:2|1:2,0:0:0:0:
492,147,15365,2,0,L|369:141,1,100,0|8,1:2|1:2,0:0:0:0:
353,49,16303,6,0,B|261:-27|221:61|141:117|65:37,1,300,4|8,1:0|1:2,0:0:0:0:
19,130,18178,1,0,1:2:0:0:
62,220,18646,1,8,1:2:0:0:
12,307,19115,2,0,P|57:320|117:304,1,100,0|8,1:2|1:2,0:0:0:0:
196,261,20053,1,0,1:2:0:0:
239,171,20521,1,8,1:2:0:0:
189,84,20990,2,0,P|234:71|294:87,1,100,0|8,1:2|1:2,0:0:0:0:
339,166,21928,1,0,1:2:0:0:
294,255,22396,1,8,1:2:0:0:
355,333,22865,2,0,L|458:333,1,100,0|8,1:2|1:2,0:0:0:0:
504,245,23803,5,4,1:0:0:0:
453,51,24740,1,0,1:2:0:0:
252,51,25678,1,0,1:0:0:0:
201,245,26615,1,0,1:2:0:0:
353,116,27553,5,0,1:2:0:0:
155,150,28491,1,0,1:2:0:0:
26,303,29428,1,0,1:2:0:0:
224,337,30366,1,0,1:2:0:0:
422,371,31303,6,0,P|445:328|425:220,1,150,4|2,1:0|0:2,0:0:0:0:
310,143,32709,1,8,0:2:0:0:
210,134,33178,2,0,P|187:177|207:285,1,150,0|2,0:2|0:2,0:0:0:0:
322,361,34584,1,8,0:2:0:0:
414,323,35053,6,0,L|427:155,1,150,0|2,0:2|0:2,0:0:0:0:
319,67,36459,1,8,0:2:0:0:
239,127,36928,2,0,L|226:295,1,150,0|2,0:2|0:2,0:0:0:0:
99,354,38334,1,8,0:2:0:0:
27,283,38803,5,4,0:1:0:0:
75,197,39271,2,0,P|157:147|246:186,1,200,8|8,0:2|0:2,0:0:0:0:
166,256,40678,1,0,0:2:0:0:
236,326,41146,2,0,L|435:305,1,200,8|8,0:2|0:2,0:0:0:0:
475,213,42553,5,0,0:2:0:0:
427,127,43021,2,0,P|345:77|254:116,1,200,8|8,0:2|0:2,0:0:0:0:
336,186,44428,1,0,0:2:0:0:
266,256,44896,2,0,L|204:249,1,50,8|4,0:2|0:0,0:0:0:0:
146,320,45599,2,0,L|84:313,1,50,4|8,0:0|0:2,0:0:0:0:
25,243,46303,6,0,P|15:196|25:141,2,100,4|8|0,1:2|1:2|1:2,0:0:0:0:
112,193,47709,1,8,1:2:0:0:
202,235,48178,2,0,P|212:282|202:337,2,100,0|8|0,1:2|1:2|1:2,0:0:0:0:
193,135,49584,1,8,1:2:0:0:
263,64,50053,6,0,L|373:57,2,100,4|8|0,1:0|1:2|1:2,0:0:0:0:
166,39,51459,1,8,1:2:0:0:
193,135,51928,2,0,L|83:128,2,100,0|8|0,1:2|1:2|1:2,0:0:0:0:
263,205,53334,1,8,1:2:0:0:
334,275,53803,6,0,P|348:325|322:386,1,100,4|8,1:0|1:2,0:0:0:0:
236,384,54740,1,0,1:2:0:0:
150,332,55209,1,8,1:2:0:0:
50,341,55678,2,0,L|57:231,1,100,0|8,1:2|1:2,0:0:0:0:
136,181,56615,1,0,1:2:0:0:
228,218,57084,1,8,1:2:0:0:
302,150,57553,6,0,P|343:175|361:221,1,100,4|8,1:0|1:2,0:0:0:0:
347,320,58490,1,0,1:2:0:0:
256,363,58959,1,8,1:2:0:0:
156,366,59428,2,0,P|114:340|96:294,1,100,0|8,1:2|1:2,0:0:0:0:
111,196,60365,1,0,1:2:0:0:
202,153,60834,1,8,1:2:0:0:
294,190,61303,5,4,1:0:0:0:
492,162,62240,1,0,1:2:0:0:
440,76,62709,1,8,1:2:0:0:
340,71,63178,2,0,P|257:83|132:53,1,200,0|0,1:2|1:2,0:0:0:0:
48,30,64584,1,8,1:2:0:0:
73,128,65053,5,0,1:2:0:0:
17,320,65990,1,0,1:2:0:0:
105,273,66459,1,8,1:2:0:0:
196,313,66928,2,0,P|279:325|404:295,1,200,0|0,1:2|1:2,0:0:0:0:
488,275,68334,1,8,1:2:0:0:
462,371,68803,5,4,1:0:0:0:
324,225,69740,2,0,P|310:180|322:111,1,100,0|8,1:2|1:2,0:0:0:0:
330,29,70678,1,0,1:2:0:0:
235,66,71146,1,8,1:2:0:0:
182,151,71615,2,0,P|163:197|168:256,1,100,0|8,1:2|1:2,0:0:0:0:
221,329,72553,5,0,1:2:0:0:
420,350,73490,2,0,P|434:304|422:235,1,100,0|8,1:2|1:2,0:0:0:0:
367,174,74428,1,0,1:2:0:0:
268,159,74896,1,8,1:2:0:0:
175,197,75365,2,0,L|75:182,1,100,0|8,1:2|1:2,0:0:0:0:
24,267,76303,6,0,P|35:311|80:359,2,100,4|8|0,1:0|1:2|1:2,0:0:0:0:
76,182,77709,1,8,1:2:0:0:
175,197,78178,1,0,1:2:0:0:
268,159,78646,2,0,P|358:120|462:144,1,200,8|8,1:2|1:2,0:0:0:0:
488,234,80053,6,0,L|481:338,1,100,0|8,1:2|1:2,0:0:0:0:
383,353,80990,2,0,L|376:249,1,100,0|8,1:2|1:2,0:0:0:0:
292,197,81928,1,0,1:2:0:0:
202,240,82396,2,0,P|152:251|98:240,2,100,8|0|8,1:2|1:2|1:2,0:0:0:0:
292,197,83803,6,0,P|342:186|396:197,2,100,4|8|0,1:0|1:2|1:2,0:0:0:0:
284,297,85209,1,8,1:2:0:0:
195,343,85678,1,0,1:2:0:0:
96,326,86146,1,8,1:2:0:0:
37,245,86615,2,0,P|-2:155|42:60,1,200,0|4,1:2|1:0,0:0:0:0:
232,30,88490,1,4,1:0:0:0:
298,218,89428,5,4,1:0:0:0:
255,308,89896,2,0,P|306:313|353:337,2,100,0|0|0,0:2|2:2|0:2,0:0:0:0:
156,327,91303,6,0,P|86:320|101:201,1,200,4|0,1:0|1:2,0:0:0:0:
181,188,92709,1,8,1:2:0:0:
270,233,93178,2,0,P|340:226|325:107,1,200,0|0,1:2|1:2,0:0:0:0:
245,94,94584,1,8,1:2:0:0:
148,121,95053,6,0,L|136:322,1,200,0|0,1:2|1:2,0:0:0:0:
226,363,96459,1,8,1:2:0:0:
296,292,96928,2,0,P|330:259|400:253,1,100,0|8,1:2|1:2,0:0:0:0:
380,148,97865,2,0,P|331:138|295:104,1,100,0|4,1:2|1:2,0:0:0:0:
295,4,98803,6,0,P|222:33|201:144,1,200,4|0,1:0|1:2,0:0:0:0:
235,237,100209,1,8,1:2:0:0:
335,236,100678,2,0,P|306:309|195:330,1,200,0|0,1:2|1:2,0:0:0:0:
111,276,102084,1,8,1:2:0:0:
66,186,102553,6,0,L|76:68,1,100,0|8,1:2|1:2,0:0:0:0:
167,124,103490,2,0,L|177:6,1,100,0|8,1:2|1:2,0:0:0:0:
275,24,104428,2,0,P|317:113|292:215,1,200,0|0,1:2|1:2,0:0:0:0:
222,276,105834,1,4,1:2:0:0:
292,346,106303,6,0,L|407:341,1,100,4|8,1:0|1:2,0:0:0:0:
462,270,107240,1,0,1:2:0:0:
391,199,107709,1,8,1:2:0:0:
291,205,108178,2,0,L|176:210,1,100,0|8,1:2|1:2,0:0:0:0:
120,138,109115,1,0,1:2:0:0:
190,67,109584,1,8,1:2:0:0:
289,72,110053,6,0,P|343:83|391:71,1,100,4|8,1:0|1:2,0:0:0:0:
456,143,110990,2,0,L|457:247,1,100,0|8,1:2|1:2,0:0:0:0:
360,217,111928,2,0,L|361:321,1,100,0|8,1:2|1:2,0:0:0:0:
273,365,112865,1,0,1:2:0:0:
187,313,113334,1,4,1:2:0:0:
88,328,113803,6,0,P|50:244|88:139,1,200,4|0,1:0|1:2,0:0:0:0:
167,94,115209,1,8,1:2:0:0:
264,71,115678,2,0,P|302:155|264:260,1,200,4|0,1:0|1:2,0:0:0:0:
185,305,117084,1,8,1:2:0:0:
273,353,117553,6,0,L|472:341,1,200,4|0,1:0|1:2,0:0:0:0:
493,243,118959,1,8,1:2:0:0:
428,166,119428,2,0,P|373:163|320:181,1,100,0|8,1:2|1:2,0:0:0:0:
241,220,120365,2,0,P|193:233|143:229,1,100,0|8,1:2|1:2,0:0:0:0:
68,162,121303,6,0,L|62:58,1,100,0|8,1:2|1:2,0:0:0:0:
160,42,122240,2,0,L|164:115,2,50,0|2|8,1:2|0:2|1:2,0:0:0:0:
258,23,123178,2,0,P|306:62|411:64,2,150,0|2|8,1:2|0:2|1:2,0:0:0:0:
160,42,125053,6,0,L|172:241,1,200,4|0,1:0|1:2,0:0:0:0:
242,312,126459,1,8,1:2:0:0:
328,362,126928,2,0,P|383:365|436:347,1,100,0|8,1:2|1:2,0:0:0:0:
492,277,127865,2,0,P|505:229|501:179,1,100,0|8,1:2|1:2,0:0:0:0:
430,108,128803,6,0,L|326:102,1,100,0|8,1:2|1:2,0:0:0:0:
230,97,129740,2,0,L|156:92,2,50,0|2|8,1:2|0:2|1:2,0:0:0:0:
275,186,130678,2,0,P|289:229|277:298,1,100,0|8,1:2|1:2,0:0:0:0:
208,349,131615,1,0,1:2:0:0:
126,291,132084,1,8,1:2:0:0:
37,336,132553,6,0,L|49:137,1,200,4|0,1:0|1:2,0:0:0:0:
124,70,133959,1,8,1:2:0:0:
210,20,134428,2,0,P|265:17|318:35,1,100,0|8,1:2|1:2,0:0:0:0:
374,105,135365,2,0,P|387:152|383:202,1,100,0|8,1:2|1:2,0:0:0:0:
307,268,136303,6,0,P|260:284|155:249,2,150,0|2|8,1:2|0:2|1:2,0:0:0:0:
382,202,138178,2,0,P|413:199|443:207,1,50,0|2,1:2|0:2,0:0:0:0:
501,131,138881,2,0,P|498:99|506:69,1,50,2|0,0:2|1:2,0:0:0:0:
416,29,139584,1,8,1:2:0:0:
326,73,140053,6,0,L|314:272,1,200,4|0,1:0|1:2,0:0:0:0:
239,339,141459,1,8,1:2:0:0:
168,268,141928,2,0,P|165:213|183:160,1,100,0|8,1:2|1:2,0:0:0:0:
253,104,142865,2,0,P|300:91|350:95,1,100,0|8,1:2|1:2,0:0:0:0:
437,144,143803,5,0,1:0:0:0:
458,241,144271,1,8,1:2:0:0:
408,328,144740,2,0,P|374:350|300:346,1,100,0|8,1:2|1:2,0:0:0:0:
221,320,145678,1,0,1:2:0:0:
177,230,146146,2,0,P|182:179|206:132,2,100,8|0|8,1:2|1:2|1:2,0:0:0:0:
122,314,147553,5,4,1:0:0:0:
75,317,161615,6,0,L|178:309,1,100,0|4,0:2|0:2,0:0:0:0:
273,295,162553,2,0,P|277:238|76:212,1,300,4|0,0:2|0:0,0:0:0:0:
39,105,164428,2,0,P|182:56|323:118,1,300,0|0,0:2|0:0,0:0:0:0:
325,208,166303,6,0,L|25:235,1,300,4|0,0:2|0:0,0:0:0:0:
26,334,168178,2,0,L|326:361,1,300,0|4,0:2|0:2,0:0:0:0:
424,372,170053,6,0,P|444:335|425:169,1,200,4|0,0:2|0:2,0:0:0:0:
349,128,171459,1,0,0:2:0:0:
278,198,171928,2,0,P|241:218|75:199,1,200,4|0,0:2|0:2,0:0:0:0:
34,123,173334,1,0,0:2:0:0:
103,51,173803,1,4,1:2:0:0:
202,51,174271,2,0,P|253:46|300:22,2,100,0|0|0,0:2|2:2|0:2,0:0:0:0:
152,136,175678,6,0,B|126:176|126:176|139:238,1,100,4|8,1:0|1:2,0:0:0:0:
226,272,176615,2,0,B|236:323|236:323|210:363,1,100,4|0,1:0|1:2,0:0:0:0:
110,372,177553,2,0,B|35:351|35:351|20:238,1,175,4|4,1:0|1:0,0:0:0:0:
175,87,179428,6,0,B|215:113|215:113|277:100,1,100,4|8,1:0|1:2,0:0:0:0:
311,13,180365,2,0,B|362:2|362:2|402:28,1,100,4|0,1:0|1:2,0:0:0:0:
485,84,181303,1,4,1:0:0:0:
349,231,182240,2,0,P|298:226|251:202,1,100,0|0,2:2|0:2,0:0:0:0:
185,132,183178,5,4,1:0:0:0:
98,182,183646,1,8,1:2:0:0:
88,281,184115,1,4,1:0:0:0:
143,364,184584,1,4,0:0:0:0:
242,377,185053,2,0,B|330:360|330:360|417:371,1,175,4|4,1:0|1:0,0:0:0:0:
478,146,186928,6,0,B|438:172|438:172|376:159,1,100,4|8,1:0|1:2,0:0:0:0:
325,82,187865,2,0,B|273:71|273:71|233:97,1,100,4|0,1:0|1:2,0:0:0:0:
154,158,188803,1,4,0:0:0:0:
224,228,189271,2,0,P|219:279|195:326,2,100,0|0|0,0:2|2:2|0:2,0:0:0:0:
154,158,190678,6,0,P|70:148|21:246,1,200,4|0,1:0|1:2,0:0:0:0:
69,325,192084,1,8,1:2:0:0:
167,306,192553,2,0,L|161:241,2,50,0|2|8,1:0|0:0|1:2,0:0:0:0:
264,285,193490,2,0,L|271:174,1,100,0|8,1:2|1:2,0:0:0:0:
343,117,194428,6,0,P|372:122|420:182,1,100,0|8,1:2|1:2,0:0:0:0:
465,259,195365,1,0,1:2:0:0:
403,337,195834,1,8,1:2:0:0:
303,329,196303,2,0,L|194:319,1,100,0|8,1:2|1:2,0:0:0:0:
134,247,197240,1,0,1:2:0:0:
203,174,197709,1,4,1:0:0:0:
132,103,198178,6,0,P|190:73|240:80,1,100,4|8,1:0|1:2,0:0:0:0:
297,142,199115,1,0,1:2:0:0:
278,240,199584,1,8,1:2:0:0:
345,313,200053,2,0,L|339:377,2,50,0|2|8,1:0|0:0|1:2,0:0:0:0:
444,308,200990,2,0,P|451:251|437:200,1,100,0|8,1:2|1:2,0:0:0:0:
395,121,201928,6,0,P|431:84|495:70,2,100,0|8|0,1:2|1:2|1:2,0:0:0:0:
341,205,203334,1,8,1:2:0:0:
241,199,203803,2,0,L|131:192,1,100,0|8,1:2|1:2,0:0:0:0:
70,263,204740,1,0,1:2:0:0:
121,348,205209,1,4,1:2:0:0:
218,371,205678,6,0,P|266:368|311:345,1,100,4|8,1:0|1:2,0:0:0:0:
373,266,206615,1,0,1:2:0:0:
302,195,207084,1,8,1:2:0:0:
203,208,207553,2,0,P|155:205|110:182,1,100,0|8,1:0|1:2,0:0:0:0:
48,103,208490,1,0,1:2:0:0:
119,32,208959,1,8,1:2:0:0:
208,77,209428,6,0,L|258:85,2,50,4|8|8,1:0|1:2|1:2,0:0:0:0:
124,132,210365,2,0,P|105:179|106:240,1,100,0|8,1:2|1:2,0:0:0:0:
174,298,211303,2,0,P|223:296|269:277,1,100,0|8,1:2|1:2,0:0:0:0:
324,193,212240,2,0,L|334:137,2,50,0|8|4,1:2|1:2|1:2,0:0:0:0:
369,281,213178,6,0,L|467:263,1,100,4|8,1:0|1:2,0:0:0:0:
501,168,214115,1,0,1:2:0:0:
430,97,214584,1,8,1:2:0:0:
337,135,215053,2,0,L|347:191,2,50,4|0|8,1:0|0:2|1:2,0:0:0:0:
266,64,215990,1,0,1:2:0:0:
178,112,216459,1,8,1:2:0:0:
107,41,216928,5,4,1:0:0:0:
256,192,217162,12,0,224428,0:2:0:0:
