osu file format v14

[General]
AudioFilename: audio.mp3
AudioLeadIn: 0
PreviewTime: 89896
Countdown: 0
SampleSet: Soft
StackLeniency: 0.7
Mode: 0
LetterboxInBreaks: 0
StoryFireInFront: 0
WidescreenStoryboard: 0

[Editor]
DistanceSpacing: 1
BeatDivisor: 4
GridSize: 4
TimelineZoom: 1

[Metadata]
Title:Fuujin Shoujo (Suigetsu Yamato Remix)
TitleUnicode:風神少女(水月やまと Remix)
Artist:Suigetsu Yamato
ArtistUnicode:水月やまと
Creator:ktgster
Version:Normal
Source:東方花映塚 ~ Phantasmagoria of Flower View.
Tags:touhou project house set of ymto wind god girl
BeatmapID:1376542
BeatmapSetID:647546

[Difficulty]
HPDrainRate:3
CircleSize:3
OverallDifficulty:4.5
ApproachRate:5
SliderMultiplier:1.2
SliderTickRate:1

[Events]
//Background and Video events
0,0,"Aya.jpg",0,0
//Break Periods
2,147753,160415
//Storyboard Layer 0 (Background)
//Storyboard Layer 1 (Fail)
//Storyboard Layer 2 (Pass)
//Storyboard Layer 3 (Foreground)
//Storyboard Sound Samples

[TimingPoints]
1303,468.75,4,2,1,80,1,0
1771,-100,4,2,1,60,0,0
8803,-100,4,2,1,80,0,0
9271,-100,4,2,1,60,0,0
16303,-100,4,2,1,80,0,0
16771,-100,4,2,1,60,0,0
31537,-100,4,3,1,50,0,0
46303,-100,4,2,1,60,0,0
76303,-100,4,2,1,70,0,0
88490,-100,4,2,1,80,0,0
89896,-100,4,3,1,60,0,0
91303,-100,4,2,1,90,0,1
91771,-100,4,2,1,80,0,1
117084,-100,4,2,1,80,0,0
117553,-100,4,2,1,80,0,1
121303,-100,4,2,1,70,0,0
125053,-100,4,2,1,80,0,1
128803,-100,4,2,1,70,0,0
132553,-100,4,2,1,80,0,1
136303,-100,4,2,1,70,0,0
140053,-100,4,2,1,80,0,1
145678,-100,4,2,1,80,0,0
146146,-100,4,3,1,60,0,0
147553,-125,4,2,1,80,0,0
161615,-100,4,2,1,60,0,0
173803,-100,4,2,1,80,0,0
174271,-100,4,3,1,60,0,0
175678,-100,4,3,1,70,0,0
182240,-100,4,3,1,70,0,0
183178,-100,4,3,1,70,0,0
189271,-100,4,3,1,70,0,0
190678,-100,4,2,1,90,0,1
191146,-100,4,2,1,80,0,1
196303,-100,4,2,1,80,0,1
196771,-100,4,2,1,80,0,1
201928,-100,4,2,1,80,0,1
202865,-100,4,2,1,80,0,1
216928,-100,4,2,1,80,0,0
224428,-100,4,2,1,5,0,0

[Colours]
Combo1 : 255,192,0
Combo2 : 0,242,121
Combo3 : 255,182,108
Combo4 : 255,151,203

[HitObjects]
45,58,1303,6,0,P|105:64|130:123,1,120,4|8,1:0|1:2,0:0:0:0:
136,232,2240,1,0,1:2:0:0:
206,329,2709,1,8,1:2:0:0:
264,341,2943,1,2,0:2:0:0:
323,352,3178,2,0,L|443:340,1,120,0|8,1:2|1:2,0:0:0:0:
442,219,4115,2,0,L|322:207,1,120,0|8,1:2|1:2,0:0:0:0:
202,195,5053,6,0,L|82:183,1,120,0|8,1:2|1:2,0:0:0:0:
83,62,5990,2,0,L|203:50,1,120,0|8,1:2|1:2,0:0:0:0:
322,40,6928,2,0,L|334:160,1,120,0|8,1:2|1:2,0:0:0:0:
447,197,7865,2,0,L|435:317,1,120,0|8,1:2|1:2,0:0:0:0:
381,343,8568,1,2,0:2:0:0:
322,358,8803,6,0,P|262:352|237:293,1,120,4|8,1:0|1:2,0:0:0:0:
231,184,9740,1,0,1:2:0:0:
161,87,10209,1,8,1:2:0:0:
104,68,10443,1,2,0:2:0:0:
45,54,10678,2,0,L|57:174,1,120,0|8,1:2|1:2,0:0:0:0:
172,205,11615,2,0,L|184:325,1,120,0|8,1:2|1:2,0:0:0:0:
304,324,12553,6,0,L|316:204,1,120,0|8,1:2|1:2,0:0:0:0:
431,173,13490,2,0,L|443:53,1,120,0|8,1:2|1:2,0:0:0:0:
334,0,14428,2,0,L|214:12,1,120,0|8,1:2|1:2,0:0:0:0:
183,127,15365,2,0,L|63:139,1,120,0|8,1:2|1:2,0:0:0:0:
21,181,16068,1,2,0:2:0:0:
13,240,16303,6,0,P|22:294|75:344,1,120,4|8,1:0|1:2,0:0:0:0:
184,359,17240,1,0,1:2:0:0:
302,337,17709,1,8,1:2:0:0:
351,303,17943,1,2,0:2:0:0:
402,271,18178,6,0,L|414:151,1,120,0|8,1:2|1:2,0:0:0:0:
297,180,19115,2,0,L|285:60,1,120,0|8,1:2|1:2,0:0:0:0:
164,60,20053,6,0,L|152:180,1,120,0|8,1:2|1:2,0:0:0:0:
36,145,20990,2,0,L|48:265,1,120,0|8,1:2|1:2,0:0:0:0:
132,349,21928,2,0,P|167:326|266:324,1,120,0|8,1:2|1:2,0:0:0:0:
358,351,22865,2,0,P|417:348|469:319,1,120,0|8,1:2|1:2,0:0:0:0:
488,200,23803,5,4,1:0:0:0:
389,131,24271,2,0,P|369:87|387:15,2,120,8|0|8,1:2|1:2|1:2,0:0:0:0:
290,199,25678,1,0,1:0:0:0:
191,268,26146,2,0,P|171:312|189:384,2,120,8|0|8,1:2|1:2|1:2,0:0:0:0:
105,182,27553,5,0,1:2:0:0:
190,97,28021,2,0,P|139:66|57:74,2,120,8|0|8,1:2|1:2|1:2,0:0:0:0:
277,179,29428,1,0,1:2:0:0:
192,264,29896,2,0,P|243:295|325:287,2,120,8|0|8,1:2|1:2|1:2,0:0:0:0:
277,179,31303,6,0,L|399:166,1,120,4|8,1:0|0:2,0:0:0:0:
456,163,32006,2,0,P|474:218|455:302,1,120,2|2,0:2|0:2,0:0:0:0:
437,331,32709,1,8,0:2:0:0:
319,354,33178,2,0,L|197:367,1,120,0|8,0:2|0:2,0:0:0:0:
140,370,33881,2,0,P|122:315|141:231,1,120,2|2,0:2|0:2,0:0:0:0:
159,202,34584,1,8,0:2:0:0:
267,149,35053,6,0,P|308:110|322:23,1,120,0|8,0:2|0:2,0:0:0:0:
385,50,35756,2,0,P|400:107|443:148,1,120,2|2,0:2|0:2,0:0:0:0:
501,162,36459,1,8,0:2:0:0:
415,245,36928,2,0,P|374:284|360:371,1,120,0|8,0:2|0:2,0:0:0:0:
297,344,37631,2,0,P|281:286|238:245,1,120,2|2,0:2|0:2,0:0:0:0:
181,232,38334,1,8,0:2:0:0:
71,280,38803,6,0,L|62:362,2,60,4|2|8,0:1|0:2|0:2,0:0:0:0:
28,237,39506,2,0,P|22:184|50:124,1,120,2|2,3:2|0:2,0:0:0:0:
95,86,40209,1,8,0:2:0:0:
211,56,40678,2,0,L|293:47,2,60,0|2|8,0:2|0:2|0:2,0:0:0:0:
178,106,41381,2,0,P|172:159|200:219,1,120,2|2,3:2|0:2,0:0:0:0:
248,253,42084,1,8,0:2:0:0:
367,261,42553,6,0,L|449:252,1,60,0|2,0:2|0:2,0:0:0:0:
469,212,43021,1,8,0:2:0:0:
496,158,43256,2,0,P|468:107|395:94,1,120,2|2,3:2|0:2,0:0:0:0:
355,111,43959,1,8,0:2:0:0:
250,170,44428,2,0,L|168:161,1,60,0|2,0:2|0:2,0:0:0:0:
148,121,44896,1,8,0:2:0:0:
121,67,45131,2,0,P|149:16|222:3,1,120,4|4,0:0|0:0,0:0:0:0:
262,20,45834,2,0,L|268:86,1,60,8|4,0:2|0:0,0:0:0:0:
273,139,46303,5,4,1:2:0:0:
155,115,46771,1,8,1:2:0:0:
107,225,47240,1,0,1:2:0:0:
64,267,47474,2,0,L|-15:252,2,60,2|8|2,0:2|1:2|0:2,0:0:0:0:
104,311,48178,1,0,1:2:0:0:
210,257,48646,1,8,1:2:0:0:
327,282,49115,1,0,1:2:0:0:
369,325,49349,2,0,L|354:404,2,60,2|8|2,0:2|1:2|0:2,0:0:0:0:
413,285,50053,5,4,1:0:0:0:
345,185,50521,1,8,1:2:0:0:
232,226,50990,1,0,1:2:0:0:
189,184,51224,2,0,L|110:199,2,60,2|8|2,0:2|1:2|0:2,0:0:0:0:
229,140,51928,1,0,1:2:0:0:
332,80,52396,1,8,1:2:0:0:
422,159,52865,1,0,1:2:0:0:
464,202,53099,2,0,L|449:281,2,60,2|8|2,0:2|1:2|0:2,0:0:0:0:
508,162,53803,5,4,1:0:0:0:
451,56,54271,1,8,1:2:0:0:
331,49,54740,1,0,1:2:0:0:
282,84,54974,1,2,0:2:0:0:
224,102,55209,2,0,P|195:111|149:102,1,60,8|2,1:2|0:2,0:0:0:0:
105,106,55678,1,0,1:2:0:0:
162,212,56146,1,8,1:2:0:0:
282,219,56615,1,0,1:2:0:0:
331,184,56849,1,2,0:2:0:0:
389,166,57084,2,0,P|418:157|464:166,1,60,8|2,1:2|0:2,0:0:0:0:
496,194,57553,6,0,L|492:326,1,120,4|8,1:0|1:2,0:0:0:0:
385,369,58490,1,0,1:2:0:0:
335,336,58724,1,2,0:2:0:0:
277,318,58959,2,0,P|240:315|203:321,1,60,8|2,1:2|0:2,0:0:0:0:
162,341,59428,6,0,L|166:209,1,120,0|8,1:2|1:2,0:0:0:0:
273,166,60365,1,0,1:2:0:0:
323,199,60599,1,2,0:2:0:0:
381,217,60834,2,0,P|418:220|455:214,1,60,8|2,1:2|0:2,0:0:0:0:
495,193,61303,6,0,P|507:137|483:66,1,120,4|8,1:0|1:2,0:0:0:0:
376,46,62240,2,0,L|236:55,1,120,0|8,1:2|1:2,0:0:0:0:
200,75,62943,1,2,0:2:0:0:
157,117,63178,2,0,L|144:241,1,120,0|8,1:2|1:2,0:0:0:0:
40,296,64115,1,0,1:2:0:0:
40,296,64584,1,8,1:2:0:0:
137,367,65053,6,0,P|193:379|264:355,1,120,0|8,1:2|1:2,0:0:0:0:
338,278,65990,2,0,L|329:138,1,120,0|8,1:2|1:2,0:0:0:0:
306,103,66693,1,2,0:2:0:0:
259,64,66928,2,0,P|195:68|153:127,1,120,0|8,1:2|1:2,0:0:0:0:
127,226,67865,1,0,1:2:0:0:
127,226,68334,1,8,1:2:0:0:
214,308,68803,6,0,L|355:319,1,120,4|8,1:0|1:2,0:0:0:0:
390,297,69506,1,2,0:2:0:0:
438,261,69740,2,0,P|455:207|430:128,1,120,0|8,1:2|1:2,0:0:0:0:
402,101,70443,1,2,0:2:0:0:
345,80,70678,1,0,1:2:0:0:
238,134,71146,1,8,1:2:0:0:
150,51,71615,1,0,1:2:0:0:
150,51,72084,1,8,1:2:0:0:
55,124,72553,6,0,L|44:265,1,120,0|8,1:2|1:2,0:0:0:0:
66,300,73256,1,2,0:2:0:0:
102,348,73490,2,0,P|156:365|235:340,1,120,0|8,1:2|1:2,0:0:0:0:
262,312,74193,1,2,0:2:0:0:
283,255,74428,1,0,1:2:0:0:
229,148,74896,1,8,1:2:0:0:
312,60,75365,1,0,1:2:0:0:
312,60,75834,2,0,L|395:46,1,60,8|2,1:2|0:2,0:0:0:0:
421,83,76303,6,0,P|474:108|525:98,2,90,4|0|2,1:0|0:0|0:2,0:0:0:0:
378,125,77240,2,0,P|325:150|274:140,2,90,0|0|2,1:2|0:0|0:2,0:0:0:0:
413,173,78178,1,0,1:2:0:0:
339,267,78646,1,8,1:2:0:0:
405,367,79115,2,0,L|523:356,2,90,0|0|2,1:2|0:0|0:2,0:0:0:0:
345,377,80053,6,0,P|286:367|241:319,1,120,0|8,1:2|1:2,0:0:0:0:
220,270,80756,1,2,0:2:0:0:
237,212,80990,1,0,1:2:0:0:
350,171,81459,1,8,1:2:0:0:
367,113,81693,1,2,0:2:0:0:
343,57,81928,2,0,P|300:15|242:6,1,120,0|8,1:2|1:2,0:0:0:0:
130,48,82865,1,0,1:2:0:0:
130,48,83334,1,8,1:2:0:0:
87,160,83803,6,0,P|34:185|-17:175,2,90,4|0|2,1:0|0:0|0:2,0:0:0:0:
122,208,84740,2,0,P|97:261|107:312,2,90,0|0|2,1:2|0:0|0:2,0:0:0:0:
181,196,85678,1,0,1:2:0:0:
280,262,86146,1,8,1:2:0:0:
393,222,86615,2,0,L|404:340,2,90,0|0|2,1:2|0:0|0:2,0:0:0:0:
435,179,87553,5,4,1:0:0:0:
364,82,88021,1,8,1:2:0:0:
304,75,88256,1,2,0:2:0:0:
244,68,88490,2,0,L|113:91,2,120,4|8|4,1:0|1:2|1:0,0:0:0:0:
337,143,89896,6,0,P|376:155|475:148,2,120,0|0|0,0:2|2:2|0:2,0:0:0:0:
234,205,91303,6,0,P|195:193|96:200,1,120,4|8,1:0|1:2,0:0:0:0:
19,265,92240,2,0,L|12:375,2,90,0|0|2,1:2|0:0|0:2,0:0:0:0:
26,205,93178,6,0,P|38:166|31:67,1,120,0|8,1:2|1:2,0:0:0:0:
155,102,94115,2,0,L|162:212,2,90,0|0|2,1:2|0:0|0:2,0:0:0:0:
197,59,95053,6,0,P|236:47|335:54,1,120,0|8,1:2|1:2,0:0:0:0:
399,133,95990,2,0,L|406:243,2,90,0|0|2,1:2|0:0|0:2,0:0:0:0:
339,125,96928,6,0,P|301:159|286:242,1,120,0|8,1:2|1:2,0:0:0:0:
276,283,97631,1,2,0:2:0:0:
298,338,97865,1,0,1:2:0:0:
414,365,98334,1,4,1:2:0:0:
480,265,98803,6,0,P|492:226|485:127,1,120,4|8,1:0|1:2,0:0:0:0:
385,89,99740,2,0,P|374:45|392:-21,2,90,0|0|2,1:2|0:0|0:2,0:0:0:0:
342,131,100678,2,0,P|303:143|204:136,1,120,0|8,1:2|1:2,0:0:0:0:
108,109,101615,2,0,P|64:98|-2:116,2,90,0|0|2,1:2|0:0|0:2,0:0:0:0:
129,165,102553,6,0,L|134:297,1,120,0|8,1:2|1:2,0:0:0:0:
176,327,103256,1,2,0:2:0:0:
232,346,103490,2,0,P|264:349|302:344,1,60,0|2,1:2|0:2,0:0:0:0:
341,312,103959,2,0,P|370:309|400:312,1,60,8|2,1:2|0:2,0:0:0:0:
455,337,104428,6,0,L|460:205,1,120,0|8,1:2|1:2,0:0:0:0:
422,170,105131,1,2,0:2:0:0:
362,170,105365,1,0,1:2:0:0:
256,227,105834,1,4,1:2:0:0:
197,331,106303,6,0,P|158:343|59:336,1,120,4|8,1:0|1:2,0:0:0:0:
32,304,107006,1,2,0:2:0:0:
13,246,107240,2,0,L|10:152,2,90,0|0|2,1:2|0:0|0:2,0:0:0:0:
71,259,108178,2,0,P|110:271|209:264,1,120,0|8,1:2|1:2,0:0:0:0:
236,232,108881,1,2,0:2:0:0:
255,174,109115,2,0,L|258:80,2,90,0|0|2,1:2|0:0|0:2,0:0:0:0:
297,216,110053,5,4,1:0:0:0:
404,163,110521,1,8,1:2:0:0:
430,217,110756,1,2,0:2:0:0:
419,275,110990,2,0,P|450:304|502:320,2,90,0|0|2,1:2|0:0|0:2,0:0:0:0:
370,310,111928,2,0,P|339:339|287:355,2,90,0|0|2,1:2|0:2|0:2,0:0:0:0:
364,250,112865,1,0,1:2:0:0:
277,166,113334,1,4,1:2:0:0:
160,193,113803,6,0,P|98:200|31:159,1,120,4|8,1:0|1:2,0:0:0:0:
20,121,114506,1,2,0:2:0:0:
27,61,114740,2,0,P|89:54|156:95,1,120,0|8,1:0|1:2,0:0:0:0:
186,116,115443,1,2,0:2:0:0:
231,155,115678,6,0,P|293:162|360:121,1,120,4|8,1:0|1:2,0:0:0:0:
371,83,116381,1,2,0:2:0:0:
364,23,116615,2,0,P|302:16|235:57,1,120,0|8,1:0|1:2,0:0:0:0:
202,75,117318,1,2,0:2:0:0:
149,104,117553,6,0,B|117:124|97:104|73:80|21:108,2,120,4|8|0,1:0|1:2|1:2,0:0:0:0:
252,40,118959,1,8,1:2:0:0:
370,57,119428,1,0,1:2:0:0:
446,148,119896,1,8,1:2:0:0:
457,267,120365,2,0,P|451:318|375:354,1,120,0|8,1:2|1:2,0:0:0:0:
277,351,121303,6,0,L|129:344,2,120,0|8|0,1:2|1:2|1:2,0:0:0:0:
319,308,122474,1,2,0:2:0:0:
361,265,122709,1,8,1:2:0:0:
467,209,123178,2,0,P|430:167|347:145,1,120,0|8,1:2|1:2,0:0:0:0:
311,148,123881,2,0,P|255:127|215:83,1,120,2|2,0:2|0:2,0:0:0:0:
202,24,124584,1,8,1:2:0:0:
105,94,125053,6,0,B|85:126|105:146|129:170|101:222,2,120,4|8|0,1:0|1:2|1:2,0:0:0:0:
200,20,126459,1,8,1:2:0:0:
318,37,126928,1,0,1:2:0:0:
394,128,127396,1,8,1:2:0:0:
405,247,127865,2,0,P|399:298|323:334,1,120,0|8,1:2|1:2,0:0:0:0:
225,337,128803,5,0,1:2:0:0:
201,219,129271,2,0,L|185:95,1,120,8|0,1:2|1:2,0:0:0:0:
228,57,129974,1,2,0:2:0:0:
284,78,130209,1,8,1:2:0:0:
336,186,130678,6,0,P|350:224|432:256,1,120,0|8,1:2|1:2,0:0:0:0:
477,263,131381,1,2,0:2:0:0:
484,203,131615,2,0,L|488:127,1,60,0|2,1:2|0:0,0:0:0:0:
492,83,132084,1,8,1:2:0:0:
386,26,132553,6,0,B|354:6|334:26|310:50|258:22,2,120,4|8|0,1:0|1:2|1:2,0:0:0:0:
492,83,133959,1,8,1:2:0:0:
475,201,134428,1,0,1:2:0:0:
384,277,134896,1,8,1:2:0:0:
265,288,135365,2,0,P|214:282|178:206,1,120,0|8,1:2|1:2,0:0:0:0:
187,108,136303,6,0,L|326:118,1,120,0|8,1:2|1:2,0:0:0:0:
349,159,137006,2,0,L|488:169,1,120,2|2,0:2|0:2,0:0:0:0:
493,222,137709,2,0,P|479:253|437:287,1,60,8|2,1:2|0:2,0:0:0:0:
364,342,138412,6,0,L|225:332,1,120,2|2,0:2|0:2,0:0:0:0:
201,290,139115,1,0,1:2:0:0:
221,233,139349,1,2,0:2:0:0:
177,189,139584,1,8,1:2:0:0:
237,85,140053,6,0,B|269:65|289:85|313:109|365:81,2,120,4|8|0,1:0|1:2|1:2,0:0:0:0:
131,142,141459,1,8,1:2:0:0:
118,261,141928,1,0,1:2:0:0:
186,359,142396,1,8,1:2:0:0:
304,379,142865,2,0,P|355:373|391:297,1,120,0|8,1:2|1:2,0:0:0:0:
410,200,143803,5,0,1:0:0:0:
291,180,144271,1,8,1:2:0:0:
172,160,144740,1,0,1:2:0:0:
53,140,145209,1,8,1:2:0:0:
133,50,145678,5,0,1:2:0:0:
133,50,146146,2,0,P|145:89|138:188,2,120,8|0|8,1:2|1:2|1:2,0:0:0:0:
41,19,147553,1,4,1:0:0:0:
36,367,161615,5,0,0:2:0:0:
36,367,162084,1,4,0:2:0:0:
136,301,162553,2,0,P|150:213|114:132,1,180,4|0,0:2|0:2,0:0:0:0:
60,104,163490,2,0,P|39:66|46:12,2,90,0|0|0,0:2|0:2|0:2,0:0:0:0:
114,132,164428,2,0,P|187:147|288:104,1,180,0|0,0:2|0:2,0:0:0:0:
328,69,165365,2,0,P|360:57|418:65,2,90,0|0|0,0:2|0:2|0:2,0:0:0:0:
282,109,166303,5,4,0:2:0:0:
439,197,167006,1,0,0:2:0:0:
466,250,167240,2,0,L|477:341,2,90,0|0|0,0:2|0:2|0:2,0:0:0:0:
406,246,168178,2,0,L|371:331,2,90,0|0|0,0:2|0:2|0:2,0:0:0:0:
353,211,169115,2,0,P|301:248|228:269,1,120,0|4,0:2|0:2,0:0:0:0:
128,265,170053,6,0,P|68:221|139:170,1,180,4|0,0:2|0:2,0:0:0:0:
189,167,170990,2,0,P|201:135|193:77,2,90,0|0|0,0:2|0:2|0:2,0:0:0:0:
228,212,171928,2,0,P|296:241|304:154,1,180,4|0,0:2|0:2,0:0:0:0:
269,118,172865,2,0,P|242:96|220:42,2,90,0|0|0,0:2|0:2|0:2,0:0:0:0:
331,105,173803,5,4,1:2:0:0:
331,105,174271,2,0,P|370:117|469:110,2,120,0|0|0,0:2|2:2|0:2,0:0:0:0:
239,26,175678,6,0,B|252:68|252:68|225:146,1,120,4|8,1:0|1:2,0:0:0:0:
169,156,176381,1,0,0:2:0:0:
109,165,176615,2,0,B|96:207|96:207|123:285,1,120,4|4,1:0|0:0,0:0:0:0:
216,351,177553,2,0,B|285:319|285:319|370:338,1,150,4|4,1:0|0:0,0:0:0:0:
415,352,178373,2,0,L|420:261,1,90,4|4,1:0|1:0,0:0:0:0:
422,202,178959,1,4,0:0:0:0:
422,81,179428,6,0,B|380:68|380:68|302:95,1,120,4|8,1:0|1:2,0:0:0:0:
292,151,180131,1,0,0:2:0:0:
283,211,180365,2,0,B|241:224|241:224|163:197,1,120,4|4,1:0|0:0,0:0:0:0:
90,107,181303,2,0,L|85:16,2,90,4|4|4,1:0|1:0|1:0,0:0:0:0:
47,149,182240,2,0,P|59:188|52:287,1,120,0|0,2:2|0:2,0:0:0:0:
11,377,183178,5,4,1:0:0:0:
129,359,183646,1,8,1:2:0:0:
247,341,184115,1,4,1:0:0:0:
365,323,184584,1,4,0:0:0:0:
483,305,185053,2,0,B|507:238|507:238|472:149,1,150,4|4,1:0|0:0,0:0:0:0:
423,139,185873,2,0,L|311:149,1,90,4|0,1:0|0:2,0:0:0:0:
273,153,186459,1,4,0:0:0:0:
190,240,186928,6,0,B|204:295|204:295|176:360,1,120,4|8,1:0|1:2,0:0:0:0:
125,381,187631,1,0,0:2:0:0:
66,360,187865,2,0,B|52:305|52:305|80:240,1,120,4|4,1:0|0:0,0:0:0:0:
120,134,188803,1,4,0:0:0:0:
230,170,189271,6,0,P|269:182|368:175,2,120,0|0|0,0:2|2:2|0:2,0:0:0:0:
203,55,190678,6,0,P|151:84|117:146,1,120,4|8,1:0|1:2,0:0:0:0:
111,194,191381,1,2,0:2:0:0:
120,253,191615,2,0,L|133:342,2,90,0|0|2,1:2|0:0|0:2,0:0:0:0:
167,216,192553,1,0,1:2:0:0:
253,299,193021,1,8,1:2:0:0:
311,285,193256,1,2,0:2:0:0:
353,327,193490,2,0,P|399:336|447:327,2,90,0|0|2,1:2|0:0|0:2,0:0:0:0:
311,285,194428,6,0,P|342:221|403:209,1,120,0|8,1:2|1:2,0:0:0:0:
444,197,195131,1,2,0:2:0:0:
492,161,195365,2,0,P|501:115|492:67,2,90,0|0|2,1:2|0:0|0:2,0:0:0:0:
444,197,196303,6,0,L|308:188,1,120,0|8,1:2|1:2,0:0:0:0:
264,188,197006,1,8,1:2:0:0:
229,236,197240,2,0,P|220:270|237:319,1,60,0|8,1:2|1:2,0:0:0:0:
247,349,197709,1,4,1:0:0:0:
303,369,197943,1,0,1:2:0:0:
363,369,198178,6,0,P|380:334|377:235,1,120,4|8,1:0|1:2,0:0:0:0:
368,195,198881,1,2,0:2:0:0:
344,139,199115,2,0,P|335:105|344:50,2,90,0|0|2,1:2|0:0|0:2,0:0:0:0:
368,195,200053,1,0,1:2:0:0:
291,288,200521,1,8,1:2:0:0:
232,303,200756,1,2,0:2:0:0:
173,290,200990,2,0,P|129:281|65:297,2,90,0|0|2,1:2|0:0|0:2,0:0:0:0:
232,303,201928,5,0,1:2:0:0:
211,185,202396,1,8,1:2:0:0:
190,67,202865,1,0,1:2:0:0:
237,31,203099,1,8,1:2:0:0:
296,22,203334,1,8,1:2:0:0:
355,31,203568,1,8,1:2:0:0:
402,67,203802,5,0,1:2:0:0:
351,175,204271,1,8,1:2:0:0:
408,187,204505,1,2,0:2:0:0:
465,169,204739,1,0,1:2:0:0:
402,67,205209,1,4,1:2:0:0:
284,42,205678,6,0,L|148:45,1,120,4|8,1:0|1:2,0:0:0:0:
121,87,206381,1,0,0:2:0:0:
88,137,206615,2,0,P|79:194|100:238,2,90,0|0|2,1:2|0:0|0:2,0:0:0:0:
148,138,207553,2,0,L|284:141,1,120,0|8,1:2|1:2,0:0:0:0:
311,183,208256,1,2,0:2:0:0:
344,233,208490,2,0,P|353:290|332:334,2,90,0|0|2,1:2|0:2|0:2,0:0:0:0:
311,183,209428,5,4,1:0:0:0:
251,177,209662,1,8,1:2:0:0:
191,171,209896,1,8,1:2:0:0:
106,86,210365,2,0,P|78:131|79:209,1,120,0|8,1:2|1:2,0:0:0:0:
95,253,211068,1,2,0:2:0:0:
142,289,211303,2,0,L|274:282,1,120,0|8,1:2|1:2,0:0:0:0:
321,279,212006,1,2,0:2:0:0:
380,273,212240,1,0,1:2:0:0:
438,168,212709,1,4,1:2:0:0:
370,68,213178,6,0,P|323:53|243:66,1,120,4|8,1:0|1:2,0:0:0:0:
209,101,213881,1,2,0:2:0:0:
195,159,214115,2,0,L|184:290,1,120,0|8,1:2|1:2,0:0:0:0:
227,321,214818,1,2,0:2:0:0:
286,334,215053,2,0,P|301:287|288:207,1,120,4|8,1:0|1:2,0:0:0:0:
253,173,215756,1,2,0:2:0:0:
195,159,215990,2,0,L|64:148,1,120,0|8,1:2|1:2,0:0:0:0:
33,191,216693,1,2,0:2:0:0:
64,242,216928,5,4,1:0:0:0:
256,192,217162,12,0,224428,0:2:0:0:
