osu file format v14

[General]
AudioFilename: audio.mp3
AudioLeadIn: 0
PreviewTime: 89896
Countdown: 0
SampleSet: Soft
StackLeniency: 0.7
Mode: 0
LetterboxInBreaks: 0
StoryFireInFront: 0
WidescreenStoryboard: 0

[Editor]
DistanceSpacing: 1
BeatDivisor: 12
GridSize: 4
TimelineZoom: 1

[Metadata]
Title:Fuujin Shoujo (Suigetsu Yamato Remix)
TitleUnicode:風神少女(水月やまと Remix)
Artist:Suigetsu Yamato
ArtistUnicode:水月やまと
Creator:ktgster
Version:Hard
Source:東方花映塚 ~ Phantasmagoria of Flower View.
Tags:touhou project house set of ymto wind god girl
BeatmapID:1375807
BeatmapSetID:647546

[Difficulty]
HPDrainRate:5
CircleSize:4
OverallDifficulty:7
ApproachRate:7.5
SliderMultiplier:1.6
SliderTickRate:1

[Events]
//Background and Video events
0,0,"Aya.jpg",0,0
//Break Periods
2,147753,160715
//Storyboard Layer 0 (Background)
//Storyboard Layer 1 (Fail)
//Storyboard Layer 2 (Pass)
//Storyboard Layer 3 (Foreground)
//Storyboard Sound Samples

[TimingPoints]
1303,468.75,4,2,1,80,1,0
1771,-100,4,2,1,60,0,0
8803,-100,4,2,1,80,0,0
9271,-100,4,2,1,60,0,0
16303,-100,4,2,1,80,0,0
16771,-100,4,2,1,60,0,0
31537,-100,4,3,1,50,0,0
46303,-100,4,2,1,60,0,0
76303,-100,4,2,1,70,0,0
88490,-100,4,2,1,80,0,0
89896,-100,4,3,1,60,0,0
91303,-90.90909090909,4,2,1,90,0,1
91771,-90.90909090909,4,2,1,80,0,1
117084,-90.90909090909,4,2,1,80,0,0
117553,-90.90909090909,4,2,1,80,0,1
121303,-90.90909090909,4,2,1,70,0,0
125053,-90.90909090909,4,2,1,80,0,1
128803,-90.90909090909,4,2,1,70,0,0
132553,-90.90909090909,4,2,1,80,0,1
136303,-90.90909090909,4,2,1,70,0,0
140053,-90.90909090909,4,2,1,80,0,1
145678,-90.90909090909,4,2,1,80,0,0
146146,-100,4,3,1,60,0,0
147553,-125,4,2,1,80,0,0
161615,-125,4,2,1,60,0,0
173803,-125,4,2,1,80,0,0
174271,-100,4,3,1,60,0,0
175678,-83.33333333333,4,3,1,70,0,0
182240,-100,4,3,1,70,0,0
183178,-83.33333333333,4,3,1,70,0,0
189271,-100,4,3,1,70,0,0
190678,-90.90909090909,4,2,1,90,0,1
191146,-90.90909090909,4,2,1,80,0,1
196303,-166.6666666667,4,2,1,80,0,1
196771,-90.90909090909,4,2,1,80,0,1
201928,-166.6666666667,4,2,1,80,0,1
202865,-90.90909090909,4,2,1,80,0,1
216928,-90.90909090909,4,2,1,80,0,0
224428,-90.90909090909,4,2,1,5,0,0

[Colours]
Combo1 : 255,192,0
Combo2 : 0,242,121
Combo3 : 255,182,108
Combo4 : 255,151,203

[HitObjects]
10,130,1303,6,0,P|50:74|100:125,1,160,4|8,1:0|1:2,0:0:0:0:
99,205,2006,1,2,0:2:0:0:
150,265,2240,1,0,1:2:0:0:
227,285,2474,1,2,0:2:0:0:
303,262,2709,2,0,P|334:236|377:226,1,80,8|2,1:2|0:2,0:0:0:0:
451,226,3178,6,0,L|460:130,1,80,0|2,1:2|0:2,0:0:0:0:
378,146,3646,2,0,L|387:50,1,80,8|2,1:2|0:2,0:0:0:0:
305,66,4115,2,0,L|297:145,1,80,0|2,1:2|0:2,0:0:0:0:
216,146,4584,2,0,L|208:225,1,80,8|2,1:2|0:2,0:0:0:0:
288,225,5053,6,0,L|280:304,1,80,0|2,1:2|0:2,0:0:0:0:
199,305,5521,2,0,L|191:384,1,80,8|2,1:2|0:2,0:0:0:0:
111,384,5990,2,0,L|118:304,1,80,0|2,1:2|0:2,0:0:0:0:
38,304,6459,2,0,L|45:224,1,80,8|2,1:2|0:2,0:0:0:0:
54,144,6928,6,0,L|133:136,1,80,0|2,1:2|0:2,0:0:0:0:
132,55,7396,2,0,L|211:47,1,80,8|2,1:2|0:2,0:0:0:0:
212,128,7865,2,0,L|291:120,1,80,0|2,1:2|0:2,0:0:0:0:
290,39,8334,2,0,L|369:31,1,80,8|2,1:2|0:2,0:0:0:0:
502,130,8803,6,0,P|462:74|412:125,1,160,4|8,1:0|1:2,0:0:0:0:
413,205,9506,1,2,0:2:0:0:
362,265,9740,1,0,1:2:0:0:
285,285,9974,1,2,0:2:0:0:
209,262,10209,2,0,P|178:236|135:226,1,80,8|2,1:2|0:2,0:0:0:0:
61,226,10678,6,0,L|52:130,1,80,0|2,1:2|0:2,0:0:0:0:
134,146,11146,2,0,L|125:50,1,80,8|2,1:2|0:2,0:0:0:0:
207,66,11615,2,0,L|215:145,1,80,0|2,1:2|0:2,0:0:0:0:
296,146,12084,2,0,L|304:225,1,80,8|2,1:2|0:2,0:0:0:0:
224,225,12553,6,0,L|232:304,1,80,0|2,1:2|0:2,0:0:0:0:
313,305,13021,2,0,L|321:384,1,80,8|2,1:2|0:2,0:0:0:0:
401,384,13490,2,0,L|394:304,1,80,0|2,1:2|0:2,0:0:0:0:
474,304,13959,2,0,L|467:224,1,80,8|2,1:2|0:2,0:0:0:0:
458,144,14428,6,0,L|379:136,1,80,0|2,1:2|0:2,0:0:0:0:
380,55,14896,2,0,L|301:47,1,80,8|2,1:2|0:2,0:0:0:0:
300,128,15365,2,0,L|221:120,1,80,0|2,1:2|0:2,0:0:0:0:
222,39,15834,2,0,L|143:31,1,80,8|2,1:2|0:2,0:0:0:0:
10,130,16303,6,0,P|50:74|100:125,1,160,4|8,1:0|1:2,0:0:0:0:
99,205,17006,1,2,0:2:0:0:
150,265,17240,1,0,1:2:0:0:
227,285,17474,1,2,0:2:0:0:
303,262,17709,2,0,P|334:236|377:226,1,80,8|2,1:2|0:2,0:0:0:0:
451,226,18178,6,0,L|460:130,1,80,0|2,1:2|0:2,0:0:0:0:
378,146,18646,2,0,L|369:50,1,80,8|2,1:2|0:2,0:0:0:0:
290,66,19115,2,0,L|282:145,1,80,0|2,1:2|0:2,0:0:0:0:
202,146,19584,2,0,L|209:225,1,80,8|2,1:2|0:2,0:0:0:0:
212,306,20053,6,0,L|116:315,1,80,0|2,1:2|0:2,0:0:0:0:
132,233,20521,2,0,L|36:224,1,80,8|2,1:2|0:2,0:0:0:0:
52,145,20990,2,0,L|131:137,1,80,0|2,1:2|0:2,0:0:0:0:
132,57,21459,2,0,L|211:64,1,80,8|2,1:2|0:2,0:0:0:0:
292,59,21928,6,0,L|301:155,1,80,0|2,1:2|0:2,0:0:0:0:
219,139,22396,2,0,L|210:235,1,80,8|2,1:2|0:2,0:0:0:0:
291,218,22865,2,0,L|300:314,1,80,0|2,1:2|0:2,0:0:0:0:
218,298,23334,2,0,L|209:394,1,80,8|2,1:2|0:2,0:0:0:0:
49,265,23803,6,0,B|21:261|21:261|-15:220,2,53.33333333333,4|0|0,1:0|0:2|0:2,0:0:0:0:
118,225,24271,2,0,B|146:229|146:229|182:270,2,53.33333333333,8|0|0,1:2|0:2|0:2,0:0:0:0:
61,168,24740,2,0,L|52:102,2,53.33333333333,0|0|0,1:2|0:2|0:2,0:0:0:0:
129,127,25209,1,8,1:2:0:0:
285,340,25678,6,0,B|313:336|313:336|349:295,2,53.33333333333,0|0|0,1:0|0:2|0:2,0:0:0:0:
216,300,26146,2,0,B|188:304|188:304|152:345,2,53.33333333333,8|0|0,1:2|0:2|0:2,0:0:0:0:
273,243,26615,2,0,L|282:177,2,53.33333333333,0|0|0,1:2|0:2|0:2,0:0:0:0:
205,202,27084,1,8,1:2:0:0:
423,52,27553,6,0,B|451:56|451:56|487:97,2,53.33333333333,0|0|0,1:2|0:2|0:2,0:0:0:0:
413,131,28021,2,0,B|395:153|395:153|342:163,2,53.33333333333,8|0|0,1:2|0:2|0:2,0:0:0:0:
350,83,28490,2,0,B|339:56|339:56|356:5,2,53.33333333333,0|0|0,1:2|0:2|0:2,0:0:0:0:
423,52,28959,1,8,1:2:0:0:
89,52,29428,6,0,B|61:56|61:56|25:97,2,53.33333333333,0|0|0,1:2|0:2|0:2,0:0:0:0:
99,131,29896,2,0,B|116:153|116:153|169:163,2,53.33333333333,8|0|0,1:2|0:2|0:2,0:0:0:0:
162,83,30365,2,0,B|172:56|172:56|155:5,2,53.33333333333,0|0|0,1:2|0:2|0:2,0:0:0:0:
89,52,30834,1,8,1:2:0:0:
25,318,31303,6,0,P|58:334|104:331,1,80,4|2,1:0|0:2,0:0:0:0:
177,310,31771,1,8,0:2:0:0:
199,232,32006,2,0,B|193:172|193:172|167:142|167:142|159:58,2,160,2|2|2,0:2|0:2|0:2,0:0:0:0:
337,183,33178,6,0,P|353:216|350:262,1,80,0|2,0:2|0:2,0:0:0:0:
329,335,33646,1,8,0:2:0:0:
251,357,33881,2,0,B|191:351|191:351|161:325|161:325|77:317,2,160,2|2|2,0:2|0:2|0:2,0:0:0:0:
452,369,35053,6,0,P|468:336|465:290,1,80,0|2,0:2|0:2,0:0:0:0:
423,225,35521,1,8,0:2:0:0:
433,145,35756,2,0,B|373:150|373:150|343:176|343:176|283:182,2,160,2|2|2,0:2|0:2|0:2,0:0:0:0:
362,280,36928,6,0,P|329:296|283:293,1,80,0|2,0:2|0:2,0:0:0:0:
218,251,37396,1,8,0:2:0:0:
138,261,37631,2,0,B|143:201|143:201|169:171|169:171|175:111,2,160,2|2|2,0:2|0:2|0:2,0:0:0:0:
37,377,38803,6,0,P|68:355|116:346,1,80,4|2,0:1|0:2,0:0:0:0:
186,360,39271,1,8,0:2:0:0:
264,375,39506,2,0,B|258:315|258:315|232:285|232:285|226:225,1,160,2|2,3:2|0:2,0:0:0:0:
282,168,40209,1,8,0:2:0:0:
282,168,40443,1,2,0:2:0:0:
95,113,40678,6,0,P|117:144|126:192,1,80,0|2,0:2|0:2,0:0:0:0:
112,262,41146,1,8,0:2:0:0:
97,340,41381,2,0,B|157:334|157:334|187:308|187:308|247:302,1,160,2|2,3:2|0:2,0:0:0:0:
307,362,42084,1,8,0:2:0:0:
307,362,42318,1,2,0:2:0:0:
375,242,42553,6,0,P|344:220|296:211,1,80,0|2,0:2|0:2,0:0:0:0:
226,225,43021,1,8,0:2:0:0:
148,240,43256,2,0,B|154:180|154:180|180:150|180:150|186:90,1,160,2|2,3:2|0:2,0:0:0:0:
129,33,43959,1,8,0:2:0:0:
108,110,44193,1,2,0:2:0:0:
242,21,44427,6,0,P|264:52|273:100,1,80,0|2,0:2|0:2,0:0:0:0:
255,173,44896,1,8,0:2:0:0:
255,173,45131,1,4,0:0:0:0:
187,317,45599,1,4,0:0:0:0:
256,277,45834,1,8,0:2:0:0:
325,317,46068,1,4,0:0:0:0:
331,335,46185,1,0,0:2:0:0:
338,353,46303,6,0,P|375:360|433:342,1,80,4|2,1:2|0:2,0:0:0:0:
472,294,46771,1,8,1:2:0:0:
415,237,47006,1,2,0:2:0:0:
471,180,47240,1,0,1:2:0:0:
471,180,47474,2,0,L|478:96,2,80,2|8|2,0:2|1:2|0:2,0:0:0:0:
415,237,48178,6,0,P|378:244|320:226,1,80,0|2,1:2|0:2,0:0:0:0:
269,192,48646,1,8,1:2:0:0:
212,248,48881,1,2,0:2:0:0:
143,204,49115,1,0,1:2:0:0:
143,204,49349,2,0,L|136:120,2,80,2|8|2,0:2|1:2|0:2,0:0:0:0:
170,352,50053,6,0,P|207:359|265:341,1,80,4|2,1:0|0:2,0:0:0:0:
316,307,50521,1,8,1:2:0:0:
373,363,50756,1,2,0:2:0:0:
442,319,50990,1,0,1:2:0:0:
442,319,51224,2,0,L|449:235,2,80,2|8|2,0:2|1:2|0:2,0:0:0:0:
373,363,51928,6,0,P|336:370|278:352,1,80,0|2,1:2|0:2,0:0:0:0:
239,304,52396,1,8,1:2:0:0:
296,247,52631,1,2,0:2:0:0:
240,190,52865,1,0,1:2:0:0:
240,190,53099,2,0,L|233:106,2,80,2|8|2,0:2|1:2|0:2,0:0:0:0:
124,56,53803,6,0,L|117:140,1,80,4|2,1:0|0:2,0:0:0:0:
37,130,54271,2,0,L|30:214,1,80,8|2,1:2|0:2,0:0:0:0:
24,289,54740,1,0,1:2:0:0:
96,254,54974,1,2,0:2:0:0:
161,301,55209,1,8,1:2:0:0:
234,267,55443,1,2,0:2:0:0:
301,310,55678,6,0,L|385:303,1,80,0|2,1:2|0:2,0:0:0:0:
375,223,56146,2,0,L|459:216,1,80,8|2,1:2|0:2,0:0:0:0:
454,136,56615,1,0,1:2:0:0:
382,102,56849,1,2,0:2:0:0:
317,148,57084,1,8,1:2:0:0:
244,114,57318,1,2,0:2:0:0:
113,194,57553,6,0,L|106:278,1,80,4|2,1:0|0:2,0:0:0:0:
186,273,58021,2,0,L|193:357,1,80,8|2,1:2|0:2,0:0:0:0:
270,371,58490,1,0,1:2:0:0:
326,314,58724,1,2,0:2:0:0:
299,238,58959,1,8,1:2:0:0:
355,181,59193,1,2,0:2:0:0:
349,101,59428,6,0,L|265:94,1,80,0|2,1:2|0:2,0:0:0:0:
274,14,59896,2,0,L|190:21,1,80,8|2,1:2|0:2,0:0:0:0:
137,77,60365,1,0,1:2:0:0:
193,134,60599,1,2,0:2:0:0:
166,210,60834,1,8,1:2:0:0:
222,267,61068,1,2,0:2:0:0:
430,239,61303,6,0,L|437:155,1,80,4|2,1:0|0:2,0:0:0:0:
362,130,61771,2,0,L|355:214,1,80,8|2,1:2|0:2,0:0:0:0:
298,266,62240,2,0,P|238:269|147:204,1,160,0|8,1:2|1:2,0:0:0:0:
130,141,62943,1,2,0:2:0:0:
265,36,63178,6,0,L|349:43,1,80,0|2,1:2|0:2,0:0:0:0:
308,113,63646,2,0,L|392:120,1,80,8|2,1:2|0:2,0:0:0:0:
444,176,64115,1,0,1:2:0:0:
435,255,64350,1,2,0:2:0:0:
435,255,64467,2,0,P|383:264|290:247,1,120,0|2,0:0|0:2,0:0:0:0:
82,239,65053,6,0,L|75:155,1,80,0|2,1:2|0:2,0:0:0:0:
150,130,65521,2,0,L|157:214,1,80,8|2,1:2|0:2,0:0:0:0:
214,266,65990,2,0,P|274:269|365:204,1,160,0|8,1:2|1:2,0:0:0:0:
382,141,66693,1,2,0:2:0:0:
247,36,66928,6,0,L|163:43,1,80,0|2,1:2|0:2,0:0:0:0:
204,113,67396,2,0,L|120:120,1,80,8|2,1:2|0:2,0:0:0:0:
68,176,67865,1,0,1:2:0:0:
77,255,68099,1,2,0:2:0:0:
77,255,68334,2,0,P|119:263|184:261,1,80,8|2,1:2|0:2,0:0:0:0:
362,241,68803,6,0,L|369:157,1,80,4|2,1:0|0:2,0:0:0:0:
425,104,69271,1,8,1:2:0:0:
425,104,69506,1,2,0:2:0:0:
368,47,69740,2,0,P|317:60|225:48,1,120,0|0,1:2|0:0,0:0:0:0:
230,53,70209,1,8,1:2:0:0:
151,39,70443,1,2,0:2:0:0:
200,204,70678,6,0,L|284:211,1,80,0|2,1:2|0:2,0:0:0:0:
243,281,71146,2,0,L|327:288,1,80,8|2,1:2|0:2,0:0:0:0:
395,254,71615,1,0,1:2:0:0:
381,175,71849,1,2,0:2:0:0:
381,175,71967,1,0,0:0:0:0:
381,175,72084,2,0,P|356:137|312:107,1,80,8|2,1:2|0:0,0:0:0:0:
150,241,72553,6,0,L|143:157,1,80,0|2,1:2|0:2,0:0:0:0:
87,104,73021,1,8,1:2:0:0:
87,104,73256,1,2,0:2:0:0:
144,47,73490,2,0,P|195:60|287:48,1,120,0|0,1:2|0:0,0:0:0:0:
282,53,73959,1,8,1:2:0:0:
361,39,74193,1,2,0:2:0:0:
312,204,74428,6,0,L|228:211,1,80,0|2,1:2|0:2,0:0:0:0:
269,281,74896,2,0,L|185:288,1,80,8|2,1:2|0:2,0:0:0:0:
117,254,75365,1,0,1:2:0:0:
131,175,75599,1,2,0:2:0:0:
131,175,75834,2,0,P|156:137|200:107,1,80,8|2,1:2|0:2,0:0:0:0:
376,97,76303,6,0,P|389:148|377:240,1,120,4|0,1:0|0:0,0:0:0:0:
382,235,76771,2,0,L|297:244,1,80,8|2,1:2|0:2,0:0:0:0:
245,186,77240,2,0,L|236:106,1,80,0|2,1:2|0:2,0:0:0:0:
216,103,77591,2,0,P|156:98|98:111,1,120,0|2,0:0|0:2,0:0:0:0:
41,168,78178,6,0,L|32:253,1,80,0|2,1:2|0:2,0:0:0:0:
112,247,78646,2,0,L|103:332,1,80,8|2,1:2|0:2,0:0:0:0:
171,368,79115,1,0,1:2:0:0:
223,307,79349,1,2,0:2:0:0:
223,307,79467,2,0,P|282:302|340:315,1,120,0|2,0:0|0:2,0:0:0:0:
490,274,80053,6,0,P|503:223|491:131,1,120,0|0,1:2|0:0,0:0:0:0:
496,136,80521,2,0,L|411:127,1,80,8|2,1:2|0:2,0:0:0:0:
337,142,80990,2,0,P|286:155|194:143,1,120,0|0,1:2|0:0,0:0:0:0:
199,148,81458,2,0,L|190:63,1,80,8|2,1:2|0:2,0:0:0:0:
50,21,81928,6,0,L|41:106,1,80,0|2,1:2|0:2,0:0:0:0:
16,176,82396,2,0,P|69:174|145:248,1,160,8|0,1:2|1:2,0:0:0:0:
149,323,83099,1,2,0:2:0:0:
92,379,83334,1,8,1:2:0:0:
334,336,83803,6,0,P|385:349|477:337,1,120,4|0,1:0|0:0,0:0:0:0:
472,342,84271,2,0,L|481:257,1,80,8|2,1:2|0:2,0:0:0:0:
423,205,84740,2,0,L|343:196,1,80,0|2,1:2|0:2,0:0:0:0:
340,176,85091,2,0,P|335:116|348:58,1,120,0|2,0:0|0:2,0:0:0:0:
203,8,85678,6,0,L|194:93,1,80,0|2,1:2|0:2,0:0:0:0:
114,87,86146,2,0,L|105:172,1,80,8|2,1:2|0:2,0:0:0:0:
162,223,86615,1,0,1:2:0:0:
135,298,86849,1,2,0:2:0:0:
135,298,86967,2,0,P|194:293|252:306,1,120,0|2,0:0|0:2,0:0:0:0:
490,274,87553,6,0,P|503:223|491:131,1,120,4|0,1:0|0:0,0:0:0:0:
496,136,88021,2,0,L|411:127,1,80,8|2,1:2|0:2,0:0:0:0:
350,82,88490,1,4,1:0:0:0:
282,125,88724,1,2,0:2:0:0:
214,82,88959,1,8,1:2:0:0:
146,39,89193,1,2,0:2:0:0:
78,82,89428,5,4,1:0:0:0:
78,82,89896,2,0,L|72:140,3,40,0|0|0|0,0:2|0:2|0:2|0:2,0:0:0:0:
88,136,90365,2,0,L|82:194,3,40,0|0|0|0,2:2|2:2|2:2|2:2,0:0:0:0:
98,190,90834,2,0,L|92:248,3,40,0|0|0|0,0:2|0:2|0:2|0:2,0:0:0:0:
109,245,91303,6,0,P|159:273|273:229,1,176.0000053711,4|8,1:0|1:2,0:0:0:0:
304,159,92006,1,2,0:2:0:0:
282,73,92240,1,0,1:2:0:0:
282,73,92357,1,8,1:2:0:0:
282,73,92474,1,2,0:2:0:0:
367,98,92709,2,0,P|389:138|382:193,1,88.00000268555,8|2,1:2|0:2,0:0:0:0:
336,323,93178,6,0,P|286:351|172:307,1,176.0000053711,0|8,1:2|1:2,0:0:0:0:
141,237,93881,1,2,0:2:0:0:
163,151,94115,1,0,1:2:0:0:
163,151,94232,1,8,1:2:0:0:
163,151,94349,1,2,0:2:0:0:
78,176,94584,2,0,P|56:216|63:271,1,88.00000268555,8|2,1:2|0:2,0:0:0:0:
224,216,95053,6,0,L|413:172,1,176.0000053711,0|8,1:2|1:2,0:0:0:0:
472,218,95756,1,2,0:2:0:0:
412,282,95990,1,0,1:2:0:0:
412,282,96107,1,8,1:2:0:0:
412,282,96224,1,2,0:2:0:0:
444,364,96459,2,0,P|395:368|352:345,1,88.00000268555,8|2,1:2|0:2,0:0:0:0:
267,224,96928,6,0,L|251:27,1,176.0000053711,0|8,1:2|1:2,0:0:0:0:
330,7,97631,1,2,0:2:0:0:
352,9,97748,1,8,1:2:0:0:
374,11,97865,1,0,1:2:0:0:
396,12,97982,1,0,1:2:0:0:
418,14,98099,1,2,0:2:0:0:
480,76,98334,2,0,B|495:124|495:124|461:239,1,132.0000040283,4|0,1:2|0:2,0:0:0:0:
465,223,98803,6,0,P|406:222|346:113,1,176.0000053711,4|8,1:0|1:2,0:0:0:0:
323,47,99506,1,2,0:2:0:0:
236,63,99740,1,0,1:2:0:0:
231,84,99857,1,8,1:2:0:0:
226,105,99974,1,2,0:2:0:0:
150,150,100209,2,0,P|106:153|59:118,1,88.00000268555,8|2,1:2|0:2,0:0:0:0:
0,263,100678,6,0,P|59:264|164:342,1,176.0000053711,0|8,1:2|1:2,0:0:0:0:
227,375,101381,1,2,0:2:0:0:
289,312,101615,1,0,1:2:0:0:
294,291,101732,1,8,1:2:0:0:
299,270,101849,1,2,0:2:0:0:
380,235,102084,2,0,P|403:271|400:342,1,88.00000268555,8|2,1:2|0:2,0:0:0:0:
201,264,102553,6,0,L|153:73,1,176.0000053711,0|8,1:2|1:2,0:0:0:0:
220,30,103256,1,2,0:2:0:0:
287,85,103490,1,0,1:2:0:0:
292,106,103607,1,8,1:2:0:0:
297,127,103724,1,2,0:2:0:0:
377,174,103959,1,8,1:2:0:0:
377,174,104193,1,2,0:2:0:0:
201,264,104428,6,0,L|102:248,2,88.00000268555,0|2|8,1:2|0:2|1:2,0:0:0:0:
263,326,105131,1,2,0:2:0:0:
284,322,105248,1,8,1:2:0:0:
306,318,105365,1,0,1:2:0:0:
328,315,105482,1,0,1:2:0:0:
349,311,105599,1,2,0:2:0:0:
428,349,105834,2,0,B|443:301|443:301|409:186,1,132.0000040283,4|0,1:2|0:0,0:0:0:0:
412,201,106303,6,0,L|313:185,2,88.00000268555,4|2|8,1:0|0:2|1:2,0:0:0:0:
486,152,107006,1,2,0:2:0:0:
423,89,107240,1,0,1:2:0:0:
420,67,107357,1,8,1:2:0:0:
416,46,107474,1,2,0:2:0:0:
331,20,107709,2,0,P|294:42|281:84,1,88.00000268555,8|2,1:2|0:2,0:0:0:0:
240,248,108178,6,0,L|224:347,2,88.00000268555,0|2|8,1:2|0:2|1:2,0:0:0:0:
191,174,108881,1,2,0:2:0:0:
128,237,109115,1,0,1:2:0:0:
106,240,109232,1,8,1:2:0:0:
85,244,109349,1,2,0:2:0:0:
59,329,109584,2,0,P|81:366|123:379,1,88.00000268555,8|2,1:2|0:2,0:0:0:0:
299,383,110053,6,0,L|398:367,2,88.00000268555,4|2|8,1:0|0:2|1:2,0:0:0:0:
225,334,110756,1,2,0:2:0:0:
288,271,110990,1,0,1:2:0:0:
291,249,111107,1,8,1:2:0:0:
295,228,111224,1,2,0:2:0:0:
380,202,111459,2,0,P|417:224|430:266,1,88.00000268555,8|2,1:2|0:2,0:0:0:0:
193,243,111928,5,0,1:2:0:0:
130,180,112162,2,0,L|57:191,2,44.00000134277,2|0|8,0:2|0:2|1:2,0:0:0:0:
192,117,112631,1,2,0:2:0:0:
213,121,112748,1,8,1:2:0:0:
235,125,112865,1,0,1:2:0:0:
257,128,112982,1,0,1:2:0:0:
278,132,113099,1,2,0:2:0:0:
357,94,113334,2,0,B|372:142|372:142|338:257,1,132.0000040283,4|0,1:2|0:0,0:0:0:0:
341,242,113803,6,0,L|242:258,1,88.00000268555,4|2,1:0|0:2,0:0:0:0:
175,217,114271,1,8,1:2:0:0:
199,132,114506,1,2,0:2:0:0:
136,69,114740,1,0,1:2:0:0:
115,73,114857,1,8,1:2:0:0:
93,77,114974,1,2,0:2:0:0:
71,80,115092,1,0,0:0:0:0:
50,84,115209,2,0,P|32:121|53:182,1,88.00000268555,8|2,1:2|0:2,0:0:0:0:
171,242,115678,6,0,L|270:258,1,88.00000268555,4|2,1:0|0:2,0:0:0:0:
337,217,116146,1,8,1:2:0:0:
313,132,116381,1,2,0:2:0:0:
376,69,116615,1,0,1:2:0:0:
397,73,116732,1,8,1:2:0:0:
419,77,116849,1,2,0:2:0:0:
441,80,116967,1,0,0:0:0:0:
462,84,117084,2,0,P|480:121|459:182,1,88.00000268555,8|2,1:2|0:2,0:0:0:0:
360,320,117553,6,0,B|312:352|272:312|236:284|184:324,2,176.0000053711,4|8|0,1:0|1:2|1:2,0:0:0:0:
422,257,118724,1,2,0:2:0:0:
359,194,118959,1,8,1:2:0:0:
476,63,119428,5,0,1:2:0:0:
390,81,119662,1,2,0:2:0:0:
311,41,119896,1,8,1:2:0:0:
225,59,120130,1,2,0:2:0:0:
146,19,120365,2,0,B|114:67|154:107|182:143|142:195,1,176.0000053711,0|8,1:2|1:2,0:0:0:0:
366,365,121303,6,0,B|398:317|358:277|330:241|370:189,2,176.0000053711,0|8|0,1:2|1:2|1:2,0:0:0:0:
278,371,122474,1,2,0:2:0:0:
278,371,122709,2,0,P|240:334|239:276,1,88.00000268555,8|2,1:2|0:0,0:0:0:0:
328,201,123178,6,0,L|515:186,1,176.0000053711,0|8,1:2|1:2,0:0:0:0:
503,98,123881,2,0,L|316:83,1,176.0000053711,2|2,0:2|0:2,0:0:0:0:
265,21,124584,1,8,1:2:0:0:
360,320,125053,6,0,B|312:352|272:312|236:284|184:324,2,176.0000053711,4|8|0,1:0|1:2|1:2,0:0:0:0:
422,257,126224,1,2,0:2:0:0:
359,194,126459,1,8,1:2:0:0:
476,63,126928,5,0,1:2:0:0:
390,81,127162,1,2,0:2:0:0:
311,41,127396,1,8,1:2:0:0:
225,59,127630,1,2,0:2:0:0:
146,19,127865,2,0,B|114:67|154:107|182:143|142:195,1,176.0000053711,0|8,1:2|1:2,0:0:0:0:
201,354,128803,6,0,B|153:386|113:346|77:318|25:358,2,176.0000053711,0|8|0,1:2|1:2|1:2,0:0:0:0:
277,310,129974,1,2,0:2:0:0:
357,274,130209,2,0,P|393:273|460:304,1,88.00000268555,8|2,1:2|0:2,0:0:0:0:
501,157,130678,6,0,P|414:131|370:43,1,176.0000053711,0|8,1:2|1:2,0:0:0:0:
291,26,131381,1,2,0:2:0:0:
291,26,131615,2,0,P|285:80|314:128,1,88.00000268555,0|2,1:2|0:0,0:0:0:0:
235,172,132084,1,8,1:2:0:0:
360,320,132553,6,0,B|312:352|272:312|236:284|184:324,2,176.0000053711,4|8|0,1:0|1:2|1:2,0:0:0:0:
422,257,133724,1,2,0:2:0:0:
359,194,133959,1,8,1:2:0:0:
476,63,134428,5,0,1:2:0:0:
390,81,134662,1,2,0:2:0:0:
311,41,134896,1,8,1:2:0:0:
225,59,135130,1,2,0:2:0:0:
146,19,135365,2,0,B|114:67|154:107|182:143|142:195,1,176.0000053711,0|8,1:2|1:2,0:0:0:0:
350,347,136303,6,0,L|365:160,1,176.0000053711,0|8,1:2|1:2,0:0:0:0:
426,109,137006,2,0,P|495:153|479:264,1,176.0000053711,2|2,0:2|0:2,0:0:0:0:
445,311,137709,1,8,1:2:0:0:
445,311,137943,1,2,0:2:0:0:
253,263,138178,5,0,1:2:0:0:
190,200,138412,2,0,L|205:13,1,176.0000053711,2|2,0:2|0:2,0:0:0:0:
116,11,139115,1,0,1:2:0:0:
43,60,139349,1,2,0:2:0:0:
28,147,139584,1,8,1:2:0:0:
360,320,140053,6,0,B|312:352|272:312|236:284|184:324,2,176.0000053711,4|8|0,1:0|1:2|1:2,0:0:0:0:
422,257,141224,1,2,0:2:0:0:
359,194,141459,1,8,1:2:0:0:
476,63,141928,5,0,1:2:0:0:
390,81,142162,1,2,0:2:0:0:
311,41,142396,1,8,1:2:0:0:
225,59,142630,1,2,0:2:0:0:
146,19,142865,2,0,B|114:67|154:107|182:143|142:195,1,176.0000053711,0|8,1:2|1:2,0:0:0:0:
322,357,143803,6,0,L|491:343,1,132.0000040283,0|0,1:0|0:2,0:0:0:0:
475,342,144271,2,0,L|461:172,1,132.0000040283,8|0,1:2|0:2,0:0:0:0:
461,188,144740,2,0,L|291:174,1,132.0000040283,0|0,1:2|0:2,0:0:0:0:
308,173,145208,2,0,L|321:3,1,132.0000040283,8|0,1:2|0:2,0:0:0:0:
323,23,145678,5,0,1:2:0:0:
323,23,146146,2,0,L|265:17,3,40,8|0|0|0,1:2|0:2|0:2|0:2,0:0:0:0:
269,33,146615,2,0,L|211:27,3,40,0|0|0|0,1:2|2:2|2:2|2:2,0:0:0:0:
215,43,147084,2,0,L|157:37,3,40,8|0|0|0,1:2|0:2|0:2|0:2,0:0:0:0:
161,53,147553,5,4,1:0:0:0:
199,357,161615,5,0,0:2:0:0:
199,357,162084,1,4,0:2:0:0:
199,357,162553,2,0,P|207:312|188:221,1,128,4|2,0:2|0:2,0:0:0:0:
139,176,163256,1,0,0:2:0:0:
90,116,163490,2,0,P|82:76|99:-3,2,96,0|0|0,0:2|0:2|0:2,0:0:0:0:
139,176,164428,2,0,P|184:168|275:187,1,128,0|2,0:2|0:2,0:0:0:0:
320,236,165131,1,0,0:2:0:0:
380,285,165365,2,0,P|419:292|499:275,2,96,0|0|0,0:2|0:2|0:2,0:0:0:0:
325,339,166303,6,0,P|280:331|189:350,1,128,4|2,0:2|0:2,0:0:0:0:
125,365,167006,1,0,0:2:0:0:
98,292,167240,2,0,L|-5:275,2,96,0|0|0,0:2|0:2|0:2,0:0:0:0:
152,237,168178,2,0,L|255:220,2,96,0|0|0,0:2|0:2|0:2,0:0:0:0:
83,202,169115,2,0,P|49:153|79:69,1,128,0|4,0:2|0:2,0:0:0:0:
300,19,170053,6,0,L|435:33,1,128,4|2,0:2|0:2,0:0:0:0:
470,95,170756,1,0,0:2:0:0:
431,161,170990,2,0,P|411:210|424:274,2,96,0|0|0,0:2|0:2|0:2,0:0:0:0:
359,132,171928,2,0,L|224:146,1,128,4|2,0:2|0:2,0:0:0:0:
189,208,172631,1,0,0:2:0:0:
228,274,172865,2,0,P|248:323|235:387,2,96,0|0|0,0:2|0:2|0:2,0:0:0:0:
156,279,173803,5,4,1:2:0:0:
156,279,174271,2,0,L|162:221,3,40,0|0|0|0,0:2|0:2|0:2|0:2,0:0:0:0:
146,225,174740,2,0,L|152:167,3,40,0|0|0|0,2:2|2:2|2:2|2:2,0:0:0:0:
136,171,175209,2,0,L|142:113,3,40,0|0|0|0,0:2|0:2|0:2|0:2,0:0:0:0:
126,117,175678,6,0,B|197:102|197:102|253:42,1,143.999995605469,4|0,1:0|0:2,0:0:0:0:
262,32,176146,1,8,1:2:0:0:
366,38,176381,1,0,0:2:0:0:
366,38,176498,1,0,0:2:0:0:
366,38,176615,2,0,B|381:109|381:109|441:165,1,143.999995605469,4|4,1:0|0:0,0:0:0:0:
451,174,177083,1,4,0:0:0:0:
494,88,177318,1,0,0:2:0:0:
296,140,177553,6,0,B|261:202|261:202|273:306,1,143.999995605469,4|0,1:0|0:2,0:0:0:0:
274,297,178021,1,0,0:2:0:0:
279,320,178138,1,4,0:0:0:0:
461,295,178373,5,4,1:0:0:0:
461,295,178490,1,4,1:0:0:0:
410,213,178724,1,4,1:0:0:0:
447,124,178959,1,4,0:0:0:0:
201,32,179428,6,0,B|216:103|216:103|276:159,1,143.999995605469,4|0,1:0|0:2,0:0:0:0:
286,168,179896,1,8,1:2:0:0:
280,272,180131,1,0,0:2:0:0:
280,272,180248,1,0,0:2:0:0:
280,272,180365,2,0,B|209:287|209:287|153:347,1,143.999995605469,4|4,1:0|0:0,0:0:0:0:
144,357,180833,1,4,0:0:0:0:
54,320,181068,1,0,0:2:0:0:
121,182,181303,6,0,L|218:169,1,95.99999707031,4|0,1:0|0:2,0:0:0:0:
233,186,181654,2,0,L|330:173,1,95.99999707031,4|0,1:0|0:2,0:0:0:0:
345,190,182006,1,4,1:0:0:0:
434,223,182240,2,0,L|440:281,3,40,0|0|0|0,2:2|2:2|2:2|2:2,0:0:0:0:
424,277,182709,2,0,L|430:335,3,40,0|0|0|0,0:2|0:2|0:2|0:2,0:0:0:0:
414,331,183178,5,4,1:0:0:0:
324,365,183412,1,0,0:2:0:0:
285,360,183529,1,0,0:2:0:0:
246,355,183646,1,8,1:2:0:0:
177,286,183881,1,0,0:2:0:0:
138,291,183998,1,0,0:2:0:0:
99,296,184115,1,4,1:0:0:0:
16,247,184349,1,0,0:2:0:0:
16,247,184467,1,4,0:0:0:0:
16,247,184584,1,4,0:0:0:0:
82,178,184818,1,0,0:2:0:0:
152,376,185053,5,4,1:0:0:0:
219,308,185287,2,0,L|277:302,3,47.99999853516,0|0|0|4,0:2|0:2|0:2|0:0,0:0:0:0:
334,234,185873,1,4,1:0:0:0:
334,234,185990,1,4,1:0:0:0:
266,166,186224,1,0,0:2:0:0:
227,161,186341,1,0,0:2:0:0:
188,156,186458,1,4,0:0:0:0:
3,273,186928,6,0,B|74:288|74:288|130:348,1,143.999995605469,4|0,1:0|0:2,0:0:0:0:
139,357,187396,2,0,L|197:363,2,47.99999853516,8|0|0,1:2|0:2|0:2,0:0:0:0:
193,263,187865,2,0,B|208:192|208:192|268:136,1,143.999995605469,4|4,1:0|0:0,0:0:0:0:
278,127,188334,1,4,0:0:0:0:
373,137,188568,1,0,0:2:0:0:
387,297,188803,5,4,0:0:0:0:
387,297,189271,2,0,L|329:303,3,40,0|0|0|0,0:2|0:2|0:2|0:2,0:0:0:0:
333,287,189740,2,0,L|275:293,3,40,0|0|0|0,2:2|2:2|2:2|2:2,0:0:0:0:
279,277,190209,2,0,L|221:283,3,40,0|0|0|0,0:2|0:2|0:2|0:2,0:0:0:0:
224,266,190678,6,0,P|196:216|240:102,1,176.0000053711,4|8,1:0|1:2,0:0:0:0:
317,92,191381,1,2,0:2:0:0:
379,154,191615,1,0,1:2:0:0:
381,175,191732,1,8,1:2:0:0:
383,196,191849,1,2,0:2:0:0:
455,246,192084,2,0,P|488:214|491:148,1,88.00000268555,8|2,1:2|0:2,0:0:0:0:
413,21,192553,5,0,1:2:0:0:
350,83,192787,1,2,0:2:0:0:
329,85,192904,1,0,1:2:0:0:
308,87,193021,1,8,1:2:0:0:
245,24,193256,1,2,0:2:0:0:
182,86,193490,1,0,1:2:0:0:
180,107,193607,1,8,1:2:0:0:
178,128,193724,1,2,0:2:0:0:
115,190,193959,2,0,P|82:158|79:92,1,88.00000268555,8|2,1:2|0:2,0:0:0:0:
245,24,194428,5,0,1:2:0:0:
308,87,194662,2,0,L|375:81,2,44.00000134277,2|0|8,0:2|0:2|1:2,0:0:0:0:
245,149,195131,1,2,0:2:0:0:
307,211,195365,1,0,1:2:0:0:
309,232,195482,1,8,1:2:0:0:
311,253,195599,1,2,0:2:0:0:
248,315,195834,2,0,P|288:338|343:335,1,88.00000268555,8|2,1:2|0:2,0:0:0:0:
482,290,196303,6,0,L|484:259,3,23.99999926758,0|0|0|0,1:2|0:0|0:0|0:0,0:0:0:0:
485,244,196771,1,8,1:2:0:0:
422,181,197006,1,8,1:2:0:0:
338,207,197240,1,0,1:2:0:0:
336,186,197357,1,8,1:2:0:0:
334,165,197474,1,8,1:2:0:0:
332,144,197592,1,8,1:2:0:0:
330,123,197709,1,4,1:0:0:0:
253,79,197943,1,0,1:2:0:0:
208,258,198178,5,4,1:0:0:0:
145,320,198412,2,0,L|78:314,2,44.00000134277,2|0|8,0:2|0:2|1:2,0:0:0:0:
230,343,198881,1,2,0:2:0:0:
317,336,199115,1,0,1:2:0:0:
338,334,199232,1,8,1:2:0:0:
359,332,199349,1,2,0:2:0:0:
432,283,199584,2,0,P|445:244|431:186,1,88.00000268555,8|2,1:2|0:2,0:0:0:0:
328,61,200053,5,0,1:2:0:0:
266,124,200287,1,2,0:2:0:0:
264,145,200404,1,0,1:2:0:0:
262,166,200521,1,8,1:2:0:0:
325,229,200756,1,2,0:2:0:0:
387,166,200990,1,0,1:2:0:0:
389,145,201107,1,8,1:2:0:0:
391,124,201224,1,2,0:2:0:0:
454,62,201459,2,0,P|487:94|490:160,1,88.00000268555,8|2,1:2|0:2,0:0:0:0:
488,274,201928,6,0,L|486:305,3,23.99999926758,0|0|0|0,1:2|0:2|0:2|0:2,0:0:0:0:
469,314,202396,2,0,L|467:345,3,23.99999926758,8|0|0|0,1:2|0:2|0:2|0:2,0:0:0:0:
448,356,202865,1,0,1:2:0:0:
361,343,203099,1,8,1:2:0:0:
273,330,203334,1,8,1:2:0:0:
185,318,203568,1,8,1:2:0:0:
97,306,203803,5,0,1:2:0:0:
151,237,204037,1,2,0:2:0:0:
97,168,204271,1,8,1:2:0:0:
151,99,204506,1,2,0:2:0:0:
172,97,204623,1,8,1:2:0:0:
193,95,204740,1,0,1:2:0:0:
214,93,204858,1,0,1:2:0:0:
235,91,204975,1,2,0:2:0:0:
297,153,205209,2,0,B|345:168|345:168|460:134,1,132.0000040283,4|0,1:2|0:0,0:0:0:0:
444,139,205678,5,4,1:0:0:0:
485,216,205912,1,2,0:2:0:0:
439,291,206146,1,8,1:2:0:0:
439,291,206263,1,2,0:2:0:0:
352,275,206498,1,2,0:2:0:0:
352,275,206615,2,0,L|358:342,2,44.00000134277,0|8|2,1:2|1:2|0:2,0:0:0:0:
289,212,207084,2,0,P|264:250|266:301,1,88.00000268555,8|2,1:2|0:2,0:0:0:0:
115,353,207553,5,0,1:2:0:0:
53,290,207787,2,0,L|-14:284,2,44.00000134277,2|0|8,0:2|0:2|1:2,0:0:0:0:
115,227,208256,1,2,0:2:0:0:
129,210,208373,1,0,0:2:0:0:
143,193,208490,1,0,1:2:0:0:
129,176,208607,1,8,1:2:0:0:
115,159,208724,1,2,0:2:0:0:
54,94,208959,1,8,1:2:0:0:
116,31,209193,1,2,0:2:0:0:
268,124,209428,5,4,1:0:0:0:
253,228,209662,1,8,1:2:0:0:
238,332,209896,1,8,1:2:0:0:
238,332,210013,1,8,1:2:0:0:
488,381,210365,1,0,1:2:0:0:
486,360,210482,1,8,1:2:0:0:
484,339,210599,1,8,1:2:0:0:
482,318,210717,1,8,1:2:0:0:
480,297,210834,1,8,1:2:0:0:
392,238,211068,1,2,0:2:0:0:
487,191,211303,5,0,1:2:0:0:
492,103,211537,2,0,L|498:36,2,44.00000134277,2|0|8,0:2|0:2|1:2,0:0:0:0:
413,143,212006,1,2,0:2:0:0:
333,180,212240,1,0,1:2:0:0:
312,178,212357,1,8,1:2:0:0:
291,176,212474,1,8,1:2:0:0:
270,174,212592,1,8,1:2:0:0:
249,172,212709,1,4,1:2:0:0:
169,209,212943,1,2,0:2:0:0:
40,41,213178,6,0,B|88:56|88:56|203:22,1,132.0000040283,4|0,1:0|1:2,0:0:0:0:
187,28,213646,1,8,1:2:0:0:
256,83,213881,1,2,0:2:0:0:
193,146,214115,1,0,1:2:0:0:
191,167,214232,1,8,1:2:0:0:
189,188,214349,1,2,0:2:0:0:
251,251,214584,2,0,P|288:263|350:247,1,88.00000268555,8|2,1:2|0:2,0:0:0:0:
391,25,215053,5,4,1:0:0:0:
371,32,215170,1,0,0:2:0:0:
350,39,215287,1,0,0:2:0:0:
328,33,215404,1,0,0:2:0:0:
307,26,215521,1,8,1:2:0:0:
256,83,215756,1,2,0:2:0:0:
301,146,215990,1,0,1:2:0:0:
303,167,216107,1,8,1:2:0:0:
305,188,216224,1,2,0:2:0:0:
243,251,216459,2,0,P|206:263|144:247,1,88.00000268555,8|2,1:2|0:2,0:0:0:0:
9,122,216928,5,4,1:0:0:0:
256,192,217045,12,0,220678,0:2:0:0:
256,192,220795,12,0,224428,0:2:0:0:
