osu file format v14

[General]
AudioFilename: sun.ogg
AudioLeadIn: 0
PreviewTime: 54514
Countdown: 0
SampleSet: Normal
StackLeniency: 0.8
Mode: 3
LetterboxInBreaks: 0
SpecialStyle: 1
WidescreenStoryboard: 0

[Editor]
DistanceSpacing: 0.8
BeatDivisor: 6
GridSize: 32
TimelineZoom: 1.5

[Metadata]
Title:Sun Valley (K2 Remix)
TitleUnicode:Sun Valley (K2 Remix)
Artist:Suguro
ArtistUnicode:Suguro
Creator:Herkkupala
Version:treat
Source:
Tags:
BeatmapID:1265284
BeatmapSetID:598589

[Difficulty]
HPDrainRate:8.5
CircleSize:4
OverallDifficulty:8.5
ApproachRate:5
SliderMultiplier:1.4
SliderTickRate:1

[Events]
//Background and Video events
0,0,"bg.png",0,0
//Break Periods
//Storyboard Layer 0 (Background)
//Storyboard Layer 1 (Fail)
//Storyboard Layer 2 (Pass)
//Storyboard Layer 3 (Foreground)
//Storyboard Sound Samples

[TimingPoints]
1372,342.857143,4,1,0,20,1,0

[HitObjects]
192,192,0,5,0,0:0:0:0:
64,192,0,128,0,86:0:0:0:0:
64,192,171,128,0,257:0:0:0:0:
448,192,343,1,0,0:0:0:0:
320,192,514,128,0,600:0:0:0:0:
320,192,686,128,0,771:0:0:0:0:
320,192,1029,128,0,1114:0:0:0:0:
448,192,1029,1,0,0:0:0:0:
320,192,1200,128,0,1286:0:0:0:0:
448,192,1714,1,0,0:0:0:0:
64,192,2400,1,0,0:0:0:0:
448,192,2400,128,0,2743:0:0:0:0:
192,192,2743,128,0,2829:0:0:0:0:
192,192,2914,128,0,3000:0:0:0:0:
64,192,3086,1,0,0:0:0:0:
192,192,3257,128,0,3343:0:0:0:0:
192,192,3429,128,0,3514:0:0:0:0:
64,192,3772,1,0,0:0:0:0:
192,192,3772,128,0,3857:0:0:0:0:
192,192,3943,128,0,4029:0:0:0:0:
64,192,4457,1,0,0:0:0:0:
64,192,5143,128,0,5486:0:0:0:0:
320,192,5143,1,0,0:0:0:0:
192,192,5486,128,0,5572:0:0:0:0:
192,192,5657,128,0,5743:0:0:0:0:
320,192,5829,1,0,0:0:0:0:
192,192,6000,128,0,6086:0:0:0:0:
192,192,6172,128,0,6257:0:0:0:0:
192,192,6514,128,0,6600:0:0:0:0:
320,192,6514,1,0,0:0:0:0:
192,192,6686,128,0,6772:0:0:0:0:
320,192,7200,1,0,0:0:0:0:
192,192,7886,1,0,0:0:0:0:
320,192,7886,128,0,8229:0:0:0:0:
64,192,8229,1,0,0:0:0:0:
192,192,8229,1,0,0:0:0:0:
448,192,8229,128,0,8314:0:0:0:0:
448,192,8400,128,0,8486:0:0:0:0:
448,192,8743,128,0,8829:0:0:0:0:
448,192,8914,128,0,9000:0:0:0:0:
448,192,9257,128,0,9343:0:0:0:0:
448,192,9429,128,0,9514:0:0:0:0:
64,192,10629,1,0,0:0:0:0:
448,192,10629,1,0,0:0:0:0:
64,192,10972,1,0,0:0:0:0:
448,192,10972,1,0,0:0:0:0:
192,192,11057,1,0,0:0:0:0:
448,192,11143,1,0,0:0:0:0:
64,192,11229,1,0,0:0:0:0:
320,192,11314,1,0,0:0:0:0:
448,192,11314,1,0,0:0:0:0:
192,192,11400,1,0,0:0:0:0:
320,192,11486,1,0,0:0:0:0:
64,192,11572,1,0,0:0:0:0:
192,192,11657,1,0,0:0:0:0:
448,192,11657,1,0,0:0:0:0:
320,192,11743,1,0,0:0:0:0:
192,192,11829,1,0,0:0:0:0:
448,192,11914,1,0,0:0:0:0:
64,192,12000,1,0,0:0:0:0:
320,192,12000,1,0,0:0:0:0:
192,192,12086,1,0,0:0:0:0:
448,192,12172,1,0,0:0:0:0:
64,192,12257,1,0,0:0:0:0:
192,192,12343,1,0,0:0:0:0:
320,192,12343,1,0,0:0:0:0:
448,192,12429,1,0,0:0:0:0:
192,192,12514,1,0,0:0:0:0:
64,192,12600,1,0,0:0:0:0:
320,192,12686,1,0,0:0:0:0:
448,192,12686,1,0,0:0:0:0:
192,192,12772,1,0,0:0:0:0:
64,192,12857,1,0,0:0:0:0:
448,192,12943,1,0,0:0:0:0:
192,192,13029,1,0,0:0:0:0:
320,192,13029,1,0,0:0:0:0:
64,192,13114,1,0,0:0:0:0:
320,192,13200,1,0,0:0:0:0:
192,192,13286,1,0,0:0:0:0:
64,192,13372,1,0,0:0:0:0:
320,192,13372,1,0,0:0:0:0:
448,192,13457,1,0,0:0:0:0:
192,192,13543,1,0,0:0:0:0:
320,192,13629,1,0,0:0:0:0:
64,192,13714,1,0,0:0:0:0:
448,192,13714,1,0,0:0:0:0:
192,192,13800,1,0,0:0:0:0:
320,192,13886,1,0,0:0:0:0:
192,192,13972,1,0,0:0:0:0:
64,192,14057,1,0,0:0:0:0:
320,192,14057,1,0,0:0:0:0:
448,192,14143,1,0,0:0:0:0:
192,192,14229,1,0,0:0:0:0:
64,192,14314,1,0,0:0:0:0:
192,192,14400,1,0,0:0:0:0:
448,192,14400,1,0,0:0:0:0:
320,192,14486,1,0,0:0:0:0:
64,192,14572,1,0,0:0:0:0:
448,192,14657,1,0,0:0:0:0:
192,192,14743,1,0,0:0:0:0:
320,192,14743,1,0,0:0:0:0:
64,192,14829,1,0,0:0:0:0:
448,192,14914,1,0,0:0:0:0:
192,192,15000,1,0,0:0:0:0:
320,192,15086,1,0,0:0:0:0:
448,192,15086,1,0,0:0:0:0:
64,192,15172,1,0,0:0:0:0:
192,192,15257,1,0,0:0:0:0:
448,192,15343,1,0,0:0:0:0:
64,192,15429,1,0,0:0:0:0:
320,192,15429,1,0,0:0:0:0:
192,192,15514,1,0,0:0:0:0:
448,192,15600,1,0,0:0:0:0:
320,192,15686,1,0,0:0:0:0:
64,192,15772,1,0,0:0:0:0:
192,192,15772,1,0,0:0:0:0:
448,192,15857,1,0,0:0:0:0:
320,192,15943,1,0,0:0:0:0:
64,192,16029,1,0,0:0:0:0:
192,192,16114,1,0,0:0:0:0:
448,192,16114,1,0,0:0:0:0:
320,192,16200,1,0,0:0:0:0:
64,192,16286,1,0,0:0:0:0:
192,192,16372,1,0,0:0:0:0:
64,192,16457,1,0,0:0:0:0:
448,192,16457,1,0,0:0:0:0:
320,192,16543,1,0,0:0:0:0:
192,192,16629,1,0,0:0:0:0:
448,192,16714,1,0,0:0:0:0:
64,192,16800,1,0,0:0:0:0:
320,192,16800,1,0,0:0:0:0:
192,192,16886,1,0,0:0:0:0:
448,192,16972,1,0,0:0:0:0:
64,192,17057,1,0,0:0:0:0:
192,192,17143,1,0,0:0:0:0:
320,192,17143,1,0,0:0:0:0:
448,192,17229,1,0,0:0:0:0:
192,192,17314,1,0,0:0:0:0:
320,192,17400,1,0,0:0:0:0:
64,192,17486,1,0,0:0:0:0:
448,192,17486,1,0,0:0:0:0:
192,192,17572,1,0,0:0:0:0:
448,192,17657,1,0,0:0:0:0:
64,192,17743,1,0,0:0:0:0:
192,192,17829,1,0,0:0:0:0:
320,192,17829,1,0,0:0:0:0:
64,192,17914,1,0,0:0:0:0:
448,192,18000,1,0,0:0:0:0:
192,192,18086,1,0,0:0:0:0:
320,192,18172,1,0,0:0:0:0:
448,192,18172,1,0,0:0:0:0:
64,192,18257,1,0,0:0:0:0:
320,192,18343,1,0,0:0:0:0:
192,192,18429,1,0,0:0:0:0:
64,192,18514,1,0,0:0:0:0:
448,192,18514,1,0,0:0:0:0:
320,192,18600,1,0,0:0:0:0:
192,192,18686,1,0,0:0:0:0:
320,192,18772,1,0,0:0:0:0:
192,192,18857,1,0,0:0:0:0:
448,192,18857,1,0,0:0:0:0:
64,192,18943,1,0,0:0:0:0:
320,192,19029,1,0,0:0:0:0:
448,192,19114,1,0,0:0:0:0:
64,192,19200,1,0,0:0:0:0:
192,192,19200,1,0,0:0:0:0:
448,192,19286,1,0,0:0:0:0:
320,192,19372,1,0,0:0:0:0:
192,192,19457,1,0,0:0:0:0:
320,192,19543,1,0,0:0:0:0:
448,192,19543,1,0,0:0:0:0:
192,192,19629,1,0,0:0:0:0:
448,192,19714,1,0,0:0:0:0:
320,192,19800,1,0,0:0:0:0:
64,192,19886,1,0,0:0:0:0:
448,192,19886,1,0,0:0:0:0:
192,192,19972,1,0,0:0:0:0:
320,192,20057,1,0,0:0:0:0:
448,192,20143,1,0,0:0:0:0:
64,192,20229,1,0,0:0:0:0:
320,192,20229,1,0,0:0:0:0:
192,192,20314,1,0,0:0:0:0:
64,192,20400,1,0,0:0:0:0:
320,192,20486,1,0,0:0:0:0:
64,192,20572,1,0,0:0:0:0:
448,192,20572,1,0,0:0:0:0:
64,192,21600,1,0,0:0:0:0:
448,192,21600,1,0,0:0:0:0:
64,192,21943,1,0,0:0:0:0:
448,192,21943,1,0,0:0:0:0:
320,192,22029,1,0,0:0:0:0:
448,192,22114,1,0,0:0:0:0:
192,192,22200,1,0,0:0:0:0:
64,192,22286,1,0,0:0:0:0:
320,192,22286,1,0,0:0:0:0:
192,192,22372,1,0,0:0:0:0:
448,192,22457,1,0,0:0:0:0:
320,192,22543,1,0,0:0:0:0:
64,192,22629,1,0,0:0:0:0:
192,192,22629,1,0,0:0:0:0:
448,192,22714,1,0,0:0:0:0:
320,192,22800,1,0,0:0:0:0:
64,192,22886,1,0,0:0:0:0:
192,192,22972,1,0,0:0:0:0:
448,192,22972,1,0,0:0:0:0:
320,192,23057,1,0,0:0:0:0:
64,192,23143,1,0,0:0:0:0:
448,192,23229,1,0,0:0:0:0:
64,192,23314,1,0,0:0:0:0:
192,192,23314,1,0,0:0:0:0:
320,192,23314,1,0,0:0:0:0:
448,192,23400,1,0,0:0:0:0:
192,192,23486,1,0,0:0:0:0:
320,192,23572,1,0,0:0:0:0:
64,192,23657,1,0,0:0:0:0:
448,192,23657,1,0,0:0:0:0:
192,192,23743,1,0,0:0:0:0:
320,192,23829,1,0,0:0:0:0:
448,192,23829,1,0,0:0:0:0:
64,192,23914,1,0,0:0:0:0:
192,192,24000,1,0,0:0:0:0:
320,192,24000,1,0,0:0:0:0:
448,192,24000,1,0,0:0:0:0:
64,192,24086,1,0,0:0:0:0:
320,192,24172,1,0,0:0:0:0:
192,192,24257,1,0,0:0:0:0:
64,192,24343,1,0,0:0:0:0:
320,192,24343,1,0,0:0:0:0:
448,192,24343,1,0,0:0:0:0:
192,192,24429,1,0,0:0:0:0:
320,192,24514,1,0,0:0:0:0:
448,192,24514,1,0,0:0:0:0:
192,192,24600,1,0,0:0:0:0:
320,192,24686,1,0,0:0:0:0:
448,192,24686,1,0,0:0:0:0:
64,192,24772,1,0,0:0:0:0:
320,192,24857,1,0,0:0:0:0:
192,192,24943,1,0,0:0:0:0:
320,192,25029,1,0,0:0:0:0:
448,192,25029,1,0,0:0:0:0:
64,192,25114,1,0,0:0:0:0:
192,192,25200,1,0,0:0:0:0:
448,192,25286,1,0,0:0:0:0:
64,192,25372,1,0,0:0:0:0:
320,192,25372,1,0,0:0:0:0:
192,192,25457,1,0,0:0:0:0:
448,192,25543,1,0,0:0:0:0:
320,192,25629,1,0,0:0:0:0:
64,192,25714,1,0,0:0:0:0:
192,192,25714,1,0,0:0:0:0:
448,192,25800,1,0,0:0:0:0:
64,192,25886,1,0,0:0:0:0:
192,192,25972,1,0,0:0:0:0:
64,192,26057,1,0,0:0:0:0:
320,192,26057,1,0,0:0:0:0:
448,192,26057,1,0,0:0:0:0:
192,192,26143,1,0,0:0:0:0:
448,192,26229,1,0,0:0:0:0:
64,192,26314,1,0,0:0:0:0:
192,192,26400,1,0,0:0:0:0:
320,192,26400,1,0,0:0:0:0:
448,192,26486,1,0,0:0:0:0:
64,192,26572,1,0,0:0:0:0:
192,192,26572,1,0,0:0:0:0:
320,192,26657,1,0,0:0:0:0:
64,192,26743,1,0,0:0:0:0:
192,192,26743,1,0,0:0:0:0:
448,192,26743,1,0,0:0:0:0:
320,192,26829,1,0,0:0:0:0:
192,192,26914,1,0,0:0:0:0:
320,192,27000,1,0,0:0:0:0:
64,192,27086,1,0,0:0:0:0:
192,192,27086,1,0,0:0:0:0:
448,192,27086,1,0,0:0:0:0:
320,192,27172,1,0,0:0:0:0:
192,192,27257,1,0,0:0:0:0:
448,192,27257,1,0,0:0:0:0:
64,192,27343,1,0,0:0:0:0:
192,192,27429,1,0,0:0:0:0:
320,192,27429,1,0,0:0:0:0:
448,192,27514,1,0,0:0:0:0:
64,192,27600,1,0,0:0:0:0:
320,192,27686,1,0,0:0:0:0:
192,192,27772,1,0,0:0:0:0:
448,192,27772,1,0,0:0:0:0:
320,192,27857,1,0,0:0:0:0:
64,192,27943,1,0,0:0:0:0:
448,192,28029,1,0,0:0:0:0:
192,192,28114,1,0,0:0:0:0:
320,192,28114,1,0,0:0:0:0:
64,192,28200,1,0,0:0:0:0:
320,192,28286,1,0,0:0:0:0:
448,192,28372,1,0,0:0:0:0:
64,192,28457,1,0,0:0:0:0:
192,192,28457,1,0,0:0:0:0:
320,192,28543,1,0,0:0:0:0:
192,192,28629,1,0,0:0:0:0:
448,192,28714,1,0,0:0:0:0:
64,192,28800,1,0,0:0:0:0:
192,192,28800,1,0,0:0:0:0:
320,192,28800,1,0,0:0:0:0:
448,192,28886,1,0,0:0:0:0:
320,192,28972,1,0,0:0:0:0:
192,192,29057,1,0,0:0:0:0:
320,192,29143,1,0,0:0:0:0:
448,192,29143,1,0,0:0:0:0:
64,192,29229,1,0,0:0:0:0:
192,192,29314,1,0,0:0:0:0:
448,192,29314,1,0,0:0:0:0:
320,192,29400,1,0,0:0:0:0:
64,192,29486,1,0,0:0:0:0:
192,192,29486,1,0,0:0:0:0:
448,192,29486,1,0,0:0:0:0:
320,192,29572,1,0,0:0:0:0:
64,192,29657,1,0,0:0:0:0:
192,192,29743,1,0,0:0:0:0:
64,192,29829,1,0,0:0:0:0:
320,192,29829,1,0,0:0:0:0:
448,192,29829,1,0,0:0:0:0:
192,192,29914,1,0,0:0:0:0:
320,192,30000,1,0,0:0:0:0:
448,192,30000,1,0,0:0:0:0:
192,192,30086,1,0,0:0:0:0:
320,192,30172,1,0,0:0:0:0:
448,192,30172,1,0,0:0:0:0:
64,192,30257,1,0,0:0:0:0:
320,192,30343,1,0,0:0:0:0:
192,192,30429,1,0,0:0:0:0:
64,192,30514,1,0,0:0:0:0:
448,192,30514,1,0,0:0:0:0:
192,192,30600,1,0,0:0:0:0:
448,192,30686,1,0,0:0:0:0:
64,192,30772,1,0,0:0:0:0:
192,192,30857,1,0,0:0:0:0:
320,192,30857,1,0,0:0:0:0:
448,192,30943,1,0,0:0:0:0:
64,192,31029,1,0,0:0:0:0:
320,192,31114,1,0,0:0:0:0:
192,192,31200,1,0,0:0:0:0:
448,192,31200,1,0,0:0:0:0:
64,192,31286,1,0,0:0:0:0:
320,192,31372,1,0,0:0:0:0:
192,192,31457,1,0,0:0:0:0:
64,192,31543,1,0,0:0:0:0:
320,192,31543,1,0,0:0:0:0:
448,192,31543,1,0,0:0:0:0:
192,192,31629,1,0,0:0:0:0:
320,192,31714,1,0,0:0:0:0:
64,192,31800,1,0,0:0:0:0:
192,192,31886,1,0,0:0:0:0:
448,192,31886,1,0,0:0:0:0:
320,192,31972,1,0,0:0:0:0:
64,192,32057,1,0,0:0:0:0:
192,192,32057,1,0,0:0:0:0:
448,192,32143,1,0,0:0:0:0:
64,192,32229,1,0,0:0:0:0:
192,192,32229,1,0,0:0:0:0:
320,192,32229,1,0,0:0:0:0:
448,192,32314,1,0,0:0:0:0:
320,192,32400,1,0,0:0:0:0:
192,192,32486,1,0,0:0:0:0:
64,192,32572,1,0,0:0:0:0:
320,192,32572,1,0,0:0:0:0:
448,192,32572,1,0,0:0:0:0:
192,192,32657,1,0,0:0:0:0:
320,192,32743,1,0,0:0:0:0:
448,192,32743,1,0,0:0:0:0:
192,192,32829,1,0,0:0:0:0:
64,192,32914,1,0,0:0:0:0:
320,192,32914,1,0,0:0:0:0:
192,192,33000,1,0,0:0:0:0:
320,192,33086,1,0,0:0:0:0:
448,192,33086,1,0,0:0:0:0:
192,192,33143,1,0,0:0:0:0:
320,192,33200,1,0,0:0:0:0:
64,192,33257,1,0,0:0:0:0:
192,192,33257,1,0,0:0:0:0:
448,192,33343,1,0,0:0:0:0:
192,192,33429,1,0,0:0:0:0:
320,192,33429,1,0,0:0:0:0:
448,192,33486,1,0,0:0:0:0:
64,192,33543,1,0,0:0:0:0:
192,192,33600,1,0,0:0:0:0:
320,192,33600,1,0,0:0:0:0:
448,192,33686,1,0,0:0:0:0:
64,192,33772,1,0,0:0:0:0:
192,192,33857,1,0,0:0:0:0:
320,192,33943,1,0,0:0:0:0:
448,192,33943,1,0,0:0:0:0:
64,192,34029,1,0,0:0:0:0:
320,192,34114,1,0,0:0:0:0:
192,192,34200,1,0,0:0:0:0:
320,192,34286,1,0,0:0:0:0:
448,192,34286,1,0,0:0:0:0:
64,192,34372,1,0,0:0:0:0:
448,192,34457,1,0,0:0:0:0:
192,192,34543,1,0,0:0:0:0:
64,192,34629,1,0,0:0:0:0:
320,192,34629,1,0,0:0:0:0:
192,192,34714,1,0,0:0:0:0:
448,192,34800,1,0,0:0:0:0:
64,192,34886,1,0,0:0:0:0:
192,192,34972,1,0,0:0:0:0:
320,192,34972,1,0,0:0:0:0:
448,192,35057,1,0,0:0:0:0:
64,192,35143,1,0,0:0:0:0:
320,192,35229,1,0,0:0:0:0:
192,192,35314,1,0,0:0:0:0:
448,192,35314,1,0,0:0:0:0:
320,192,35400,1,0,0:0:0:0:
64,192,35486,1,0,0:0:0:0:
448,192,35572,1,0,0:0:0:0:
192,192,35657,1,0,0:0:0:0:
320,192,35657,1,0,0:0:0:0:
64,192,35743,1,0,0:0:0:0:
448,192,35829,1,0,0:0:0:0:
320,192,35914,1,0,0:0:0:0:
64,192,36000,1,0,0:0:0:0:
192,192,36000,1,0,0:0:0:0:
448,192,36086,1,0,0:0:0:0:
320,192,36172,1,0,0:0:0:0:
64,192,36257,1,0,0:0:0:0:
192,192,36343,1,0,0:0:0:0:
448,192,36343,1,0,0:0:0:0:
320,192,36429,1,0,0:0:0:0:
64,192,36514,1,0,0:0:0:0:
192,192,36600,1,0,0:0:0:0:
320,192,36686,1,0,0:0:0:0:
448,192,36686,1,0,0:0:0:0:
192,192,36772,1,0,0:0:0:0:
448,192,36857,1,0,0:0:0:0:
320,192,36943,1,0,0:0:0:0:
64,192,37029,1,0,0:0:0:0:
192,192,37029,1,0,0:0:0:0:
448,192,37114,1,0,0:0:0:0:
320,192,37200,1,0,0:0:0:0:
64,192,37286,1,0,0:0:0:0:
192,192,37372,1,0,0:0:0:0:
448,192,37372,1,0,0:0:0:0:
320,192,37457,1,0,0:0:0:0:
192,192,37543,1,0,0:0:0:0:
448,192,37629,1,0,0:0:0:0:
64,192,37714,1,0,0:0:0:0:
320,192,37714,1,0,0:0:0:0:
192,192,37800,1,0,0:0:0:0:
448,192,37886,1,0,0:0:0:0:
320,192,37972,1,0,0:0:0:0:
64,192,38057,1,0,0:0:0:0:
192,192,38057,1,0,0:0:0:0:
320,192,38143,1,0,0:0:0:0:
448,192,38229,1,0,0:0:0:0:
192,192,38314,1,0,0:0:0:0:
64,192,38400,1,0,0:0:0:0:
320,192,38400,1,0,0:0:0:0:
192,192,38486,1,0,0:0:0:0:
320,192,38572,1,0,0:0:0:0:
448,192,38572,1,0,0:0:0:0:
192,192,38629,1,0,0:0:0:0:
320,192,38686,1,0,0:0:0:0:
64,192,38743,1,0,0:0:0:0:
192,192,38743,1,0,0:0:0:0:
448,192,38829,1,0,0:0:0:0:
192,192,38914,1,0,0:0:0:0:
320,192,38914,1,0,0:0:0:0:
64,192,38972,1,0,0:0:0:0:
448,192,39029,1,0,0:0:0:0:
192,192,39086,1,0,0:0:0:0:
320,192,39086,1,0,0:0:0:0:
64,192,39172,1,0,0:0:0:0:
448,192,39257,1,0,0:0:0:0:
192,192,39343,1,0,0:0:0:0:
64,192,39429,1,0,0:0:0:0:
320,192,39429,1,0,0:0:0:0:
192,192,39514,1,0,0:0:0:0:
448,192,39600,1,0,0:0:0:0:
64,192,39686,1,0,0:0:0:0:
192,192,39772,1,0,0:0:0:0:
320,192,39772,1,0,0:0:0:0:
448,192,39772,1,0,0:0:0:0:
64,192,39857,1,0,0:0:0:0:
320,192,39943,1,0,0:0:0:0:
192,192,40029,1,0,0:0:0:0:
64,192,40114,1,0,0:0:0:0:
320,192,40114,1,0,0:0:0:0:
448,192,40114,1,0,0:0:0:0:
192,192,40200,1,0,0:0:0:0:
448,192,40286,1,0,0:0:0:0:
320,192,40372,1,0,0:0:0:0:
64,192,40457,1,0,0:0:0:0:
192,192,40457,1,0,0:0:0:0:
448,192,40543,1,0,0:0:0:0:
192,192,40629,1,0,0:0:0:0:
320,192,40714,1,0,0:0:0:0:
64,192,40800,1,0,0:0:0:0:
448,192,40800,1,0,0:0:0:0:
320,192,40886,1,0,0:0:0:0:
64,192,40972,1,0,0:0:0:0:
192,192,41057,1,0,0:0:0:0:
320,192,41143,1,0,0:0:0:0:
448,192,41143,1,0,0:0:0:0:
192,192,41229,1,0,0:0:0:0:
64,192,41314,1,0,0:0:0:0:
320,192,41400,1,0,0:0:0:0:
192,192,41486,1,0,0:0:0:0:
448,192,41486,1,0,0:0:0:0:
320,192,41572,1,0,0:0:0:0:
64,192,41657,1,0,0:0:0:0:
448,192,41743,1,0,0:0:0:0:
192,192,41829,1,0,0:0:0:0:
320,192,41829,1,0,0:0:0:0:
64,192,41914,1,0,0:0:0:0:
448,192,42000,1,0,0:0:0:0:
192,192,42086,1,0,0:0:0:0:
320,192,42172,1,0,0:0:0:0:
448,192,42172,1,0,0:0:0:0:
64,192,42257,1,0,0:0:0:0:
192,192,42343,1,0,0:0:0:0:
448,192,42429,1,0,0:0:0:0:
64,192,42514,1,0,0:0:0:0:
320,192,42514,1,0,0:0:0:0:
192,192,42600,1,0,0:0:0:0:
320,192,42686,1,0,0:0:0:0:
64,192,42772,1,0,0:0:0:0:
192,192,42857,1,0,0:0:0:0:
448,192,42857,1,0,0:0:0:0:
320,192,42943,1,0,0:0:0:0:
448,192,43029,1,0,0:0:0:0:
64,192,43114,1,0,0:0:0:0:
192,192,43200,1,0,0:0:0:0:
320,192,43200,1,0,0:0:0:0:
448,192,43286,1,0,0:0:0:0:
64,192,43372,1,0,0:0:0:0:
320,192,43457,1,0,0:0:0:0:
192,192,43543,1,0,0:0:0:0:
448,192,43543,1,0,0:0:0:0:
64,192,43629,1,0,0:0:0:0:
320,192,43714,1,0,0:0:0:0:
192,192,43800,1,0,0:0:0:0:
320,192,43886,1,0,0:0:0:0:
448,192,43886,1,0,0:0:0:0:
64,192,43929,1,0,0:0:0:0:
192,192,43972,1,0,0:0:0:0:
320,192,44057,1,0,0:0:0:0:
448,192,44057,1,0,0:0:0:0:
192,192,44114,1,0,0:0:0:0:
320,192,44172,1,0,0:0:0:0:
64,192,44229,1,0,0:0:0:0:
192,192,44229,1,0,0:0:0:0:
448,192,44314,1,0,0:0:0:0:
192,192,44400,1,0,0:0:0:0:
320,192,44400,1,0,0:0:0:0:
448,192,44457,1,0,0:0:0:0:
64,192,44514,1,0,0:0:0:0:
192,192,44572,1,0,0:0:0:0:
320,192,44572,1,0,0:0:0:0:
448,192,44657,1,0,0:0:0:0:
64,192,44743,1,0,0:0:0:0:
192,192,44829,1,0,0:0:0:0:
320,192,44914,1,0,0:0:0:0:
448,192,44914,1,0,0:0:0:0:
64,192,45000,1,0,0:0:0:0:
320,192,45086,1,0,0:0:0:0:
192,192,45172,1,0,0:0:0:0:
64,192,45257,1,0,0:0:0:0:
448,192,45257,1,0,0:0:0:0:
320,192,45343,1,0,0:0:0:0:
64,192,45429,1,0,0:0:0:0:
448,192,45514,1,0,0:0:0:0:
192,192,45600,1,0,0:0:0:0:
320,192,45600,1,0,0:0:0:0:
64,192,45686,1,0,0:0:0:0:
192,192,45772,1,0,0:0:0:0:
448,192,45857,1,0,0:0:0:0:
64,192,45943,1,0,0:0:0:0:
320,192,45943,1,0,0:0:0:0:
192,192,46029,1,0,0:0:0:0:
448,192,46114,1,0,0:0:0:0:
320,192,46200,1,0,0:0:0:0:
64,192,46286,1,0,0:0:0:0:
192,192,46286,1,0,0:0:0:0:
448,192,46372,1,0,0:0:0:0:
192,192,46457,1,0,0:0:0:0:
320,192,46543,1,0,0:0:0:0:
64,192,46629,1,0,0:0:0:0:
448,192,46629,1,0,0:0:0:0:
192,192,46714,1,0,0:0:0:0:
320,192,46800,1,0,0:0:0:0:
448,192,46800,1,0,0:0:0:0:
192,192,46857,1,0,0:0:0:0:
320,192,46914,1,0,0:0:0:0:
64,192,46972,1,0,0:0:0:0:
192,192,46972,1,0,0:0:0:0:
448,192,47057,1,0,0:0:0:0:
192,192,47143,1,0,0:0:0:0:
320,192,47143,1,0,0:0:0:0:
448,192,47200,1,0,0:0:0:0:
64,192,47257,1,0,0:0:0:0:
192,192,47314,1,0,0:0:0:0:
320,192,47314,1,0,0:0:0:0:
448,192,47400,1,0,0:0:0:0:
64,192,47486,1,0,0:0:0:0:
320,192,47572,1,0,0:0:0:0:
64,192,47657,1,0,0:0:0:0:
192,192,47657,1,0,0:0:0:0:
448,192,47743,1,0,0:0:0:0:
320,192,47829,1,0,0:0:0:0:
64,192,47914,1,0,0:0:0:0:
192,192,48000,1,0,0:0:0:0:
448,192,48000,1,0,0:0:0:0:
320,192,48086,1,0,0:0:0:0:
64,192,48172,1,0,0:0:0:0:
448,192,48257,1,0,0:0:0:0:
192,192,48343,1,0,0:0:0:0:
320,192,48343,1,0,0:0:0:0:
64,192,48429,1,0,0:0:0:0:
448,192,48514,1,0,0:0:0:0:
192,192,48600,1,0,0:0:0:0:
320,192,48686,1,0,0:0:0:0:
448,192,48686,1,0,0:0:0:0:
64,192,48772,1,0,0:0:0:0:
320,192,48857,1,0,0:0:0:0:
448,192,48943,1,0,0:0:0:0:
64,192,49029,1,0,0:0:0:0:
192,192,49029,1,0,0:0:0:0:
448,192,49114,1,0,0:0:0:0:
192,192,49200,1,0,0:0:0:0:
320,192,49286,1,0,0:0:0:0:
64,192,49372,1,0,0:0:0:0:
448,192,49372,1,0,0:0:0:0:
192,192,49457,1,0,0:0:0:0:
320,192,49543,1,0,0:0:0:0:
448,192,49543,1,0,0:0:0:0:
192,192,49600,1,0,0:0:0:0:
320,192,49657,1,0,0:0:0:0:
64,192,49714,1,0,0:0:0:0:
192,192,49714,1,0,0:0:0:0:
320,192,49800,1,0,0:0:0:0:
64,192,49886,1,0,0:0:0:0:
448,192,49886,1,0,0:0:0:0:
192,192,49972,1,0,0:0:0:0:
320,192,50057,1,0,0:0:0:0:
448,192,50057,1,0,0:0:0:0:
192,192,50143,1,0,0:0:0:0:
64,192,50229,1,0,0:0:0:0:
192,192,50314,1,0,0:0:0:0:
320,192,50400,1,0,0:0:0:0:
448,192,50400,1,0,0:0:0:0:
64,192,50486,1,0,0:0:0:0:
320,192,50572,1,0,0:0:0:0:
448,192,50657,1,0,0:0:0:0:
64,192,50743,1,0,0:0:0:0:
192,192,50743,1,0,0:0:0:0:
320,192,50743,1,0,0:0:0:0:
448,192,50829,1,0,0:0:0:0:
320,192,50914,1,0,0:0:0:0:
192,192,51000,1,0,0:0:0:0:
64,192,51086,1,0,0:0:0:0:
320,192,51086,1,0,0:0:0:0:
448,192,51086,1,0,0:0:0:0:
192,192,51172,1,0,0:0:0:0:
448,192,51257,1,0,0:0:0:0:
64,192,51343,1,0,0:0:0:0:
192,192,51429,1,0,0:0:0:0:
320,192,51429,1,0,0:0:0:0:
448,192,51514,1,0,0:0:0:0:
64,192,51600,1,0,0:0:0:0:
320,192,51686,1,0,0:0:0:0:
64,192,51772,1,0,0:0:0:0:
192,192,51772,1,0,0:0:0:0:
448,192,51857,1,0,0:0:0:0:
192,192,51943,1,0,0:0:0:0:
320,192,52029,1,0,0:0:0:0:
64,192,52114,1,0,0:0:0:0:
448,192,52114,1,0,0:0:0:0:
192,192,52200,1,0,0:0:0:0:
448,192,52286,1,0,0:0:0:0:
64,192,52372,1,0,0:0:0:0:
192,192,52457,1,0,0:0:0:0:
320,192,52457,1,0,0:0:0:0:
448,192,52543,1,0,0:0:0:0:
64,192,52629,1,0,0:0:0:0:
192,192,52714,1,0,0:0:0:0:
320,192,52800,1,0,0:0:0:0:
448,192,52800,1,0,0:0:0:0:
64,192,52886,1,0,0:0:0:0:
320,192,52972,1,0,0:0:0:0:
192,192,53057,1,0,0:0:0:0:
64,192,53143,1,0,0:0:0:0:
448,192,53143,1,0,0:0:0:0:
320,192,53229,1,0,0:0:0:0:
192,192,53314,1,0,0:0:0:0:
320,192,53400,1,0,0:0:0:0:
64,192,53486,1,0,0:0:0:0:
448,192,53486,1,0,0:0:0:0:
64,192,54514,1,0,0:0:0:0:
448,192,54514,1,0,0:0:0:0:
64,192,54857,1,0,0:0:0:0:
448,192,54857,1,0,0:0:0:0:
192,192,54943,1,0,0:0:0:0:
320,192,54943,1,0,0:0:0:0:
64,192,55029,1,0,0:0:0:0:
448,192,55029,1,0,0:0:0:0:
192,192,55114,1,0,0:0:0:0:
320,192,55114,1,0,0:0:0:0:
64,192,55200,1,0,0:0:0:0:
448,192,55200,1,0,0:0:0:0:
320,192,55286,1,0,0:0:0:0:
192,192,55372,1,0,0:0:0:0:
64,192,55457,1,0,0:0:0:0:
448,192,55457,1,0,0:0:0:0:
192,192,55543,1,0,0:0:0:0:
320,192,55543,1,0,0:0:0:0:
64,192,55629,1,0,0:0:0:0:
448,192,55629,1,0,0:0:0:0:
192,192,55714,1,0,0:0:0:0:
320,192,55714,1,0,0:0:0:0:
64,192,55800,1,0,0:0:0:0:
192,192,55886,1,0,0:0:0:0:
64,192,55972,1,0,0:0:0:0:
448,192,55972,1,0,0:0:0:0:
192,192,56057,1,0,0:0:0:0:
320,192,56057,1,0,0:0:0:0:
64,192,56143,1,0,0:0:0:0:
448,192,56143,1,0,0:0:0:0:
192,192,56229,1,0,0:0:0:0:
320,192,56229,1,0,0:0:0:0:
192,192,56400,1,0,0:0:0:0:
320,192,56486,1,0,0:0:0:0:
64,192,56572,1,0,0:0:0:0:
192,192,56572,1,0,0:0:0:0:
320,192,56743,1,0,0:0:0:0:
192,192,56829,1,0,0:0:0:0:
320,192,56914,1,0,0:0:0:0:
448,192,56914,1,0,0:0:0:0:
192,192,57086,1,0,0:0:0:0:
320,192,57172,1,0,0:0:0:0:
64,192,57257,1,0,0:0:0:0:
192,192,57257,1,0,0:0:0:0:
320,192,57343,1,0,0:0:0:0:
448,192,57429,1,0,0:0:0:0:
192,192,57514,1,0,0:0:0:0:
320,192,57600,1,0,0:0:0:0:
64,192,57686,1,0,0:0:0:0:
448,192,57686,1,0,0:0:0:0:
192,192,57772,1,0,0:0:0:0:
320,192,57772,1,0,0:0:0:0:
64,192,57857,1,0,0:0:0:0:
448,192,57857,1,0,0:0:0:0:
192,192,57943,1,0,0:0:0:0:
320,192,57943,1,0,0:0:0:0:
64,192,58029,1,0,0:0:0:0:
192,192,58114,1,0,0:0:0:0:
64,192,58200,1,0,0:0:0:0:
320,192,58200,1,0,0:0:0:0:
192,192,58286,1,0,0:0:0:0:
448,192,58286,1,0,0:0:0:0:
64,192,58372,1,0,0:0:0:0:
320,192,58372,1,0,0:0:0:0:
192,192,58457,1,0,0:0:0:0:
448,192,58457,1,0,0:0:0:0:
320,192,58543,1,0,0:0:0:0:
192,192,58629,1,0,0:0:0:0:
64,192,58714,1,0,0:0:0:0:
320,192,58714,1,0,0:0:0:0:
192,192,58800,1,0,0:0:0:0:
448,192,58800,1,0,0:0:0:0:
64,192,58886,1,0,0:0:0:0:
320,192,58886,1,0,0:0:0:0:
192,192,58972,1,0,0:0:0:0:
448,192,58972,1,0,0:0:0:0:
320,192,59143,1,0,0:0:0:0:
192,192,59229,1,0,0:0:0:0:
320,192,59314,1,0,0:0:0:0:
448,192,59314,1,0,0:0:0:0:
192,192,59486,1,0,0:0:0:0:
320,192,59572,1,0,0:0:0:0:
64,192,59657,1,0,0:0:0:0:
192,192,59657,1,0,0:0:0:0:
320,192,59829,1,0,0:0:0:0:
192,192,59914,1,0,0:0:0:0:
320,192,60000,1,0,0:0:0:0:
448,192,60000,1,0,0:0:0:0:
192,192,60086,1,0,0:0:0:0:
64,192,60172,1,0,0:0:0:0:
448,192,60257,1,0,0:0:0:0:
192,192,60343,1,0,0:0:0:0:
320,192,60429,1,0,0:0:0:0:
448,192,60429,1,0,0:0:0:0:
64,192,60514,1,0,0:0:0:0:
192,192,60514,1,0,0:0:0:0:
320,192,60600,1,0,0:0:0:0:
448,192,60600,1,0,0:0:0:0:
64,192,60686,1,0,0:0:0:0:
192,192,60686,1,0,0:0:0:0:
320,192,60772,1,0,0:0:0:0:
448,192,60857,1,0,0:0:0:0:
64,192,60943,1,0,0:0:0:0:
192,192,60943,1,0,0:0:0:0:
320,192,61029,1,0,0:0:0:0:
448,192,61029,1,0,0:0:0:0:
64,192,61114,1,0,0:0:0:0:
192,192,61114,1,0,0:0:0:0:
320,192,61200,1,0,0:0:0:0:
448,192,61200,1,0,0:0:0:0:
192,192,61286,1,0,0:0:0:0:
320,192,61372,1,0,0:0:0:0:
64,192,61457,1,0,0:0:0:0:
192,192,61457,1,0,0:0:0:0:
320,192,61543,1,0,0:0:0:0:
448,192,61543,1,0,0:0:0:0:
64,192,61629,1,0,0:0:0:0:
192,192,61629,1,0,0:0:0:0:
320,192,61714,1,0,0:0:0:0:
448,192,61714,1,0,0:0:0:0:
320,192,61886,1,0,0:0:0:0:
192,192,61972,1,0,0:0:0:0:
320,192,62057,1,0,0:0:0:0:
448,192,62057,1,0,0:0:0:0:
192,192,62229,1,0,0:0:0:0:
320,192,62314,1,0,0:0:0:0:
64,192,62400,1,0,0:0:0:0:
192,192,62400,1,0,0:0:0:0:
320,192,62572,1,0,0:0:0:0:
192,192,62657,1,0,0:0:0:0:
320,192,62743,1,0,0:0:0:0:
448,192,62743,1,0,0:0:0:0:
64,192,62829,1,0,0:0:0:0:
192,192,62914,1,0,0:0:0:0:
320,192,63000,1,0,0:0:0:0:
64,192,63086,1,0,0:0:0:0:
192,192,63172,1,0,0:0:0:0:
320,192,63172,1,0,0:0:0:0:
64,192,63257,1,0,0:0:0:0:
448,192,63257,1,0,0:0:0:0:
192,192,63343,1,0,0:0:0:0:
320,192,63343,1,0,0:0:0:0:
64,192,63429,1,0,0:0:0:0:
448,192,63429,1,0,0:0:0:0:
320,192,63514,1,0,0:0:0:0:
192,192,63600,1,0,0:0:0:0:
64,192,63686,1,0,0:0:0:0:
448,192,63686,1,0,0:0:0:0:
192,192,63772,1,0,0:0:0:0:
320,192,63772,1,0,0:0:0:0:
64,192,63857,1,0,0:0:0:0:
448,192,63857,1,0,0:0:0:0:
192,192,63943,1,0,0:0:0:0:
320,192,63943,1,0,0:0:0:0:
448,192,64029,1,0,0:0:0:0:
320,192,64114,1,0,0:0:0:0:
64,192,64200,1,0,0:0:0:0:
448,192,64200,1,0,0:0:0:0:
192,192,64286,1,0,0:0:0:0:
320,192,64286,1,0,0:0:0:0:
64,192,64372,1,0,0:0:0:0:
448,192,64372,1,0,0:0:0:0:
192,192,64457,1,0,0:0:0:0:
320,192,64457,1,0,0:0:0:0:
192,192,64629,1,0,0:0:0:0:
320,192,64714,1,0,0:0:0:0:
64,192,64800,1,0,0:0:0:0:
192,192,64800,1,0,0:0:0:0:
320,192,64972,1,0,0:0:0:0:
192,192,65057,1,0,0:0:0:0:
320,192,65143,1,0,0:0:0:0:
448,192,65143,1,0,0:0:0:0:
192,192,65314,1,0,0:0:0:0:
320,192,65400,1,0,0:0:0:0:
64,192,65486,1,0,0:0:0:0:
192,192,65486,1,0,0:0:0:0:
320,192,65572,1,0,0:0:0:0:
448,192,65657,1,0,0:0:0:0:
64,192,65743,1,0,0:0:0:0:
192,192,65829,1,0,0:0:0:0:
448,192,65829,1,0,0:0:0:0:
64,192,65914,1,0,0:0:0:0:
320,192,65914,1,0,0:0:0:0:
192,192,66000,1,0,0:0:0:0:
448,192,66000,1,0,0:0:0:0:
64,192,66086,1,0,0:0:0:0:
320,192,66086,1,0,0:0:0:0:
192,192,66172,1,0,0:0:0:0:
448,192,66172,1,0,0:0:0:0:
320,192,66257,1,0,0:0:0:0:
448,192,66343,1,0,0:0:0:0:
64,192,66429,1,0,0:0:0:0:
320,192,66429,1,0,0:0:0:0:
192,192,66514,1,0,0:0:0:0:
448,192,66514,1,0,0:0:0:0:
64,192,66600,1,0,0:0:0:0:
320,192,66600,1,0,0:0:0:0:
192,192,66686,1,0,0:0:0:0:
448,192,66686,1,0,0:0:0:0:
320,192,66772,1,0,0:0:0:0:
192,192,66857,1,0,0:0:0:0:
64,192,66943,1,0,0:0:0:0:
320,192,66943,1,0,0:0:0:0:
192,192,67029,1,0,0:0:0:0:
448,192,67029,1,0,0:0:0:0:
64,192,67114,1,0,0:0:0:0:
320,192,67114,1,0,0:0:0:0:
192,192,67200,1,0,0:0:0:0:
448,192,67200,1,0,0:0:0:0:
320,192,67372,1,0,0:0:0:0:
192,192,67457,1,0,0:0:0:0:
320,192,67543,1,0,0:0:0:0:
448,192,67543,1,0,0:0:0:0:
192,192,67714,1,0,0:0:0:0:
320,192,67800,1,0,0:0:0:0:
64,192,67886,1,0,0:0:0:0:
192,192,67886,1,0,0:0:0:0:
320,192,68057,1,0,0:0:0:0:
192,192,68143,1,0,0:0:0:0:
320,192,68229,1,0,0:0:0:0:
448,192,68229,1,0,0:0:0:0:
192,192,68314,1,0,0:0:0:0:
64,192,68400,1,0,0:0:0:0:
448,192,68486,1,0,0:0:0:0:
320,192,68572,1,0,0:0:0:0:
64,192,68657,1,0,0:0:0:0:
192,192,68657,1,0,0:0:0:0:
320,192,68743,1,0,0:0:0:0:
448,192,68743,1,0,0:0:0:0:
64,192,68829,1,0,0:0:0:0:
192,192,68829,1,0,0:0:0:0:
320,192,68914,1,0,0:0:0:0:
448,192,68914,1,0,0:0:0:0:
192,192,69000,1,0,0:0:0:0:
64,192,69086,1,0,0:0:0:0:
320,192,69172,1,0,0:0:0:0:
448,192,69172,1,0,0:0:0:0:
64,192,69257,1,0,0:0:0:0:
192,192,69257,1,0,0:0:0:0:
320,192,69343,1,0,0:0:0:0:
448,192,69343,1,0,0:0:0:0:
64,192,69429,1,0,0:0:0:0:
192,192,69429,1,0,0:0:0:0:
320,192,69514,1,0,0:0:0:0:
192,192,69600,1,0,0:0:0:0:
320,192,69686,1,0,0:0:0:0:
448,192,69686,1,0,0:0:0:0:
64,192,69772,1,0,0:0:0:0:
192,192,69772,1,0,0:0:0:0:
320,192,69857,1,0,0:0:0:0:
448,192,69857,1,0,0:0:0:0:
64,192,69943,1,0,0:0:0:0:
192,192,69943,1,0,0:0:0:0:
320,192,70114,1,0,0:0:0:0:
192,192,70200,1,0,0:0:0:0:
320,192,70286,1,0,0:0:0:0:
448,192,70286,1,0,0:0:0:0:
192,192,70457,1,0,0:0:0:0:
320,192,70543,1,0,0:0:0:0:
64,192,70629,1,0,0:0:0:0:
192,192,70629,1,0,0:0:0:0:
320,192,70800,1,0,0:0:0:0:
192,192,70886,1,0,0:0:0:0:
320,192,70972,1,0,0:0:0:0:
448,192,70972,1,0,0:0:0:0:
192,192,71057,1,0,0:0:0:0:
64,192,71143,1,0,0:0:0:0:
448,192,71143,1,0,0:0:0:0:
320,192,71229,1,0,0:0:0:0:
448,192,71314,1,0,0:0:0:0:
192,192,71400,1,0,0:0:0:0:
320,192,71400,1,0,0:0:0:0:
64,192,71486,1,0,0:0:0:0:
448,192,71486,1,0,0:0:0:0:
192,192,71572,1,0,0:0:0:0:
320,192,71572,1,0,0:0:0:0:
64,192,71657,1,0,0:0:0:0:
448,192,71657,1,0,0:0:0:0:
192,192,71743,1,0,0:0:0:0:
320,192,71829,1,0,0:0:0:0:
64,192,71914,1,0,0:0:0:0:
448,192,71914,1,0,0:0:0:0:
192,192,72000,1,0,0:0:0:0:
320,192,72000,1,0,0:0:0:0:
64,192,72086,1,0,0:0:0:0:
448,192,72086,1,0,0:0:0:0:
192,192,72172,1,0,0:0:0:0:
320,192,72172,1,0,0:0:0:0:
64,192,72257,1,0,0:0:0:0:
320,192,72343,1,0,0:0:0:0:
64,192,72429,1,0,0:0:0:0:
192,192,72429,1,0,0:0:0:0:
320,192,72514,1,0,0:0:0:0:
448,192,72514,1,0,0:0:0:0:
64,192,72600,1,0,0:0:0:0:
192,192,72600,1,0,0:0:0:0:
320,192,72686,1,0,0:0:0:0:
448,192,72686,1,0,0:0:0:0:
320,192,72857,1,0,0:0:0:0:
192,192,72943,1,0,0:0:0:0:
64,192,73029,1,0,0:0:0:0:
448,192,73029,1,0,0:0:0:0:
192,192,73200,1,0,0:0:0:0:
320,192,73286,1,0,0:0:0:0:
64,192,73372,1,0,0:0:0:0:
448,192,73372,1,0,0:0:0:0:
320,192,73543,1,0,0:0:0:0:
192,192,73629,1,0,0:0:0:0:
64,192,73714,1,0,0:0:0:0:
448,192,73714,1,0,0:0:0:0:
320,192,73800,1,0,0:0:0:0:
192,192,73886,1,0,0:0:0:0:
64,192,73972,1,0,0:0:0:0:
320,192,74057,1,0,0:0:0:0:
448,192,74057,1,0,0:0:0:0:
192,192,74143,1,0,0:0:0:0:
320,192,74229,1,0,0:0:0:0:
192,192,74314,1,0,0:0:0:0:
320,192,74400,1,0,0:0:0:0:
448,192,74572,128,0,74657:0:0:0:0:
448,192,74743,128,0,74829:0:0:0:0:
448,192,75086,128,0,75172:0:0:0:0:
448,192,75257,128,0,75343:0:0:0:0:
64,192,76457,1,0,0:0:0:0:
192,192,76457,1,0,0:0:0:0:
320,192,76457,1,0,0:0:0:0:
448,192,76457,1,0,0:0:0:0:
64,192,76800,1,0,0:0:0:0:
448,192,76800,1,0,0:0:0:0:
320,192,76886,1,0,0:0:0:0:
448,192,76972,1,0,0:0:0:0:
64,192,77057,1,0,0:0:0:0:
192,192,77143,1,0,0:0:0:0:
320,192,77143,1,0,0:0:0:0:
64,192,77229,1,0,0:0:0:0:
448,192,77314,1,0,0:0:0:0:
320,192,77400,1,0,0:0:0:0:
64,192,77486,1,0,0:0:0:0:
192,192,77486,1,0,0:0:0:0:
320,192,77572,1,0,0:0:0:0:
64,192,77657,1,0,0:0:0:0:
448,192,77743,1,0,0:0:0:0:
192,192,77829,1,0,0:0:0:0:
320,192,77829,1,0,0:0:0:0:
448,192,77914,1,0,0:0:0:0:
64,192,78000,1,0,0:0:0:0:
192,192,78086,1,0,0:0:0:0:
64,192,78172,1,0,0:0:0:0:
320,192,78172,1,0,0:0:0:0:
448,192,78172,1,0,0:0:0:0:
192,192,78257,1,0,0:0:0:0:
448,192,78343,1,0,0:0:0:0:
320,192,78429,1,0,0:0:0:0:
64,192,78514,1,0,0:0:0:0:
192,192,78514,1,0,0:0:0:0:
320,192,78600,1,0,0:0:0:0:
64,192,78686,1,0,0:0:0:0:
192,192,78686,1,0,0:0:0:0:
320,192,78772,1,0,0:0:0:0:
64,192,78857,1,0,0:0:0:0:
192,192,78857,1,0,0:0:0:0:
448,192,78857,1,0,0:0:0:0:
320,192,78943,1,0,0:0:0:0:
192,192,79029,1,0,0:0:0:0:
320,192,79114,1,0,0:0:0:0:
64,192,79200,1,0,0:0:0:0:
192,192,79200,1,0,0:0:0:0:
448,192,79200,1,0,0:0:0:0:
320,192,79286,1,0,0:0:0:0:
192,192,79372,1,0,0:0:0:0:
448,192,79372,1,0,0:0:0:0:
320,192,79457,1,0,0:0:0:0:
64,192,79543,1,0,0:0:0:0:
192,192,79543,1,0,0:0:0:0:
448,192,79629,1,0,0:0:0:0:
320,192,79714,1,0,0:0:0:0:
192,192,79800,1,0,0:0:0:0:
320,192,79886,1,0,0:0:0:0:
448,192,79886,1,0,0:0:0:0:
64,192,79972,1,0,0:0:0:0:
192,192,80057,1,0,0:0:0:0:
320,192,80143,1,0,0:0:0:0:
64,192,80229,1,0,0:0:0:0:
192,192,80229,1,0,0:0:0:0:
448,192,80314,1,0,0:0:0:0:
320,192,80400,1,0,0:0:0:0:
192,192,80486,1,0,0:0:0:0:
320,192,80572,1,0,0:0:0:0:
448,192,80572,1,0,0:0:0:0:
64,192,80657,1,0,0:0:0:0:
192,192,80743,1,0,0:0:0:0:
320,192,80829,1,0,0:0:0:0:
64,192,80914,1,0,0:0:0:0:
192,192,80914,1,0,0:0:0:0:
448,192,80914,1,0,0:0:0:0:
320,192,81000,1,0,0:0:0:0:
448,192,81086,1,0,0:0:0:0:
192,192,81172,1,0,0:0:0:0:
64,192,81257,1,0,0:0:0:0:
320,192,81257,1,0,0:0:0:0:
192,192,81343,1,0,0:0:0:0:
64,192,81429,1,0,0:0:0:0:
320,192,81429,1,0,0:0:0:0:
192,192,81514,1,0,0:0:0:0:
64,192,81600,1,0,0:0:0:0:
320,192,81600,1,0,0:0:0:0:
448,192,81600,1,0,0:0:0:0:
192,192,81686,1,0,0:0:0:0:
448,192,81772,1,0,0:0:0:0:
64,192,81857,1,0,0:0:0:0:
192,192,81943,1,0,0:0:0:0:
320,192,81943,1,0,0:0:0:0:
448,192,81943,1,0,0:0:0:0:
64,192,82029,1,0,0:0:0:0:
192,192,82114,1,0,0:0:0:0:
320,192,82114,1,0,0:0:0:0:
448,192,82200,1,0,0:0:0:0:
64,192,82286,1,0,0:0:0:0:
320,192,82286,1,0,0:0:0:0:
192,192,82372,1,0,0:0:0:0:
448,192,82457,1,0,0:0:0:0:
64,192,82543,1,0,0:0:0:0:
192,192,82629,1,0,0:0:0:0:
320,192,82629,1,0,0:0:0:0:
448,192,82714,1,0,0:0:0:0:
192,192,82800,1,0,0:0:0:0:
320,192,82886,1,0,0:0:0:0:
64,192,82972,1,0,0:0:0:0:
448,192,82972,1,0,0:0:0:0:
192,192,83057,1,0,0:0:0:0:
448,192,83143,1,0,0:0:0:0:
64,192,83229,1,0,0:0:0:0:
192,192,83314,1,0,0:0:0:0:
320,192,83314,1,0,0:0:0:0:
448,192,83400,1,0,0:0:0:0:
64,192,83486,1,0,0:0:0:0:
320,192,83572,1,0,0:0:0:0:
64,192,83657,1,0,0:0:0:0:
192,192,83657,1,0,0:0:0:0:
448,192,83657,1,0,0:0:0:0:
320,192,83743,1,0,0:0:0:0:
192,192,83829,1,0,0:0:0:0:
320,192,83914,1,0,0:0:0:0:
192,192,84000,1,0,0:0:0:0:
448,192,84000,1,0,0:0:0:0:
320,192,84086,1,0,0:0:0:0:
192,192,84172,1,0,0:0:0:0:
448,192,84172,1,0,0:0:0:0:
320,192,84257,1,0,0:0:0:0:
64,192,84343,1,0,0:0:0:0:
192,192,84343,1,0,0:0:0:0:
448,192,84343,1,0,0:0:0:0:
320,192,84429,1,0,0:0:0:0:
192,192,84514,1,0,0:0:0:0:
448,192,84600,1,0,0:0:0:0:
64,192,84686,1,0,0:0:0:0:
192,192,84686,1,0,0:0:0:0:
320,192,84686,1,0,0:0:0:0:
448,192,84772,1,0,0:0:0:0:
192,192,84857,1,0,0:0:0:0:
320,192,84857,1,0,0:0:0:0:
64,192,84943,1,0,0:0:0:0:
192,192,85029,1,0,0:0:0:0:
448,192,85029,1,0,0:0:0:0:
320,192,85114,1,0,0:0:0:0:
192,192,85200,1,0,0:0:0:0:
64,192,85286,1,0,0:0:0:0:
192,192,85372,1,0,0:0:0:0:
448,192,85372,1,0,0:0:0:0:
320,192,85457,1,0,0:0:0:0:
192,192,85543,1,0,0:0:0:0:
64,192,85629,1,0,0:0:0:0:
320,192,85714,1,0,0:0:0:0:
448,192,85714,1,0,0:0:0:0:
192,192,85800,1,0,0:0:0:0:
320,192,85886,1,0,0:0:0:0:
448,192,85972,1,0,0:0:0:0:
64,192,86057,1,0,0:0:0:0:
320,192,86057,1,0,0:0:0:0:
192,192,86143,1,0,0:0:0:0:
320,192,86229,1,0,0:0:0:0:
448,192,86314,1,0,0:0:0:0:
64,192,86400,128,0,86829:0:0:0:0:
192,192,86400,1,0,0:0:0:0:
320,192,86400,1,0,0:0:0:0:
448,192,86914,128,0,87064:0:0:0:0:
320,192,87086,128,0,87407:0:0:0:0:
192,192,87429,128,0,87579:0:0:0:0:
64,192,87600,128,0,87750:0:0:0:0:
448,192,87943,1,0,0:0:0:0:
320,192,88000,1,0,0:0:0:0:
192,192,88057,128,0,88286:0:0:0:0:
320,192,88314,1,0,0:0:0:0:
448,192,88343,128,0,88800:0:0:0:0:
