osu file format v14

[General]
AudioFilename: audio.mp3
AudioLeadIn: 0
PreviewTime: 590
Countdown: 0
SampleSet: Soft
StackLeniency: 0.7
Mode: 0
LetterboxInBreaks: 0
WidescreenStoryboard: 1

[Editor]
Bookmarks: 6990,45390
DistanceSpacing: 1
BeatDivisor: 4
GridSize: 16
TimelineZoom: 1.7

[Metadata]
Title:Pursuit - Corner the Culprit
TitleUnicode:追求 ~追いつめられて
Artist:Sugimori Masakazu
ArtistUnicode:杉森雅和
Creator:Yorita Yoshino
Version:VS Auchi (Normal)
Source:逆転裁判 蘇る逆転
Tags:Ace Attorney Gyakuten Saiban Lunala Misure Gyro Zeppeli オリジナル・サウンドトラック OST visual novel adventure video game bgm instrumental Rin Sa capcom pursuit cornered gyakuten saiban nds ds objection Tsuikyuu ~ Oitsumerarete 逆转裁判
BeatmapID:3141229
BeatmapSetID:1529743

[Difficulty]
HPDrainRate:3
CircleSize:3
OverallDifficulty:4
ApproachRate:6
SliderMultiplier:1.2
SliderTickRate:1

[Events]
//Background and Video events
0,0,"911580.jpg",0,0
//Break Periods
//Storyboard Layer 0 (Background)
//Storyboard Layer 1 (Fail)
//Storyboard Layer 2 (Pass)
//Storyboard Layer 3 (Foreground)
//Storyboard Layer 4 (Overlay)
//Storyboard Sound Samples

[TimingPoints]
590,400,4,2,1,60,1,0
3790,-100,4,2,1,70,0,0
6190,-100,4,2,1,90,0,0
6990,-100,4,2,1,90,0,0
12790,-100,4,2,1,90,0,0
38990,-100,4,2,1,60,0,0
40590,-100,4,2,1,70,0,0
45390,-100,4,2,1,90,0,0
51190,-100,4,2,1,90,0,0
77390,-100,4,2,1,60,0,0
78990,-100,4,2,1,70,0,0
83790,-100,4,2,1,60,0,0
85390,-100,4,2,1,50,0,0
86990,-100,4,2,1,40,0,0
88590,-100,4,2,1,30,0,0
93390,-100,4,2,1,5,0,0

[Colours]
Combo1 : 106,112,76
Combo2 : 75,90,173
Combo3 : 176,137,226
Combo4 : 154,47,91

[HitObjects]
0,0,590,5,2,0:1:0:0:
63,63,890,2,0,L|167:41,2,90,2|2|2,0:1|0:1|0:1,0:0:0:0:
10,136,1790,2,0,P|7:171|14:205,1,60,2|2,0:1|0:1,0:0:0:0:
38,248,2190,5,2,0:1:0:0:
124,221,2490,2,0,L|121:131,2,90,2|2|2,0:1|0:1|0:1,0:0:0:0:
202,264,3390,2,0,B|216:294|216:294|210:344,1,60,2|2,0:1|0:1,0:0:0:0:
196,378,3790,5,2,0:1:0:0:
285,369,4090,2,0,L|387:358,2,90,2|2|2,0:1|0:1|0:1,0:0:0:0:
212,320,4990,2,0,L|222:256,1,60,2|2,0:1|0:1,0:0:0:0:
231,201,5390,6,0,B|205:193|205:193|161:211|161:211|130:204,2,90,2|2|2,0:1|0:1|0:1,0:0:0:0:
271,156,6190,2,0,P|235:73|140:49,1,180,0|2,3:0|0:3,0:0:0:0:
100,70,6990,6,0,L|117:182,1,90,6|2,1:1|0:0,0:0:0:0:
35,203,7590,2,0,L|18:315,1,90,2|2,3:0|3:0,0:0:0:0:
91,349,8190,1,10,3:2:0:0:
149,334,8390,1,2,3:1:0:0:
207,320,8590,6,0,P|249:353|287:341,1,90,6|2,1:1|0:0,0:0:0:0:
367,319,9190,2,0,P|374:266|345:239,1,90,2|2,3:0|3:2,0:0:0:0:
299,170,9790,2,0,L|313:96,1,60,10|2,3:2|3:1,0:0:0:0:
276,60,10190,6,0,P|347:76|405:35,1,120,6|8,1:1|3:2,0:0:0:0:
443,35,10790,1,0,0:0:0:0:
472,87,10990,2,0,P|477:120|456:154,1,60,2|0,3:2|0:0,0:0:0:0:
431,192,11390,2,0,P|426:225|447:259,1,60,8|2,3:2|0:0,0:0:0:0:
456,305,11790,6,0,P|394:287|334:316,1,120,6|8,1:1|3:2,0:0:0:0:
247,377,12590,1,2,3:1:0:0:
191,353,12790,2,0,L|197:275,2,60,2|8|2,1:3|1:2|1:3,0:0:0:0:
131,365,13390,6,0,P|79:372|34:323,2,120,6|10|2,1:1|3:2|3:2,0:0:0:0:
117,245,14590,2,0,L|103:158,1,60,2|0,1:1|0:0,0:0:0:0:
97,126,14990,6,0,L|294:143,1,180,6|2,1:1|3:0,0:0:0:0:
336,142,15790,2,0,B|354:83|354:83|324:20,1,120,2|2,3:1|1:1,0:0:0:0:
209,35,16590,6,0,P|160:1|101:0,1,120,6|10,1:1|3:2,0:0:0:0:
18,85,17390,2,0,P|66:118|125:120,1,120,2|8,3:1|0:0,0:0:0:0:
225,188,18190,2,0,L|216:313,1,120,6|10,1:1|3:2,0:0:0:0:
331,341,18990,1,2,3:1:0:0:
446,372,19390,1,2,1:1:0:0:
413,256,19790,6,0,B|385:203|406:161|406:161|430:104|397:67,1,180,6|2,1:1|3:0,0:0:0:0:
375,32,20590,2,0,P|300:38|248:50,1,120,2|10,3:1|3:2,0:0:0:0:
136,36,21390,6,0,P|102:100|119:124,1,90,2|2,0:1|0:1,0:0:0:0:
82,195,21990,2,0,P|103:264|132:269,1,90,2|2,0:1|0:1,0:0:0:0:
185,337,22590,1,2,0:1:0:0:
185,337,22790,1,2,0:1:0:0:
185,337,22990,6,0,L|281:325,1,90,2|2,3:1|3:1,0:0:0:0:
361,350,23590,2,0,B|389:310|389:310|367:216,1,120,2|2,3:1|0:3,0:0:0:0:
386,189,24190,1,2,3:1:0:0:
386,189,24390,1,2,3:1:0:0:
386,189,24590,6,0,P|337:164|295:155,1,90,2|2,3:1|3:1,0:0:0:0:
213,135,25190,2,0,P|209:79|265:36,1,120,2|2,3:1|0:3,0:0:0:0:
317,26,25790,1,2,3:1:0:0:
317,26,25990,1,2,3:1:0:0:
317,26,26190,6,0,L|441:53,2,120,6|8|2,1:0|0:0|3:1,0:0:0:0:
233,116,27390,2,0,P|213:77|218:43,1,60,8|2,3:2|0:1,0:0:0:0:
162,29,27790,6,0,P|74:46|61:87,2,120,6|8|2,1:1|0:0|3:0,0:0:0:0:
129,144,28990,2,0,L|118:203,1,60,8|2,0:0|1:0,0:0:0:0:
109,262,29390,6,0,P|160:235|240:240,1,120,6|8,1:1|0:0,0:0:0:0:
231,353,30190,2,0,P|282:380|362:375,1,120,2|8,3:0|0:0,0:0:0:0:
407,279,30990,6,0,L|469:291,1,60,6|2,1:1|0:3,0:0:0:0:
512,252,31390,1,8,0:0:0:0:
474,138,31790,2,0,L|414:144,1,60,2|2,3:1|3:2,0:0:0:0:
354,146,32190,2,0,L|361:66,1,60,8|2,0:0|0:3,0:0:0:0:
304,62,32590,6,0,P|239:60|176:105,1,120,6|8,1:1|0:2,0:0:0:0:
78,121,33390,2,0,P|76:186|121:249,1,120,2|8,1:1|0:2,0:0:0:0:
115,351,34190,2,0,P|180:353|243:308,1,120,6|8,1:1|0:0,0:0:0:0:
325,258,34990,1,2,1:1:0:0:
430,315,35390,1,2,1:1:0:0:
501,220,35790,6,0,L|487:82,1,120,6|8,1:1|0:2,0:0:0:0:
374,64,36590,2,0,L|386:183,1,120,2|8,1:1|0:2,0:0:0:0:
265,165,37390,2,0,L|251:27,1,120,6|8,1:1|0:2,0:0:0:0:
134,29,38190,1,2,1:1:0:0:
72,131,38590,1,2,1:1:0:0:
149,222,38990,6,0,L|131:360,2,120,6|2|2,1:1|0:0|0:0,0:0:0:0:
259,175,40190,1,2,0:1:0:0:
373,138,40590,6,0,P|391:184|390:224,1,90,2|2,3:1|3:1,0:0:0:0:
361,309,41190,2,0,B|324:295|324:295|252:315,1,90,2|2,3:1|0:1,0:0:0:0:
192,344,41790,1,2,3:1:0:0:
192,344,41990,1,2,0:1:0:0:
192,344,42190,6,0,P|163:289|174:236,1,90,2|2,3:1|3:1,0:0:0:0:
83,222,42790,2,0,P|125:177|193:179,1,120,2|2,3:1|3:1,0:0:0:0:
228,134,43390,2,0,L|231:64,1,60,2|2,3:1|3:1,0:0:0:0:
286,51,43790,5,2,3:1:0:0:
341,74,43990,2,0,L|346:152,2,60,2|2|2,3:0|0:3|0:3,0:0:0:0:
405,10,44690,2,0,P|467:16|489:48,1,90,2|2,1:1|3:1,0:0:0:0:
490,93,45190,1,2,3:1:0:0:
458,143,45390,6,0,L|346:160,1,90,6|2,1:1|0:0,0:0:0:0:
304,219,45990,2,0,L|287:331,1,90,2|2,3:0|3:0,0:0:0:0:
204,335,46590,1,10,3:2:0:0:
147,315,46790,1,2,3:1:0:0:
87,310,46990,6,0,P|63:271|68:224,1,90,6|2,1:1|0:0,0:0:0:0:
106,147,47590,2,0,P|114:94|98:57,1,90,2|2,3:0|3:2,0:0:0:0:
190,49,48190,2,0,L|264:63,1,60,10|2,3:2|3:1,0:0:0:0:
293,100,48590,6,0,P|282:157|308:220,1,120,6|8,1:1|3:2,0:0:0:0:
350,250,49190,1,0,0:0:0:0:
407,232,49390,2,0,P|414:203|413:173,1,60,2|0,3:2|0:0,0:0:0:0:
389,118,49790,2,0,P|381:89|382:59,1,60,8|2,3:2|0:0,0:0:0:0:
329,29,50190,6,0,P|275:75|213:78,1,120,6|8,1:1|3:2,0:0:0:0:
133,154,50990,1,2,3:1:0:0:
154,210,51190,2,0,L|149:269,2,60,2|8|2,1:3|1:2|1:3,0:0:0:0:
213,204,51790,6,0,P|255:237|274:305,2,120,6|10|2,1:1|3:2|3:2,0:0:0:0:
93,194,52990,2,0,L|79:107,1,60,2|0,1:1|0:0,0:0:0:0:
119,86,53390,6,0,P|210:109|306:89,1,180,6|2,1:1|3:0,0:0:0:0:
350,77,54190,2,0,B|404:105|404:105|427:171,1,120,2|2,3:1|1:1,0:0:0:0:
432,280,54990,6,0,B|374:294|374:294|336:344,1,120,6|10,1:1|3:2,0:0:0:0:
227,294,55790,2,0,B|163:299|163:299|109:265,1,120,2|8,3:1|0:0,0:0:0:0:
56,164,56590,2,0,L|83:45,1,120,6|10,1:1|3:2,0:0:0:0:
201,63,57390,1,2,3:1:0:0:
322,53,57790,1,2,1:1:0:0:
430,104,58190,6,0,B|448:138|427:182|427:182|406:224|434:277,1,180,6|2,1:1|3:0,0:0:0:0:
415,334,58990,2,0,P|353:338|288:316,1,120,2|10,3:1|3:2,0:0:0:0:
201,250,59790,6,0,P|205:204|228:159,1,90,2|2,0:1|0:1,0:0:0:0:
281,97,60390,2,0,P|330:93|366:66,1,90,2|2,0:1|0:1,0:0:0:0:
447,31,60990,1,2,0:1:0:0:
447,31,61190,1,2,0:1:0:0:
447,31,61390,6,0,L|459:127,1,90,2|2,3:1|3:1,0:0:0:0:
428,207,61990,2,0,B|388:179|388:179|294:201,1,120,2|2,3:1|0:3,0:0:0:0:
281,242,62590,1,2,3:1:0:0:
281,242,62790,1,2,3:1:0:0:
281,242,62990,6,0,P|256:291|247:333,1,90,2|2,3:1|3:1,0:0:0:0:
170,279,63590,2,0,P|174:217|153:160,1,120,2|2,3:1|0:3,0:0:0:0:
136,117,64190,1,2,3:1:0:0:
136,117,64390,1,2,3:1:0:0:
136,117,64590,6,0,L|260:90,2,120,6|8|2,1:0|0:0|3:1,0:0:0:0:
59,209,65790,2,0,P|62:238|79:263,1,60,8|2,3:2|0:1,0:0:0:0:
129,296,66190,6,0,P|195:295|235:260,2,120,6|8|2,1:1|0:0|3:0,0:0:0:0:
143,176,67390,2,0,L|154:117,1,60,8|2,0:0|1:0,0:0:0:0:
188,67,67790,6,0,L|318:52,1,120,6|8,1:1|0:0,0:0:0:0:
424,26,68590,2,0,L|420:150,1,120,2|8,3:0|0:0,0:0:0:0:
307,187,69390,6,0,L|248:175,1,60,6|2,1:1|0:3,0:0:0:0:
220,121,69790,1,8,0:0:0:0:
100,121,70190,2,0,L|106:181,1,60,2|2,3:1|3:2,0:0:0:0:
140,229,70590,2,0,L|133:309,1,60,8|2,0:0|0:3,0:0:0:0:
134,348,70990,6,0,P|186:320|245:323,1,120,6|8,1:1|0:2,0:0:0:0:
363,345,71790,2,0,P|428:347|491:302,1,120,2|8,1:1|0:2,0:0:0:0:
426,210,72590,2,0,P|361:208|298:253,1,120,6|8,1:1|0:0,0:0:0:0:
215,301,73390,1,2,1:1:0:0:
95,294,73790,1,2,1:1:0:0:
58,179,74190,6,0,L|44:41,1,120,6|8,1:1|0:2,0:0:0:0:
163,33,74990,2,0,L|175:152,1,120,2|8,1:1|0:2,0:0:0:0:
293,173,75790,2,0,L|279:35,1,120,6|8,1:1|0:2,0:0:0:0:
396,84,76590,1,2,1:1:0:0:
452,189,76990,1,2,1:1:0:0:
410,301,77390,6,0,L|272:319,2,120,6|2|2,1:1|0:0|0:0,0:0:0:0:
464,194,78590,1,2,0:1:0:0:
355,141,78990,6,0,P|309:159|269:158,1,90,2|2,3:1|3:1,0:0:0:0:
199,101,79590,2,0,B|141:84|86:104,1,90,2|2,3:1|0:1,0:0:0:0:
50,165,80190,1,2,3:1:0:0:
50,165,80390,1,2,0:1:0:0:
50,165,80590,6,0,P|36:225|60:273,1,90,2|2,3:1|3:1,0:0:0:0:
121,300,81190,2,0,P|163:255|231:257,1,120,2|2,3:1|3:1,0:0:0:0:
273,228,81790,2,0,L|276:158,1,60,2|2,3:1|3:1,0:0:0:0:
275,108,82190,5,2,3:1:0:0:
322,71,82390,2,0,L|400:66,2,60,2|2|2,3:0|0:3|0:3,0:0:0:0:
256,9,83090,2,0,P|194:3|153:17,1,90,2|2,3:1|3:1,0:0:0:0:
111,31,83590,1,2,3:1:0:0:
72,76,83790,6,0,L|89:188,1,90,6|2,1:1|0:0,0:0:0:0:
142,234,84390,2,0,L|125:346,1,90,2|2,3:0|3:0,0:0:0:0:
218,330,84990,1,10,3:2:0:0:
274,354,85190,1,2,3:1:0:0:
333,353,85390,6,0,P|380:343|411:307,1,90,6|2,1:1|0:0,0:0:0:0:
435,227,85990,2,0,P|435:184|408:133,1,90,2|2,3:0|3:2,0:0:0:0:
337,97,86590,2,0,L|263:83,1,60,10|2,3:2|3:1,0:0:0:0:
223,59,86990,6,0,L|97:70,1,120,6|8,1:1|3:2,0:0:0:0:
53,103,87590,1,0,0:0:0:0:
69,160,87790,2,0,P|64:206|51:239,1,60,2|0,3:2|0:0,0:0:0:0:
37,275,88190,2,0,P|42:321|55:354,1,60,8|2,3:2|0:0,0:0:0:0:
102,354,88590,5,4,1:1:0:0:
256,192,88790,12,0,93390,0:0:0:0:
