osu file format v14

[General]
AudioFilename: Someday (2).mp3
AudioLeadIn: 0
PreviewTime: 56581
Countdown: 1
SampleSet: Soft
StackLeniency: 1
Mode: 0
LetterboxInBreaks: 0
WidescreenStoryboard: 0

[Editor]
DistanceSpacing: 1.4
BeatDivisor: 4
GridSize: 8
TimelineZoom: 1

[Metadata]
Title:Someday
TitleUnicode:Someday
Artist:Sugar Ray
ArtistUnicode:Sugar Ray
Creator:TheOnlyMuffin
Version:Hard
Source:
Tags:Someday, Sugar Ray, english, alternative rock
BeatmapID:834992
BeatmapSetID:381740

[Difficulty]
HPDrainRate:7
CircleSize:4.5
OverallDifficulty:7
ApproachRate:7.5
SliderMultiplier:1.6
SliderTickRate:2

[Events]
//Background and Video events
0,0,"Sugar Ray 1459.jpg",0,0
//Break Periods
2,132595,140230
2,158575,174871
//Storyboard Layer 0 (Background)
//Storyboard Layer 1 (Fail)
//Storyboard Layer 2 (Pass)
//Storyboard Layer 3 (Foreground)
//Storyboard Sound Samples

[TimingPoints]
325,541.27198917456,4,2,0,75,1,0
13323,-100,4,2,0,75,0,0
21983,-100,4,2,0,75,0,0
39304,-100,4,2,0,75,0,0
56624,-100,4,2,0,75,0,1
73945,-100,4,2,0,75,0,0
91266,-100,4,2,0,75,0,0
112917,-100,4,2,0,75,0,1
132402,-133.333333333333,4,2,0,75,0,0
141063,-133.333333333333,4,2,0,75,0,0
142145,-100,4,2,0,75,0,0
158383,-100,4,2,0,75,0,0
175704,-100,4,2,0,75,0,0
193025,-100,4,2,0,75,0,0
210346,-100,4,2,0,75,0,0

[Colours]
Combo1 : 163,239,237
Combo2 : 255,121,121
Combo3 : 102,179,255
Combo4 : 255,211,168

[HitObjects]
240,104,13315,6,0,P|176:88|152:168,2,160,4|8|0,0:0|0:0|0:0,0:0:0:0:
144,224,14668,1,0,0:0:0:0:
184,248,14803,1,0,0:0:0:0:
216,208,14939,1,8,0:0:0:0:
224,128,15209,2,0,L|272:128,2,40,0|0|2,0:0|0:0|0:0,0:0:0:0:
336,232,15750,5,0,0:0:0:0:
328,112,16021,1,8,0:0:0:0:
272,208,16292,1,0,0:0:0:0:
392,144,16562,1,0,0:0:0:0:
248,144,16833,1,0,0:0:0:0:
392,208,17104,2,0,P|384:264|296:240,1,160,8|0,0:0|0:0,0:0:0:0:
216,88,17915,5,0,0:0:0:0:
168,96,18051,1,0,0:0:0:0:
136,136,18186,1,8,0:0:0:0:
136,216,18457,1,0,0:0:0:0:
144,264,18592,1,0,0:0:0:0:
176,296,18727,1,0,0:0:0:0:
208,192,18998,2,0,L|384:192,1,160
440,192,19810,6,0,B|440:104|440:104|352:104,1,160,0|8,0:0|0:0,0:0:0:0:
296,104,20622,2,0,L|208:104,1,80
256,176,21163,6,0,L|200:176,2,40,0|0|8,0:0|0:0|0:0,0:0:0:0:
256,104,21704,1,0,0:0:0:0:
136,72,21975,5,0,0:0:0:0:
136,192,22246,1,0,0:0:0:0:
256,72,22516,1,8,0:0:0:0:
208,136,22787,2,0,L|272:208,1,80
272,304,23328,2,0,P|324:280|314:236,1,80,0|8,0:0|0:0,0:0:0:0:
336,192,23869,1,0,0:0:0:0:
328,144,24005,1,0,0:0:0:0:
296,104,24140,1,2,0:0:0:0:
96,272,24681,6,0,B|120:216|144:232|176:264|192:280|208:288|224:280|240:272|248:256,1,160,8|0,0:0|0:0,0:0:0:0:
232,192,25493,1,0,0:0:0:0:
232,112,25764,1,8,0:0:0:0:
232,32,26034,1,0,0:0:0:0:
432,192,26305,6,0,L|320:192,1,80
368,264,26846,1,8,0:0:0:0:
344,296,26982,1,0,0:0:0:0:
304,312,27117,1,0,0:0:0:0:
368,120,27387,1,0,0:0:0:0:
344,88,27523,1,0,0:0:0:0:
304,72,27658,1,0,0:0:0:0:
152,88,27929,6,2,L|152:272,1,160,8|2,0:0|0:0,0:0:0:0:
256,104,28741,5,0,0:0:0:0:
312,144,29011,1,8,0:0:0:0:
320,216,29282,1,0,0:0:0:0:
272,272,29553,1,0,0:0:0:0:
424,112,30094,6,0,B|392:144|408:176|448:208|464:232|408:280,1,160,8|0,0:0|0:0,0:0:0:0:
344,264,30906,1,0,0:0:0:0:
288,216,31177,1,8,0:0:0:0:
280,128,31447,2,0,B|253:162|229:146|197:106|165:90|133:122,1,160
136,192,32259,2,0,L|136:296,1,80,8|0,0:0|0:0,0:0:0:0:
376,312,32800,5,2,0:0:0:0:
376,192,33071,1,0,0:0:0:0:
256,312,33342,1,8,0:0:0:0:
304,248,33612,2,0,L|240:176,1,80
256,72,34154,6,0,P|136:104|104:232,1,240
144,280,35236,2,0,L|248:280,1,80,0|8,0:0|0:0,0:0:0:0:
200,208,35777,2,0,L|288:208,1,80
352,208,36319,1,0,0:0:0:0:
336,160,36454,1,0,0:0:0:0:
304,120,36589,1,8,0:0:0:0:
160,176,36860,5,0,0:0:0:0:
176,224,36995,1,0,0:0:0:0:
208,264,37131,1,0,0:0:0:0:
288,272,37401,2,0,L|384:272,1,80,0|8,0:0|0:0,0:0:0:0:
368,200,37942,2,0,L|368:112,1,80
64,56,38484,6,0,L|112:128,1,80,0|8,0:0|0:0,0:0:0:0:
120,192,39025,1,0,0:0:0:0:
120,232,39160,1,0,0:0:0:0:
120,280,39296,5,2,0:0:0:0:
192,232,39566,1,0,0:0:0:0:
320,232,39837,1,8,0:0:0:0:
256,192,40108,2,0,L|256:80,1,80
336,112,40649,2,0,L|448:112,1,80,0|8,0:0|0:0,0:0:0:0:
416,184,41190,1,0,0:0:0:0:
416,232,41325,1,0,0:0:0:0:
416,280,41461,1,2,0:0:0:0:
224,88,42002,6,0,P|184:88|88:168,2,160,8|0|8,0:0|0:0|0:0,0:0:0:0:
224,168,43355,1,0,0:0:0:0:
224,248,43626,1,0,0:0:0:0:
144,248,43896,1,0,0:0:0:0:
144,320,44167,6,0,B|176:352|208:336|240:296|264:280|312:336,1,160,8|0,0:0|0:0,0:0:0:0:
368,320,44979,1,0,0:0:0:0:
368,272,45114,1,0,0:0:0:0:
368,224,45250,1,8,0:0:0:0:
368,144,45520,1,0,0:0:0:0:
368,96,45656,1,0,0:0:0:0:
368,48,45791,1,2,0:0:0:0:
256,176,46062,6,0,P|176:264|128:168,1,240
192,192,47144,2,0,L|192:96,1,80,0|8,0:0|0:0,0:0:0:0:
264,104,47685,2,0,L|352:104,1,80
424,136,48227,5,0,0:0:0:0:
424,248,48497,1,8,0:0:0:0:
256,160,48768,2,0,L|256:96,2,40
256,224,49309,2,0,L|256:296,2,40,0|0|8,0:0|0:0|0:0,0:0:0:0:
320,192,49850,2,0,L|384:192,2,40,0|0|2,0:0|0:0|0:0,0:0:0:0:
160,192,50663,5,8,0:0:0:0:
256,280,50933,1,0,0:0:0:0:
360,192,51204,1,0,0:0:0:0:
256,192,51745,2,0,B|224:144|240:120|280:104|296:88|288:64|264:32|240:32,1,160,8|0,0:0|0:0,0:0:0:0:
136,272,52557,5,0,0:0:0:0:
216,304,52827,2,0,L|304:304,1,80,8|0,0:0|0:0,0:0:0:0:
368,272,53369,1,0,0:0:0:0:
376,192,53639,5,0,0:0:0:0:
328,192,53775,1,0,0:0:0:0:
280,192,53910,1,8,0:0:0:0:
136,192,54181,1,0,0:0:0:0:
184,192,54317,1,0,0:0:0:0:
232,192,54452,1,2,0:0:0:0:
256,192,54722,12,4,56616,0:0:0:0:
112,224,56887,5,0,0:0:0:0:
120,144,57158,1,8,0:0:0:0:
176,88,57428,1,0,0:0:0:0:
248,80,57699,2,2,L|424:80,1,160,0|8,0:0|0:0,0:0:0:0:
416,240,58511,5,0,0:0:0:0:
360,296,58781,1,0,0:0:0:0:
280,296,59052,1,0,0:0:0:0:
216,256,59323,2,0,P|216:168|304:232,1,240,8|0,0:0|0:0,0:0:0:0:
80,104,60405,6,0,L|120:160,1,40,8|0,0:0|0:0,0:0:0:0:
160,104,60676,2,0,L|208:176,1,80,0|2,0:0|0:0,0:0:0:0:
336,88,61217,5,0,0:0:0:0:
416,88,61488,1,8,0:0:0:0:
416,168,61758,1,0,0:0:0:0:
416,248,62029,2,2,L|256:248,1,160,0|8,0:0|0:0,0:0:0:0:
176,88,62841,5,0,0:0:0:0:
96,88,63112,1,0,0:0:0:0:
96,168,63382,1,0,0:0:0:0:
96,248,63653,2,2,L|256:248,1,160,8|0,0:0|0:0,0:0:0:0:
256,248,64465,2,0,L|256:88,1,160
440,192,65277,5,2,0:0:0:0:
368,192,65547,2,0,L|200:192,1,160
208,112,66359,1,0,0:0:0:0:
136,192,66630,1,0,0:0:0:0:
208,264,66901,1,8,0:0:0:0:
288,192,67442,5,0,0:0:0:0:
288,72,67712,1,0,0:0:0:0:
400,80,67983,2,0,B|344:96|336:152|384:184|416:208|448:240|448:280|432:304|400:320|360:312,1,320,8|10,0:0|0:0,0:0:0:0:
288,312,69336,2,0,L|176:312,1,80,0|4,0:0|0:0,0:0:0:0:
96,56,70148,5,8,0:0:0:0:
157,106,70418,1,0,0:0:0:0:
219,157,70689,1,0,0:0:0:0:
280,216,70960,2,0,L|400:336,1,160
256,192,71772,12,8,73396,0:0:0:0:
256,192,73937,6,0,B|264:152|280:136|320:120|352:128|400:128|424:56|400:32,1,240
328,40,75020,1,0,0:0:0:0:
256,40,75290,1,0,0:0:0:0:
152,312,75561,5,8,0:0:0:0:
112,288,75697,1,0,0:0:0:0:
104,240,75832,1,0,0:0:0:0:
176,248,76102,2,0,L|264:192,1,80,2|0,0:0|0:0,0:0:0:0:
400,288,76643,6,0,L|400:128,1,160,8|0,0:0|0:0,0:0:0:0:
320,144,77455,1,0,0:0:0:0:
256,192,77726,1,8,0:0:0:0:
328,248,77997,1,0,0:0:0:0:
120,72,78267,5,0,0:0:0:0:
208,72,78538,2,0,L|312:72,1,80,0|8,0:0|0:0,0:0:0:0:
360,72,79079,2,0,L|448:72,1,80
440,152,79620,1,0,0:0:0:0:
440,192,79756,1,0,0:0:0:0:
440,232,79891,1,8,0:0:0:0:
360,240,80162,1,0,0:0:0:0:
360,192,80297,1,0,0:0:0:0:
360,144,80432,1,2,0:0:0:0:
136,264,80703,6,0,P|98:187|142:116,2,160
208,192,82056,1,8,0:0:0:0:
256,192,82191,1,0,0:0:0:0:
304,192,82327,1,0,0:0:0:0:
383,125,82598,6,0,P|414:196|376:264,2,160,0|8|0,0:0|0:0|0:0,0:0:0:0:
328,64,83951,1,0,0:0:0:0:
256,64,84221,1,8,0:0:0:0:
184,64,84492,1,0,0:0:0:0:
176,280,84763,6,2,L|336:280,1,160,2|8,0:0|0:0,0:0:0:0:
256,192,85574,1,0,0:0:0:0:
256,112,85845,1,0,0:0:0:0:
120,160,86386,6,0,L|120:72,1,80,8|0,0:0|0:0,0:0:0:0:
256,120,86928,5,0,0:0:0:0:
352,192,87198,1,0,0:0:0:0:
256,256,87469,1,8,0:0:0:0:
160,192,87740,1,0,0:0:0:0:
160,120,88281,6,0,L|160:40,1,80,0|8,0:0|0:0,0:0:0:0:
80,128,88822,2,0,L|80:240,1,80
160,192,89363,5,0,0:0:0:0:
256,256,89634,1,8,0:0:0:0:
352,192,89905,1,0,0:0:0:0:
256,120,90175,1,0,0:0:0:0:
256,192,90446,6,0,L|256:280,1,80,0|8,0:0|0:0,0:0:0:0:
336,248,90987,2,0,L|336:312,2,40,8|0|2,0:0|0:0|0:0,0:0:0:0:
144,144,91528,6,0,L|224:88,1,80,0|8,0:0|0:0,0:0:0:0:
304,96,92070,2,0,L|384:160,1,80
384,240,92611,1,0,0:0:0:0:
360,272,92746,1,0,0:0:0:0:
320,304,92882,1,8,0:0:0:0:
192,304,93152,1,0,0:0:0:0:
152,272,93288,1,0,0:0:0:0:
128,240,93423,1,2,0:0:0:0:
256,72,93964,6,0,P|208:72|192:120,2,80,8|0|0,0:0|0:0|0:0,0:0:0:0:
240,152,94776,2,0,B|264:200|320:224|384:200|408:112|384:72,1,240
304,88,95859,1,0,0:0:0:0:
224,88,96129,1,8,0:0:0:0:
144,88,96400,1,0,0:0:0:0:
176,168,96670,6,0,B|192:216|232:224|248:208|272:192|304:192|336:200|344:232|344:272|336:296|344:320|376:344|408:336|432:320,1,320
256,288,98024,1,0,0:0:0:0:
152,280,98294,1,8,0:0:0:0:
120,192,98565,1,0,0:0:0:0:
288,224,98836,6,0,L|208:152,1,80
256,96,99377,5,8,0:0:0:0:
360,104,99647,1,0,0:0:0:0:
392,192,99918,1,0,0:0:0:0:
304,192,100189,2,0,L|200:192,1,80,0|8,0:0|0:0,0:0:0:0:
264,280,100730,2,2,B|168:304|112:200|160:128,1,240,0|8,0:0|0:0,0:0:0:0:
240,128,101813,2,0,L|328:128,1,80,0|2,0:0|0:0,0:0:0:0:
128,80,102624,5,8,0:0:0:0:
128,192,102895,1,0,0:0:0:0:
256,120,103166,2,0,P|256:176|184:264,1,160,0|8,0:0|0:0,0:0:0:0:
200,328,103978,2,0,L|304:328,1,80
320,72,104519,5,0,0:0:0:0:
360,88,104655,1,0,0:0:0:0:
376,128,104790,1,8,0:0:0:0:
376,200,105060,2,0,L|208:200,1,160
144,200,105872,1,8,0:0:0:0:
120,240,106007,1,0,0:0:0:0:
136,280,106143,1,0,0:0:0:0:
256,288,106413,5,0,0:0:0:0:
384,80,106955,5,8,0:0:0:0:
384,192,107226,1,0,0:0:0:0:
256,120,107497,2,0,P|256:176|328:264,1,160,0|8,0:0|0:0,0:0:0:0:
312,328,108309,2,0,L|208:328,1,80
136,104,108849,5,0,0:0:0:0:
120,144,108985,1,0,0:0:0:0:
144,184,109120,1,8,0:0:0:0:
216,184,109391,2,0,L|376:184,1,160
376,256,110202,1,8,0:0:0:0:
360,296,110337,1,0,0:0:0:0:
320,312,110473,1,0,0:0:0:0:
256,192,110744,12,2,112638,0:0:0:0:
168,192,112909,6,0,P|262:84|338:204,1,320,4|0,0:0|0:0,0:0:0:0:
256,168,114262,1,0,0:0:0:0:
256,240,114532,1,8,0:0:0:0:
256,312,114803,1,0,0:0:0:0:
120,64,115074,5,0,0:0:0:0:
144,104,115209,1,0,0:0:0:0:
168,144,115344,1,0,0:0:0:0:
200,208,115615,2,2,B|232:184|280:184|296:224|320:256|352:248|368:224,1,160,8|0,0:0|0:0,0:0:0:0:
416,80,116427,2,0,L|328:80,1,80,0|8,0:0|0:0,0:0:0:0:
368,152,116968,2,0,L|264:152,1,80,0|2,0:0|0:0,0:0:0:0:
256,296,117509,5,0,0:0:0:0:
352,232,117780,1,8,0:0:0:0:
168,208,118051,1,0,0:0:0:0:
408,136,118321,2,0,B|384:104|304:104|240:128|216:152|176:152|128:128|96:96,1,320
104,200,119675,5,0,0:0:0:0:
104,288,119945,1,8,0:0:0:0:
192,288,120216,1,0,0:0:0:0:
192,192,120757,2,0,L|288:192,1,80,0|8,0:0|0:0,0:0:0:0:
256,272,121298,2,0,L|352:272,1,80,0|6,0:0|0:0,0:0:0:0:
392,80,121840,5,0,0:0:0:0:
392,160,122110,1,8,0:0:0:0:
304,80,122381,1,0,0:0:0:0:
304,160,122652,1,0,0:0:0:0:
256,160,122787,1,0,0:0:0:0:
208,160,122922,1,0,0:0:0:0:
136,160,123193,2,0,L|136:264,1,80,8|0,0:0|0:0,0:0:0:0:
384,296,123734,6,0,L|384:192,1,80
312,256,124275,2,0,L|312:176,1,80,8|0,0:0|0:0,0:0:0:0:
304,176,125087,1,0,0:0:0:0:
216,176,125358,1,8,0:0:0:0:
216,88,125628,1,0,0:0:0:0:
320,88,125899,1,2,0:0:0:0:
128,296,126440,6,0,L|232:296,2,80,8|0|0,0:0|0:0|0:0,0:0:0:0:
168,208,127252,1,0,0:0:0:0:
112,128,127523,1,8,0:0:0:0:
240,152,127794,1,0,0:0:0:0:
336,56,128064,6,0,P|312:104|336:128,1,80
392,128,128606,6,0,P|416:176|392:200,1,80,8|0,0:0|0:0,0:0:0:0:
336,192,129147,6,0,P|312:240|336:264,1,80
392,264,129688,6,0,P|416:312|392:336,1,80,8|0,0:0|0:0,0:0:0:0:
328,328,130229,5,4,0:0:0:0:
256,192,130500,12,8,131853,0:0:0:0:
256,192,132395,5,8,0:0:0:0:
256,192,141055,6,0,P|256:136|184:136,2,120.000004577637,0|8|0,0:0|0:0|0:0,0:0:0:0:
192,264,142408,2,0,L|288:264,1,80,0|8,0:0|0:0,0:0:0:0:
248,336,142949,2,0,L|336:336,1,80
400,152,143761,5,8,0:0:0:0:
368,72,144032,1,0,0:0:0:0:
288,72,144302,1,0,0:0:0:0:
312,152,144573,2,0,L|240:192,1,80,0|8,0:0|0:0,0:0:0:0:
304,240,145114,2,0,L|224:280,1,80,0|2,0:0|0:0,0:0:0:0:
128,120,145926,6,0,B|152:152|192:152|208:136|216:120|232:104|256:96|280:112|288:120,2,160,8|0|8,0:0|0:0|0:0,0:0:0:0:
256,176,147279,1,0,0:0:0:0:
192,232,147550,1,0,0:0:0:0:
256,296,147821,1,0,0:0:0:0:
416,192,148091,6,0,L|416:304,1,80,8|0,0:0|0:0,0:0:0:0:
344,272,148633,2,2,B|344:72|344:72|192:72,1,320,0|2,0:0|0:0,0:0:0:0:
144,168,150257,6,0,P|112:216|184:312,2,160,8|0|8,0:0|0:0|0:0,0:0:0:0:
216,160,151610,2,0,L|216:64,1,80
288,80,152422,1,8,0:0:0:0:
360,80,152692,1,0,0:0:0:0:
432,80,152963,1,0,0:0:0:0:
416,304,153233,6,0,L|328:256,1,80,0|8,0:0|0:0,0:0:0:0:
416,224,153775,2,0,L|328:176,1,80
272,232,154587,1,8,0:0:0:0:
192,232,154857,1,0,0:0:0:0:
192,304,155128,1,0,0:0:0:0:
72,272,155399,6,0,B|48:240|48:224|48:192|64:184|80:168|80:136|64:104,1,160
144,184,156210,6,0,L|200:256,1,80
232,184,156752,2,0,L|288:256,1,80,8|0,0:0|0:0,0:0:0:0:
320,224,157158,1,0,0:0:0:0:
360,200,157293,1,0,0:0:0:0:
424,168,157564,2,0,L|368:80,1,80,8|8,0:0|0:0,0:0:0:0:
320,128,158105,2,0,L|288:80,2,40,8|8|2,0:0|0:0|0:0,0:0:0:0:
112,168,175696,6,0,B|144:208|192:224|232:216|272:176|296:144|320:120|392:128|400:144|408:160,1,320
352,224,177049,2,0,L|272:280,1,80,0|8,0:0|0:0,0:0:0:0:
200,272,177591,1,0,0:0:0:0:
168,232,177726,1,0,0:0:0:0:
136,192,177861,1,2,0:0:0:0:
256,312,178403,6,0,P|304:312|320:264,2,80,8|0|0,0:0|0:0|0:0,0:0:0:0:
272,232,179215,2,0,B|248:184|192:160|128:184|104:272|128:312,1,240
208,296,180298,1,0,0:0:0:0:
288,296,180568,1,8,0:0:0:0:
368,296,180839,1,0,0:0:0:0:
176,216,181109,6,2,B|192:168|232:160|248:176|272:192|304:192|336:184|344:152|344:112|336:88|344:64|376:40|408:48|432:64,1,320,0|2,0:0|0:0,0:0:0:0:
256,96,182463,1,0,0:0:0:0:
152,104,182733,1,8,0:0:0:0:
120,192,183004,1,0,0:0:0:0:
224,160,183275,6,0,L|304:232,1,80
320,280,183815,1,8,0:0:0:0:
288,312,183951,1,0,0:0:0:0:
240,296,184086,1,0,0:0:0:0:
256,128,184357,6,0,B|272:240|192:288|72:248|104:120,1,320
176,160,185710,2,0,L|176:64,1,80,0|8,0:0|0:0,0:0:0:0:
248,80,186251,1,0,0:0:0:0:
288,80,186386,1,0,0:0:0:0:
328,80,186522,1,0,0:0:0:0:
344,160,187063,6,0,B|320:232|360:256|368:280|376:304|328:336,2,160,8|0|8,0:0|0:0|0:0,0:0:0:0:
272,160,188416,2,0,L|160:160,1,80
128,232,188957,5,0,0:0:0:0:
208,232,189228,1,8,0:0:0:0:
208,312,189499,1,0,0:0:0:0:
288,48,189769,2,0,L|288:216,1,160,0|8,0:0|0:0,0:0:0:0:
352,328,190852,6,0,L|352:136,1,160,0|8,0:0|0:0,0:0:0:0:
256,192,191664,6,0,L|168:192,1,80
176,120,192205,2,0,L|88:120,1,80,8|8,0:0|0:0,0:0:0:0:
136,48,192746,1,0,0:0:0:0:
96,48,192882,1,0,0:0:0:0:
56,48,193017,1,2,0:0:0:0:
328,56,193288,6,0,B|432:56|432:56|432:192,1,240
352,128,194370,1,0,0:0:0:0:
272,128,194641,1,8,0:0:0:0:
272,208,194911,1,0,0:0:0:0:
184,328,195182,6,0,B|80:328|80:328|80:248,1,160,0|8,0:0|0:0,0:0:0:0:
80,200,195994,2,0,L|80:112,1,80
160,160,196535,1,0,0:0:0:0:
224,208,196806,1,8,0:0:0:0:
232,288,197076,1,0,0:0:0:0:
184,56,197347,6,0,B|80:56|80:56|80:192,1,240
160,128,198429,1,0,0:0:0:0:
240,128,198700,1,0,0:0:0:0:
240,200,198971,2,0,B|240:304|240:304|328:304,1,160,8|0,0:0|0:0,0:0:0:0:
432,64,199783,6,0,L|344:128,1,80,0|8,0:0|0:0,0:0:0:0:
280,96,200324,1,0,0:0:0:0:
280,184,200595,1,0,0:0:0:0:
256,304,201136,6,0,B|256:248|200:256|128:272|144:192|144:192|144:192,1,160,8|2,0:0|0:0,0:0:0:0:
144,136,201948,2,0,L|256:136,1,80,0|8,0:0|0:0,0:0:0:0:
304,136,202489,1,0,0:0:0:0:
336,176,202624,1,0,0:0:0:0:
320,224,202760,1,0,0:0:0:0:
408,136,203030,6,0,L|408:216,1,80,0|8,0:0|0:0,0:0:0:0:
447,71,203572,2,0,P|410:59|375:75,1,80
160,192,204383,5,8,0:0:0:0:
256,280,204654,1,0,0:0:0:0:
336,192,204925,1,0,0:0:0:0:
256,192,205466,2,0,B|224:144|240:120|280:104|296:88|288:64|264:32|240:32,1,160,8|0,0:0|0:0,0:0:0:0:
256,192,206278,6,0,B|224:240|240:264|280:280|296:296|288:320|264:352|240:352,1,160
328,192,207090,2,0,L|424:192,1,80
184,192,207631,2,0,L|88:192,1,80,8|0,0:0|0:0,0:0:0:0:
256,192,208173,12,2,210338,0:0:0:0:
