osu file format v14

[General]
AudioFilename: audio.mp3
AudioLeadIn: 0
PreviewTime: 70800
Countdown: 0
SampleSet: Soft
StackLeniency: 0.7
Mode: 0
LetterboxInBreaks: 0
WidescreenStoryboard: 0

[Editor]
DistanceSpacing: 0.3
BeatDivisor: 4
GridSize: 16
TimelineZoom: 1

[Metadata]
Title:Country Road
TitleUnicode:Country Road
Artist:Sugai Hiromi
ArtistUnicode:Sugai Hiromi
Creator:Sneaky_Pilot
Version:By the side
Source:
Tags:
BeatmapID:1763121
BeatmapSetID:842619

[Difficulty]
HPDrainRate:4
CircleSize:4
OverallDifficulty:4
ApproachRate:8.5
SliderMultiplier:1.4
SliderTickRate:1

[Events]
//Background and Video events
0,0,"country road.jpg",0,0
//Break Periods
//Storyboard Layer 0 (Background)
//Storyboard Layer 1 (Fail)
//Storyboard Layer 2 (Pass)
//Storyboard Layer 3 (Foreground)
//Storyboard Sound Samples

[TimingPoints]
7650,600,4,2,0,50,1,0
31800,-66.6666666666667,4,2,0,50,0,0
70800,-66.6666666666667,4,2,0,50,0,1
90600,-66.6666666666667,4,2,0,50,0,0
109200,-66.6666666666667,4,2,0,50,0,1
129000,-66.6666666666667,4,2,0,50,0,0

[HitObjects]
81,73,7650,6,0,P|109:148|149:211,1,140
180,250,8550,2,0,P|259:290|305:275,1,140
255,201,9450,1,0,0:0:0:0:
255,201,9750,1,0,0:0:0:0:
147,112,10200,1,0,0:0:0:0:
176,101,10350,2,0,P|229:88|256:89,1,70
397,98,10950,2,0,P|416:143|401:187,1,70
384,267,11550,6,0,P|322:283|265:288,1,105
279,285,12300,1,0,0:0:0:0:
154,287,12600,1,0,0:0:0:0:
80,211,12900,2,0,P|92:134|117:112,1,105
206,88,13650,2,0,L|346:92,1,140
394,183,14550,1,0,0:0:0:0:
269,183,14850,1,0,0:0:0:0:
338,293,15150,1,0,0:0:0:0:
202,277,15450,6,0,L|141:145,1,140
231,115,16350,2,0,L|292:246,1,140
151,258,17250,1,0,0:0:0:0:
149,205,17550,1,0,0:0:0:0:
147,160,17850,1,0,0:0:0:0:
340,217,18150,6,0,P|303:174|329:152,1,70
410,133,18600,1,0,0:0:0:0:
402,297,18900,2,0,L|266:299,1,105
195,298,19650,2,0,P|131:238|153:181,1,140
140,195,20550,1,0,0:0:0:0:
290,94,20850,1,0,0:0:0:0:
290,94,21000,1,0,0:0:0:0:
290,94,21150,1,0,0:0:0:0:
403,183,21450,6,0,L|374:263,1,70
316,148,22050,2,0,L|278:222,1,70
153,125,22650,1,0,0:0:0:0:
73,202,22950,1,0,0:0:0:0:
237,252,23250,1,0,0:0:0:0:
362,149,23550,1,0,0:0:0:0:
362,149,23700,1,0,0:0:0:0:
362,149,23850,1,0,0:0:0:0:
346,266,24150,6,0,L|213:321,1,140
215,318,25050,1,0,0:0:0:0:
109,133,25350,1,0,0:0:0:0:
401,83,26100,1,0,0:0:0:0:
323,178,26250,2,0,L|254:246,1,70
110,307,26850,2,0,B|117:194|116:194|219:299|246:294|276:274|142:126|233:92|423:100|274:343|467:269|456:184|418:28|356:42|304:50|208:98,1,630
253,118,31800,5,0,0:0:0:0:
253,118,32100,1,0,0:0:0:0:
253,118,32400,1,0,0:0:0:0:
176,213,32550,1,0,0:0:0:0:
203,216,32700,2,0,L|327:222,1,105
336,224,33150,5,0,0:0:0:0:
326,74,33450,1,0,0:0:0:0:
118,90,33750,2,0,L|113:168,2,52.5000020027161
320,179,34200,1,0,0:0:0:0:
320,179,34350,2,0,L|267:230,1,52.5000020027161
247,240,34800,2,0,L|170:256,2,52.5000020027161
147,275,35400,5,0,0:0:0:0:
147,275,35700,1,0,0:0:0:0:
147,275,36000,1,0,0:0:0:0:
147,275,36150,2,0,L|244:193,1,105.000004005432
282,170,36600,1,0,0:0:0:0:
344,136,36750,2,0,L|465:139,1,105.000004005432
302,274,37350,5,0,0:0:0:0:
203,191,37650,1,0,0:0:0:0:
123,84,37950,1,0,0:0:0:0:
347,69,38250,2,0,L|353:146,3,52.5000020027161
181,300,39000,5,0,0:0:0:0:
89,160,39300,1,0,0:0:0:0:
214,64,39600,1,0,0:0:0:0:
343,217,39900,1,0,0:0:0:0:
250,221,40200,1,0,0:0:0:0:
250,221,40350,1,0,0:0:0:0:
92,219,40650,6,0,L|90:93,1,105.000004005432
221,111,41250,2,0,L|372:114,1,105.000004005432
265,200,41700,1,0,0:0:0:0:
293,233,41850,2,0,L|395:309,1,105.000004005432
175,298,42450,1,0,0:0:0:0:
61,302,42750,6,0,L|88:153,1,105.000004005432
101,159,43200,1,0,0:0:0:0:
119,131,43350,2,0,P|174:75|214:64,1,105.000004005432
237,65,43800,1,0,0:0:0:0:
404,160,43950,2,0,L|401:285,1,105.000004005432
293,146,44550,2,0,L|295:295,1,105.000004005432
138,145,45150,5,0,0:0:0:0:
66,271,45450,1,0,0:0:0:0:
256,266,45750,1,0,0:0:0:0:
227,88,46050,2,0,L|344:86,1,105.000004005432
323,229,46650,6,0,L|218:134,1,105.000004005432
167,86,47250,1,0,0:0:0:0:
128,268,47550,2,0,L|267:282,1,105.000004005432
128,268,48150,2,0,L|267:282,1,105.000004005432
299,177,48750,1,0,0:0:0:0:
405,91,49050,2,0,L|444:229,1,105.000004005432
231,68,49650,6,0,L|92:117,1,105.000004005432
170,229,50250,2,0,P|208:292|272:319,1,105.000004005432
273,221,50850,1,0,0:0:0:0:
273,221,51150,1,0,0:0:0:0:
273,221,51450,1,0,0:0:0:0:
411,226,51750,2,0,L|403:106,1,105.000004005432
161,112,52350,6,0,L|138:232,1,105.000004005432
138,244,52800,1,0,0:0:0:0:
144,283,52950,2,0,P|201:317|266:310,1,105.000004005432
229,216,53400,1,0,0:0:0:0:
238,182,53550,2,0,L|257:70,1,105.000004005432
389,125,54150,5,0,0:0:0:0:
351,236,54450,1,0,0:0:0:0:
254,152,54750,2,0,L|101:149,1,105.000004005432
109,165,55350,2,0,L|47:275,1,105.000004005432
207,238,55800,1,0,0:0:0:0:
214,240,55950,2,0,L|371:243,1,157.500006008148
209,103,56700,5,0,0:0:0:0:
255,200,57000,1,0,0:0:0:0:
344,304,57450,2,0,P|436:237|414:146,1,210.000008010865
422,155,58350,1,0,0:0:0:0:
293,130,58650,2,0,L|120:90,1,157.500006008148
118,184,59400,5,0,0:0:0:0:
118,184,59550,1,0,0:0:0:0:
118,184,59700,1,0,0:0:0:0:
128,290,60000,5,0,0:0:0:0:
128,290,60150,1,0,0:0:0:0:
128,290,60300,1,0,0:0:0:0:
158,292,60450,6,0,L|317:297,1,157.500006008148
323,207,61050,2,0,L|126:93,1,210.000008010865
59,54,61800,5,0,0:0:0:0:
304,165,62100,1,0,0:0:0:0:
304,165,62250,1,0,0:0:0:0:
343,272,62400,1,0,0:0:0:0:
343,272,62550,2,0,L|193:289,1,105.000004005432
179,290,63000,5,0,0:0:0:0:
140,288,63150,2,0,L|148:150,1,105.000004005432
280,99,63750,1,0,0:0:0:0:
366,201,63900,1,0,0:0:0:0:
239,203,64050,1,0,0:0:0:0:
307,186,64200,2,0,L|300:360,1,157.500006008148
175,332,64800,1,0,0:0:0:0:
84,231,64950,6,0,L|207:157,1,105.000004005432
292,108,65400,1,0,0:0:0:0:
399,91,65700,1,0,0:0:0:0:
394,198,66000,2,0,L|228:268,1,157.500006008148
248,259,66600,2,0,L|100:142,1,157.500006008148
117,157,67200,1,0,0:0:0:0:
117,157,67350,1,0,0:0:0:0:
117,157,67500,1,0,0:0:0:0:
285,93,67800,6,0,L|394:256,1,157.500006008148
395,254,68400,1,0,0:0:0:0:
204,232,68550,2,0,L|77:158,1,105.000004005432
204,232,69000,2,0,L|321:298,1,105.000004005432
204,232,69450,2,0,L|278:119,1,105.000004005432
204,232,69900,2,0,L|127:343,1,105.000004005432
201,232,70350,1,0,0:0:0:0:
379,109,70800,6,0,L|330:296,1,157.500006008148
379,109,71400,2,0,L|218:168,1,157.500006008148
124,69,72000,1,0,0:0:0:0:
288,208,72150,1,0,0:0:0:0:
158,233,72300,1,0,0:0:0:0:
382,313,72450,2,0,L|236:306,1,105.000004005432
309,136,73050,1,0,0:0:0:0:
309,136,73200,1,0,0:0:0:0:
309,136,73350,1,0,0:0:0:0:
309,136,73650,6,0,L|146:150,1,157.500006008148
346,216,74250,1,0,0:0:0:0:
194,240,74400,1,0,0:0:0:0:
283,322,74550,1,0,0:0:0:0:
266,224,74700,2,0,L|261:103,1,105.000004005432
261,119,75150,1,0,0:0:0:0:
261,119,75300,1,0,0:0:0:0:
85,63,75600,6,0,B|131:124|108:133|136:166|239:82,1,157.500006008148
226,99,76200,1,0,0:0:0:0:
255,89,76350,1,0,0:0:0:0:
283,81,76500,1,0,0:0:0:0:
112,212,76650,2,0,B|158:273|135:282|163:315|266:231,1,157.500006008148
253,248,77250,1,0,0:0:0:0:
282,238,77400,1,0,0:0:0:0:
310,230,77550,1,0,0:0:0:0:
400,90,77850,6,0,L|277:128,2,105.000004005432
430,187,78600,2,0,L|307:225,2,105.000004005432
193,130,79500,1,0,0:0:0:0:
193,130,79800,1,0,0:0:0:0:
193,130,80100,1,0,0:0:0:0:
317,233,80400,1,0,0:0:0:0:
317,233,80700,1,0,0:0:0:0:
317,233,80850,6,0,L|187:203,1,105.000004005432
175,232,81300,1,0,0:0:0:0:
169,287,81450,2,0,L|282:318,1,105.000004005432
301,325,81900,1,0,0:0:0:0:
343,328,82050,1,0,0:0:0:0:
378,330,82200,1,0,0:0:0:0:
332,207,82500,1,0,0:0:0:0:
302,94,82800,6,0,L|227:95,2,52.5000020027161
120,147,83400,1,0,0:0:0:0:
193,241,83700,1,0,0:0:0:0:
309,242,84000,1,0,0:0:0:0:
303,335,84300,2,0,L|128:330,1,157.500006008148
141,138,85050,1,0,0:0:0:0:
277,143,85200,1,0,0:0:0:0:
197,273,85350,1,0,0:0:0:0:
200,196,85500,6,0,L|200:65,1,105.000004005432
200,91,85950,2,0,L|336:90,1,105.000004005432
304,90,86400,2,0,L|301:243,1,105.000004005432
220,264,87000,1,0,0:0:0:0:
69,242,87300,1,0,0:0:0:0:
401,102,87600,2,0,L|251:221,1,157.500006008148
401,102,88200,2,0,L|430:328,1,210.000008010865
261,117,89100,5,0,0:0:0:0:
139,183,89250,1,0,0:0:0:0:
255,246,89400,1,0,0:0:0:0:
378,105,90000,1,0,0:0:0:0:
378,105,90300,1,0,0:0:0:0:
69,210,90600,6,0,L|194:215,3,105.000004005432
307,218,91650,1,0,0:0:0:0:
296,97,91950,2,0,L|145:90,1,105.000004005432
160,92,92400,1,0,0:0:0:0:
122,91,92550,1,0,0:0:0:0:
85,89,92700,1,0,0:0:0:0:
257,276,93000,1,0,0:0:0:0:
325,157,93300,2,0,P|256:135|170:168,1,157.500006008148
100,314,94050,6,0,L|320:303,1,210.000008010865
364,245,94950,1,0,0:0:0:0:
390,145,95250,1,0,0:0:0:0:
265,169,95400,1,0,0:0:0:0:
279,67,95850,2,0,L|96:102,1,157.500006008148
64,225,96600,2,0,L|218:299,1,157.500006008148
253,168,97350,1,0,0:0:0:0:
405,66,97650,6,0,P|416:113|385:182,1,105.000004005432
323,266,98250,2,0,L|186:264,1,105.000004005432
63,130,98850,2,0,L|206:139,1,105.000004005432
265,323,99450,2,0,L|229:193,1,105.000004005432
236,144,100050,5,0,0:0:0:0:
236,144,100200,1,0,0:0:0:0:
236,144,100350,1,0,0:0:0:0:
79,299,100650,2,0,L|117:165,1,105.000004005432
270,64,101250,2,0,L|281:207,1,105.000004005432
259,287,101850,2,0,L|200:164,1,105.000004005432
383,108,102450,1,0,0:0:0:0:
251,153,102750,1,0,0:0:0:0:
282,262,103050,6,0,P|343:296|403:276,1,105.000004005432
358,189,103500,2,0,P|343:120|252:74,1,157.500006008148
228,75,104100,2,0,P|119:107|68:139,1,157.500006008148
58,141,104700,1,0,0:0:0:0:
247,225,104850,1,0,0:0:0:0:
247,225,105000,1,0,0:0:0:0:
380,146,105300,1,0,0:0:0:0:
188,124,105600,6,0,P|74:177|40:213,1,157.500006008148
198,228,106350,1,0,0:0:0:0:
198,228,106500,1,0,0:0:0:0:
198,228,106650,1,0,0:0:0:0:
260,98,106950,2,0,L|387:99,1,105.000004005432
317,240,107550,6,0,L|200:306,1,105.000004005432
190,298,108000,1,0,0:0:0:0:
156,310,108150,1,0,0:0:0:0:
120,322,108300,1,0,0:0:0:0:
107,148,108600,1,0,0:0:0:0:
379,109,109200,2,0,L|330:296,1,157.500006008148
379,109,109800,2,0,L|218:168,1,157.500006008148
115,331,110400,5,0,0:0:0:0:
217,253,110550,1,0,0:0:0:0:
109,141,110700,1,0,0:0:0:0:
382,313,110850,2,0,L|236:306,1,105.000004005432
167,83,111450,1,0,0:0:0:0:
167,83,111600,1,0,0:0:0:0:
167,83,111750,1,0,0:0:0:0:
167,83,112050,2,0,L|267:212,1,157.500006008148
346,216,112650,5,0,0:0:0:0:
194,240,112800,1,0,0:0:0:0:
283,322,112950,1,0,0:0:0:0:
266,224,113100,2,0,L|261:103,1,105.000004005432
261,119,113550,1,0,0:0:0:0:
261,119,113700,1,0,0:0:0:0:
453,275,114000,2,0,B|393:227|413:213|378:188|299:294,1,157.500006008148
307,274,114600,1,0,0:0:0:0:
281,291,114750,1,0,0:0:0:0:
256,306,114900,1,0,0:0:0:0:
390,137,115050,6,0,B|331:89|351:75|316:50|236:156,1,157.500006008148
245,136,115650,1,0,0:0:0:0:
219,153,115800,1,0,0:0:0:0:
194,168,115950,1,0,0:0:0:0:
400,90,116250,2,0,L|277:128,2,105.000004005432
430,187,117000,2,0,L|307:225,2,105.000004005432
193,130,117900,5,0,0:0:0:0:
193,130,118200,1,0,0:0:0:0:
193,130,118500,1,0,0:0:0:0:
317,233,118800,1,0,0:0:0:0:
317,233,119100,1,0,0:0:0:0:
317,233,119250,6,0,L|187:203,1,105.000004005432
175,232,119700,1,0,0:0:0:0:
169,287,119850,2,0,L|282:318,1,105.000004005432
301,325,120300,1,0,0:0:0:0:
343,328,120450,1,0,0:0:0:0:
378,330,120600,1,0,0:0:0:0:
332,207,120900,5,0,0:0:0:0:
302,94,121200,2,0,L|227:95,2,52.5000020027161
423,157,121800,1,0,0:0:0:0:
310,245,122100,1,0,0:0:0:0:
188,242,122400,1,0,0:0:0:0:
303,335,122700,2,0,L|128:330,1,157.500006008148
141,138,123450,5,0,0:0:0:0:
277,143,123600,1,0,0:0:0:0:
197,273,123750,1,0,0:0:0:0:
200,196,123900,2,0,L|200:65,1,105.000004005432
200,91,124350,2,0,L|336:90,1,105.000004005432
304,90,124800,2,0,L|301:243,1,105.000004005432
220,264,125400,1,0,0:0:0:0:
69,242,125700,1,0,0:0:0:0:
401,102,126000,6,0,L|251:221,1,157.500006008148
401,102,126600,2,0,L|430:328,1,210.000008010865
261,117,127500,1,0,0:0:0:0:
139,183,127650,1,0,0:0:0:0:
255,246,127800,1,0,0:0:0:0:
404,158,128100,1,0,0:0:0:0:
404,158,128250,1,0,0:0:0:0:
216,290,128550,1,0,0:0:0:0:
223,102,129000,5,0,0:0:0:0:
74,274,129300,2,0,P|131:313|181:330,1,105.000004005432
198,337,129750,1,0,0:0:0:0:
390,296,130050,2,0,L|279:187,1,105.000004005432
292,196,130500,1,0,0:0:0:0:
266,170,130650,2,0,L|154:74,1,105.000004005432
53,93,131100,1,0,0:0:0:0:
138,251,131400,1,0,0:0:0:0:
282,265,131700,1,0,0:0:0:0:
290,129,132000,6,0,L|104:83,1,157.500006008148
46,117,132600,1,0,0:0:0:0:
106,209,132750,2,0,L|205:294,1,105.000004005432
325,117,133350,1,0,0:0:0:0:
353,276,133650,1,0,0:0:0:0:
178,196,133950,1,0,0:0:0:0:
178,196,134250,6,0,L|182:55,1,105.000004005432
303,130,134700,1,0,0:0:0:0:
415,131,134850,2,0,P|421:208|361:287,1,157.500006008148
236,290,135450,2,0,L|49:293,1,157.500006008148
78,292,136050,1,0,0:0:0:0:
218,170,136200,1,0,0:0:0:0:
218,170,136350,1,0,0:0:0:0:
218,170,136500,1,0,0:0:0:0:
382,207,136650,6,0,P|314:275|290:310,1,105.000004005432
308,281,137100,2,0,L|128:281,1,157.500006008148
110,282,137700,1,0,0:0:0:0:
76,283,137850,1,0,0:0:0:0:
45,284,138000,1,0,0:0:0:0:
131,111,138300,6,0,L|202:117,1,52.5000020027161
213,199,138600,2,0,L|288:205,1,52.5000020027161
271,313,138900,2,0,L|346:319,1,52.5000020027161
289,61,139200,2,0,L|364:67,1,52.5000020027161
350,166,139500,2,0,L|425:172,1,52.5000020027161
407,286,139800,2,0,L|482:292,1,52.5000020027161
208,205,140100,1,0,0:0:0:0:
208,205,140250,2,0,P|225:303|144:301,1,157.500006008148
140,253,140850,1,0,0:0:0:0:
355,66,141150,6,0,P|381:113|382:149,2,52.5000020027161
285,168,141600,2,0,P|311:215|312:251,2,52.5000020027161
198,229,142050,1,0,0:0:0:0:
122,259,142200,1,0,0:0:0:0:
41,293,142350,1,0,0:0:0:0:
156,333,142500,2,0,L|269:274,1,105.000004005432
250,133,143100,6,0,L|363:174,1,105.000004005432
367,196,143550,1,0,0:0:0:0:
328,241,143700,1,0,0:0:0:0:
278,264,143850,1,0,0:0:0:0:
233,270,144000,2,0,P|178:268|50:236,1,157.500006008148
141,82,144750,1,0,0:0:0:0:
383,100,145050,1,0,0:0:0:0:
245,240,145200,1,0,0:0:0:0:
245,240,145500,2,0,P|367:228|428:261,1,157.500006008148
185,100,146250,5,0,0:0:0:0:
350,106,146400,1,0,0:0:0:0:
349,279,146550,1,0,0:0:0:0:
172,268,146700,1,0,0:0:0:0:
263,89,146850,1,0,0:0:0:0:
365,193,147000,1,0,0:0:0:0:
249,283,147150,1,0,0:0:0:0:
149,159,147300,1,0,0:0:0:0:
365,193,147450,1,0,0:0:0:0:
245,278,147600,1,0,0:0:0:0:
143,158,147750,1,0,0:0:0:0:
269,88,147900,1,0,0:0:0:0:
365,193,148050,1,0,0:0:0:0:
256,192,148350,12,0,151650,0:0:0:0:
389,110,152400,6,0,L|340:297,1,157.500006008148
389,110,153000,2,0,L|228:169,1,157.500006008148
125,332,153600,1,0,0:0:0:0:
227,254,153750,1,0,0:0:0:0:
119,142,153900,1,0,0:0:0:0:
392,314,154050,2,0,L|246:307,1,105.000004005432
177,84,154650,5,0,0:0:0:0:
177,84,154800,1,0,0:0:0:0:
177,84,154950,1,0,0:0:0:0:
177,84,155250,2,0,L|277:213,1,157.500006008148
356,217,155850,1,0,0:0:0:0:
204,241,156000,1,0,0:0:0:0:
293,323,156150,1,0,0:0:0:0:
276,225,156300,2,0,L|271:104,1,105.000004005432
271,120,156750,1,0,0:0:0:0:
271,120,156900,1,0,0:0:0:0:
463,276,157200,6,0,B|403:228|423:214|388:189|309:295,1,157.500006008148
317,275,157800,1,0,0:0:0:0:
291,292,157950,1,0,0:0:0:0:
266,307,158100,1,0,0:0:0:0:
400,138,158250,2,0,B|341:90|361:76|326:51|246:157,1,157.500006008148
255,137,158850,1,0,0:0:0:0:
229,154,159000,1,0,0:0:0:0:
204,169,159150,1,0,0:0:0:0:
410,91,159450,6,0,L|287:129,2,105.000004005432
440,188,160200,2,0,L|317:226,2,105.000004005432
203,131,161100,5,0,0:0:0:0:
203,131,161400,1,0,0:0:0:0:
203,131,161700,1,0,0:0:0:0:
327,234,162000,1,0,0:0:0:0:
327,234,162300,1,0,0:0:0:0:
327,234,162450,6,0,L|197:204,1,105.000004005432
185,233,162900,1,0,0:0:0:0:
179,288,163050,2,0,L|292:319,1,105.000004005432
311,326,163500,1,0,0:0:0:0:
353,329,163650,1,0,0:0:0:0:
388,331,163800,1,0,0:0:0:0:
342,208,164100,1,0,0:0:0:0:
312,95,164400,2,0,L|237:96,2,52.5000020027161
433,158,165000,5,0,0:0:0:0:
320,246,165300,1,0,0:0:0:0:
198,243,165600,1,0,0:0:0:0:
313,336,165900,2,0,L|138:331,1,157.500006008148
151,139,166650,1,0,0:0:0:0:
287,144,166800,1,0,0:0:0:0:
207,274,166950,1,0,0:0:0:0:
210,197,167100,6,0,L|210:66,1,105.000004005432
210,92,167550,2,0,L|346:91,1,105.000004005432
314,91,168000,2,0,L|311:244,1,105.000004005432
230,265,168600,1,0,0:0:0:0:
79,243,168900,1,0,0:0:0:0:
411,103,169200,6,0,L|261:222,1,157.500006008148
411,103,169800,2,0,L|440:329,1,210.000008010865
437,311,170700,1,0,0:0:0:0:
437,311,170850,1,0,0:0:0:0:
437,311,171000,1,0,0:0:0:0:
389,110,171600,6,0,L|340:297,1,157.500006008148
389,110,172200,2,0,L|228:169,1,157.500006008148
125,332,172800,1,0,0:0:0:0:
227,254,172950,1,0,0:0:0:0:
119,142,173100,1,0,0:0:0:0:
392,314,173250,2,0,L|246:307,1,105.000004005432
421,164,173850,5,0,0:0:0:0:
421,164,174000,1,0,0:0:0:0:
421,164,174150,1,0,0:0:0:0:
421,164,174450,2,0,L|270:227,1,157.500006008148
356,217,175050,1,0,0:0:0:0:
204,241,175200,1,0,0:0:0:0:
293,323,175350,1,0,0:0:0:0:
276,225,175500,6,0,L|271:104,1,105.000004005432
271,120,175950,1,0,0:0:0:0:
271,120,176100,1,0,0:0:0:0:
49,108,176400,2,0,B|109:155|89:170|124:194|203:89,1,157.500006008148
195,109,177000,1,0,0:0:0:0:
221,92,177150,1,0,0:0:0:0:
246,77,177300,1,0,0:0:0:0:
112,246,177450,2,0,B|171:294|151:307|186:333|266:226,1,157.500006008148
257,247,178050,1,0,0:0:0:0:
283,230,178200,1,0,0:0:0:0:
308,215,178350,1,0,0:0:0:0:
410,91,178650,6,0,L|287:129,2,105.000004005432
440,188,179400,2,0,L|317:226,2,105.000004005432
203,131,180300,1,0,0:0:0:0:
203,131,180600,1,0,0:0:0:0:
203,131,180900,1,0,0:0:0:0:
327,234,181200,1,0,0:0:0:0:
327,234,181500,1,0,0:0:0:0:
327,234,181650,6,0,L|197:204,1,105.000004005432
185,233,182100,1,0,0:0:0:0:
179,288,182250,2,0,L|292:319,1,105.000004005432
311,326,182700,1,0,0:0:0:0:
353,329,182850,1,0,0:0:0:0:
388,331,183000,1,0,0:0:0:0:
342,208,183300,1,0,0:0:0:0:
312,95,183600,6,0,L|237:96,2,52.5000020027161
433,158,184200,1,0,0:0:0:0:
320,246,184500,1,0,0:0:0:0:
198,243,184800,1,0,0:0:0:0:
313,336,185100,2,0,L|138:331,1,157.500006008148
151,139,185850,1,0,0:0:0:0:
287,144,186000,1,0,0:0:0:0:
207,274,186150,1,0,0:0:0:0:
210,197,186300,6,0,L|210:66,1,105.000004005432
210,92,186750,2,0,L|346:91,1,105.000004005432
314,91,187200,2,0,L|311:244,1,105.000004005432
230,265,187800,1,0,0:0:0:0:
79,243,188100,1,0,0:0:0:0:
411,103,188400,2,0,L|261:222,1,157.500006008148
411,103,189000,2,0,L|440:329,1,210.000008010865
98,125,189900,1,0,0:0:0:0:
290,121,190200,1,0,0:0:0:0:
185,273,190500,1,0,0:0:0:0:
256,192,190800,12,0,197850,0:0:0:0:
