osu file format v14

[General]
AudioFilename: audio.mp3
AudioLeadIn: 0
PreviewTime: 17737
Countdown: 0
SampleSet: Soft
StackLeniency: 0.2
Mode: 0
LetterboxInBreaks: 0
WidescreenStoryboard: 1

[Editor]
DistanceSpacing: 0.2
BeatDivisor: 8
GridSize: 32
TimelineZoom: 1

[Metadata]
Title:Mystery of Love
TitleUnicode:Mystery of Love
Artist:Sufjan Stevens
ArtistUnicode:Sufjan Stevens
Creator:jas
Version:I Remember Everything
Source:Call Me By Your Name
Tags:cmbyn craezy dyl-byl qiyana ost original soundtrack timothee timothée chalamet armie hammer acoustic english movie gay lgbtq
BeatmapID:2431965
BeatmapSetID:1166024

[Difficulty]
HPDrainRate:5
CircleSize:5
OverallDifficulty:7.5
ApproachRate:8.5
SliderMultiplier:1.6
SliderTickRate:1

[Events]
//Background and Video events
0,0,"cmbyn.jpg",0,0
//Break Periods
2,169256,186015
//Storyboard Layer 0 (Background)
//Storyboard Layer 1 (Fail)
//Storyboard Layer 2 (Pass)
//Storyboard Layer 3 (Foreground)
//Storyboard Layer 4 (Overlay)
//Storyboard Sound Samples

[TimingPoints]
99,555.555555555556,4,2,0,30,1,0
932,-66.6666666666667,4,2,0,30,0,0
1487,-100,4,2,0,30,0,0
2043,-66.6666666666667,4,2,0,30,0,0
2599,-100,4,2,0,30,0,0
3154,-66.6666666666667,4,2,0,30,0,0
3710,-100,4,2,0,30,0,0
4265,-66.6666666666667,4,2,0,30,0,0
4821,-100,4,2,0,30,0,0
5376,-66.6666666666667,4,2,0,30,0,0
5932,-100,4,2,0,30,0,0
6487,-66.6666666666667,4,2,0,30,0,0
7043,-100,4,2,0,30,0,0
7599,-66.6666666666667,4,2,0,30,0,0
8154,-100,4,2,0,30,0,0
9404,-90.9090909090909,4,2,0,30,0,0
13432,-66.6666666666667,4,2,0,30,0,0
13987,-90.9090909090909,4,2,0,30,0,0
17876,-100,4,2,0,30,0,0
20932,-66.6666666666667,4,2,0,30,0,0
21626,-100,4,2,0,30,0,0
22321,-133.333333333333,4,2,0,30,0,0
22876,-100,4,2,0,30,0,0
23432,-80,4,2,0,30,0,0
23987,-66.6666666666667,4,2,0,30,0,0
24543,-100,4,2,0,30,0,0
29821,-66.6666666666667,4,2,0,30,0,0
30515,-100,4,2,0,30,0,0
31210,-133.333333333333,4,2,0,30,0,0
31765,-100,4,2,0,30,0,0
32321,-80,4,2,0,30,0,0
32876,-66.6666666666667,4,2,0,30,0,0
33432,-100,4,2,0,30,0,0
35654,-90.9090909090909,4,2,0,30,0,0
38710,-62.5,4,2,0,30,0,0
39404,-90.9090909090909,4,2,0,30,0,0
40099,-133.333333333333,4,2,0,30,0,0
40654,-100,4,2,0,30,0,0
41210,-80,4,2,0,30,0,0
41765,-66.6666666666667,4,2,0,30,0,0
42321,-90.9090909090909,4,2,0,30,0,0
47599,-62.5,4,2,0,30,0,0
48293,-90.9090909090909,4,2,0,30,0,0
48987,-133.333333333333,4,2,0,30,0,0
49543,-100,4,2,0,30,0,0
50099,-80,4,2,0,30,0,0
50654,-66.6666666666667,4,2,0,30,0,0
51210,-90.9090909090909,4,2,0,30,0,0
53432,-83.3333333333333,4,2,0,30,0,0
57876,-133.333333333333,4,2,0,30,0,0
58432,-100,4,2,0,30,0,0
58987,-80,4,2,0,30,0,0
59543,-66.6666666666667,4,2,0,30,0,0
60099,-83.3333333333333,4,2,0,30,0,0
66765,-133.333333333333,4,2,0,30,0,0
67321,-100,4,2,0,30,0,0
67876,-80,4,2,0,30,0,0
68432,-66.6666666666667,4,2,0,30,0,0
68987,-83.3333333333333,4,2,0,30,0,0
71210,-76.9230769230769,4,2,0,30,0,0
88987,-83.3333333333333,4,2,0,30,0,0
106765,-76.9230769230769,4,2,0,30,0,0
111210,-133.333333333333,4,2,0,30,0,0
111765,-100,4,2,0,30,0,0
112321,-80,4,2,0,30,0,0
112876,-66.6666666666667,4,2,0,30,0,0
113432,-76.9230769230769,4,2,0,30,0,0
120099,-133.333333333333,4,2,0,30,0,0
120654,-100,4,2,0,30,0,0
121210,-80,4,2,0,30,0,0
121765,-66.6666666666667,4,2,0,30,0,0
122321,-76.9230769230769,4,2,0,30,0,0
124543,-71.4285714285714,4,2,0,30,0,0
142321,-66.6666666666667,4,2,0,30,0,0
160099,-71.4285714285714,4,2,0,30,0,0
162321,-76.9230769230769,4,2,0,30,0,0
164543,-83.3333333333333,4,2,0,30,0,0
166765,-90.9090909090909,4,2,0,30,0,0
168987,-100,4,2,0,30,0,0
186765,-133.333333333333,4,2,0,30,0,0
221904,-166.666666666667,4,2,0,30,0,0
222321,-83.3333333333333,4,2,0,30,0,0
238987,-153.846153846154,5,2,0,30,0,0
239057,-153.846153846154,5,2,1,5,0,0

[Colours]
Combo1 : 141,210,100
Combo2 : 218,209,163
Combo3 : 130,232,219
Combo4 : 221,119,119

[HitObjects]
30,77,99,6,0,P|62:108|58:180,1,120,2|2,0:0|0:0,0:0:0:0:
55,185,654,2,0,L|52:234,1,40
131,310,932,6,0,B|106:301|106:301|42:309,1,90.0000034332277,2|0,0:0|0:0,0:0:0:0:
39,313,1210,2,0,L|33:377,1,60.0000022888184,2|0,0:0|0:0,0:0:0:0:
198,265,1487,2,0,P|200:225|205:186,1,80,2|0,0:0|0:0,0:0:0:0:
160,35,2043,6,0,P|121:73|74:84,1,90.0000034332277,2|0,0:0|0:0,0:0:0:0:
83,87,2321,2,0,P|57:72|22:67,1,60.0000022888184,2|0,0:0|0:0,0:0:0:0:
109,192,2599,2,0,P|107:172|100:154,1,40,0|2,0:0|0:0,0:0:0:0:
32,137,2876,1,0,0:0:0:0:
71,275,3154,6,0,B|109:281|109:281|112:285|112:285|169:294,1,90.0000034332277,2|0,0:0|0:0,0:0:0:0:
161,296,3432,2,0,P|181:317|192:345,1,60.0000022888184,2|0,0:0|0:0,0:0:0:0:
23,334,3710,2,0,P|55:311|71:267,1,80,2|0,0:0|0:0,0:0:0:0:
59,127,4265,6,0,P|64:68|76:20,1,90.0000034332277,2|0,0:0|0:0,0:0:0:0:
74,42,4543,2,0,L|13:53,1,60.0000022888184,2|0,0:0|0:0,0:0:0:0:
73,210,4821,2,0,L|113:218,1,40,0|2,0:0|0:0,0:0:0:0:
141,150,5099,1,0,0:0:0:0:
197,350,5376,6,0,P|174:321|170:268,1,90.0000034332277,2|0,0:0|0:0,0:0:0:0:
175,266,5654,2,0,P|189:233|187:200,1,60.0000022888184,2|0,0:0|0:0,0:0:0:0:
44,382,5932,2,0,P|83:378|123:375,1,80,2|0,0:0|0:0,0:0:0:0:
13,292,6487,6,0,P|7:246|3:200,1,90.0000034332277,2|0,0:0|0:0,0:0:0:0:
7,197,6765,2,0,P|41:193|76:218,1,60.0000022888184,2|0,0:0|0:0,0:0:0:0:
129,289,7043,2,0,L|131:249,1,40,0|2,0:0|0:0,0:0:0:0:
136,169,7321,1,0,0:0:0:0:
102,56,7599,6,0,L|191:67,1,90.0000034332277,2|0,0:0|0:0,0:0:0:0:
196,72,7876,2,0,P|205:100|206:130,1,60.0000022888184,2|0,0:0|0:0,0:0:0:0:
207,207,8154,2,0,P|204:246|205:286,1,80,2|0,0:0|0:0,0:0:0:0:
207,362,8571,1,0,0:0:0:0:
137,325,8710,2,0,L|93:329,1,40,2|0,0:0|0:0,0:0:0:0:
375,325,8987,6,0,L|414:328,1,40,6|0,0:0|0:0,0:0:0:0:
305,362,9265,1,2,0:0:0:0:
305,285,9404,2,0,P|306:242|304:198,1,88.000002685547,2|2,0:0|0:0,0:0:0:0:
352,137,9821,2,0,L|395:133,1,44.0000013427735,2|0,0:0|0:0,0:0:0:0:
459,225,10099,2,0,L|455:182,1,44.0000013427735,2|0,0:0|0:0,0:0:0:0:
444,73,10376,1,2,0:0:0:0:
478,13,10515,2,0,P|430:29|384:25,1,88.000002685547,2|2,0:0|0:0,0:0:0:0:
317,0,10932,1,2,0:0:0:0:
352,137,11210,6,0,B|348:181|348:181|350:181|350:181|345:237,1,88.000002685547,2|2,0:0|0:0,0:0:0:0:
472,227,11626,2,0,P|433:240|405:288,1,88.000002685547,2|2,0:0|0:0,0:0:0:0:
480,347,12043,2,0,P|476:325|479:304,1,44.0000013427735,2|0,0:0|0:0,0:0:0:0:
403,354,12321,2,0,L|315:360,1,88.000002685547,2|2,0:0|0:0,0:0:0:0:
305,284,12737,2,0,P|312:260|314:228,1,44.0000013427735,2|0,0:0|0:0,0:0:0:0:
306,157,13015,1,2,0:0:0:0:
310,161,13154,1,2,0:0:0:0:
495,71,13432,6,0,P|455:114|397:119,1,120.000004577637,6|2,0:0|0:0,3:0:0:0:
373,37,13849,1,2,0:0:0:0:
377,41,13987,2,0,P|399:40|421:42,1,44.0000013427735,0|2,0:0|0:0,0:0:0:0:
320,96,14265,1,2,0:0:0:0:
499,202,14543,2,0,B|451:193|459:218|412:213,1,88.000002685547,2|2,0:0|0:0,0:0:0:0:
354,250,14960,2,0,P|367:209|362:166,1,88.000002685547,2|2,0:0|0:0,0:0:0:0:
320,96,15376,1,2,0:0:0:0:
495,80,15654,6,0,L|488:174,1,88.000002685547,2|2,0:0|0:0,0:0:0:0:
404,205,16071,2,0,L|407:162,1,44.0000013427735,2|0,0:0|0:0,0:0:0:0:
474,276,16349,1,2,0:0:0:0:
478,280,16487,2,0,L|482:236,1,44.0000013427735,2|0,0:0|0:0,0:0:0:0:
406,85,16765,2,0,P|369:98|338:136,1,88.000002685547,2|2,0:0|0:0,0:0:0:0:
304,206,17182,2,0,L|362:215,1,44.0000013427735,2|0,0:0|0:0,0:0:0:0:
361,286,17460,1,2,0:0:0:0:
365,290,17599,1,2,0:0:0:0:
208,206,17876,6,0,L|113:220,1,80,2|0,0:0|0:0,0:0:0:0:
123,349,18432,2,8,P|157:330|178:296,1,80,2|0,0:0|0:0,0:0:0:0:
204,202,18849,1,0,0:0:0:0:
208,206,18987,2,0,L|193:121,1,80,2|0,0:0|0:0,0:0:0:0:
133,92,19404,2,0,L|48:106,1,80,2|0,0:0|0:0,0:0:0:0:
3,58,19821,1,2,0:0:0:0:
42,247,20099,6,0,P|79:260|119:254,1,80,2|2,0:0|0:0,0:0:0:0:
183,208,20515,2,0,P|196:170|190:132,1,80,2|2,0:0|0:0,0:0:0:0:
118,254,20932,6,0,B|123:298|123:298|125:301|125:301|131:355,1,90.0000034332277,2|0,0:0|0:0,0:0:0:0:
133,346,21210,2,0,L|140:279,1,60.0000022888184,2|0,0:0|0:0,0:0:0:0:
37,227,21487,5,0,0:0:0:0:
41,231,21626,2,0,L|31:139,1,80,2|0,0:0|0:0,0:0:0:0:
122,15,22043,1,0,0:0:0:0:
126,19,22182,5,2,0:0:0:0:
130,23,22321,2,0,P|165:18|201:12,1,60.0000022888184,2|0,0:0|0:0,0:0:0:0:
72,91,22737,5,2,0:0:0:0:
76,95,22876,2,0,P|127:102|174:108,1,80,2|0,0:0|0:0,0:0:0:0:
76,195,23293,5,2,0:0:0:0:
80,199,23432,2,0,P|138:190|197:182,1,100,2|0,0:0|0:0,0:0:0:0:
38,272,23849,5,2,0:0:0:0:
42,276,23987,2,0,P|115:285|185:294,1,120.000004577637,2|0,0:0|0:0,0:0:0:0:
55,347,24404,5,2,0:0:0:0:
59,351,24543,2,0,P|60:318|33:267,1,80,2|2,0:0|0:0,0:0:0:0:
80,199,24960,2,0,B|115:194|115:194|116:192|116:192|161:187,1,80,2|2,0:0|0:0,0:0:0:0:
170,109,25376,2,0,L|178:69,1,40,2|0,0:0|0:0,0:0:0:0:
81,24,25654,6,0,P|88:66|95:116,1,80,2|2,0:0|0:0,0:0:0:0:
170,109,26071,2,0,P|163:151|156:201,1,80,2|2,0:0|0:0,0:0:0:0:
207,272,26487,2,0,L|167:265,1,40,2|0,0:0|0:0,0:0:0:0:
354,188,26765,6,0,P|348:148|342:109,1,80,2|0,0:0|0:0,0:0:0:0:
305,272,27321,2,0,L|383:257,1,80,2|0,0:0|0:0,0:0:0:0:
480,311,27876,2,0,B|468:296|468:296|460:236,1,80,2|2,0:0|0:0,0:0:0:0:
445,151,28293,2,0,B|457:166|457:166|466:227,1,80,2|2,0:0|0:0,0:0:0:0:
383,257,28710,1,2,0:0:0:0:
449,72,28987,6,0,P|410:78|380:104,1,80,2|2,0:0|0:0,0:0:0:0:
315,151,29404,2,0,P|345:176|384:182,1,80,2|2,0:0|0:0,0:0:0:0:
477,152,29821,6,0,B|485:109|485:109|456:73,1,90.0000034332277,2|0,0:0|0:0,0:0:0:0:
449,72,30099,2,0,L|387:79,1,60.0000022888184,2|0,0:0|0:0,0:0:0:0:
508,301,30376,5,0,0:0:0:0:
512,305,30515,2,0,L|501:224,1,80,2|0,0:0|0:0,0:0:0:0:
368,282,30932,1,0,0:0:0:0:
372,286,31071,1,2,0:0:0:0:
376,290,31210,6,0,B|348:286|348:286|344:286|344:286|316:282,1,60.0000022888184,2|0,0:0|0:0,0:0:0:0:
414,189,31626,1,2,0:0:0:0:
418,193,31765,6,0,B|381:197|381:197|376:196|376:196|339:201,1,80,2|0,0:0|0:0,0:0:0:0:
463,117,32181,1,2,0:0:0:0:
467,121,32321,6,0,B|421:114|421:114|415:115|415:115|368:109,1,100,2|0,0:0|0:0,0:0:0:0:
506,7,32737,1,2,0:0:0:0:
510,11,32876,6,0,B|454:18|454:18|447:17|447:17|390:24,1,120.000004577637,2|0,0:0|0:0,0:0:0:0:
463,117,33292,1,2,0:0:0:0:
467,121,33432,6,0,L|479:205,1,80,2|2,0:0|0:0,0:0:0:0:
484,279,33849,2,0,P|445:273|416:248,1,80,2|2,0:0|0:0,0:0:0:0:
478,200,34265,1,2,0:0:0:0:
395,373,34543,6,0,L|390:334,1,40,2|0,0:0|0:0,0:0:0:0:
325,280,34821,1,2,0:0:0:0:
329,283,34960,2,0,P|330:244|322:204,1,80,2|2,0:0|0:0,0:0:0:0:
305,129,35376,2,0,L|353:133,1,40,2|0,0:0|0:0,0:0:0:0:
189,204,35654,6,0,P|180:249|182:294,1,88.000002685547,6|2,0:0|0:0,0:0:0:0:
203,125,36071,1,2,0:0:0:0:
207,129,36210,2,0,L|159:133,1,44.0000013427735,2|0,0:0|0:0,0:0:0:0:
198,52,36487,2,0,L|150:56,1,44.0000013427735,2|0,0:0|0:0,0:0:0:0:
54,65,36765,2,0,B|62:54|62:54|53:143,1,88.000002685547,2|2,0:0|0:0,0:0:0:0:
48,235,37182,2,0,P|39:215|23:200,1,44.0000013427735,2|0,0:0|0:0,0:0:0:0:
124,211,37460,2,0,P|126:189|121:168,1,44.0000013427735,2|0,0:0|0:0,0:0:0:0:
108,297,37737,1,0,0:0:0:0:
161,338,37876,6,0,P|117:336|79:357,1,88.000002685547,2|2,0:0|0:0,0:0:0:0:
203,235,38293,2,0,P|165:211|122:210,1,88.000002685547,2|2,0:0|0:0,0:0:0:0:
22,304,38710,6,0,B|11:274|11:274|26:206,1,96,2|0,0:0|0:0,0:0:0:0:
28,215,38987,2,0,P|25:166|16:134,1,64,2|0,0:0|0:0,0:0:0:0:
167,87,39265,5,0,0:0:0:0:
106,134,39404,2,0,B|61:130|62:157|13:150,1,88.000002685547,2|2,0:0|0:0,0:0:0:0:
207,154,39821,2,0,L|203:210,1,44.0000013427735,2|0,0:0|0:0,0:0:0:0:
36,382,40099,6,0,L|127:364,1,90.0000034332277,2|2,0:0|0:0,0:0:0:0:
1,250,40654,2,0,L|114:288,1,120,2|2,0:0|0:0,0:0:0:0:
40,104,41210,2,0,L|138:216,1,150,2|2,0:0|0:0,0:0:0:0:
171,0,41765,2,8,L|206:176,1,180.000006866455,2|2,0:0|0:0,0:0:0:0:
128,328,42321,6,0,P|123:306|112:287,1,44.0000013427735,2|0,0:0|0:0,0:0:0:0:
0,243,42599,1,0,0:0:0:0:
4,247,42737,2,0,P|24:253|46:253,1,44.0000013427735,2|0,0:0|0:0,0:0:0:0:
174,237,43015,1,0,0:0:0:0:
136,180,43154,2,0,P|119:194|108:213,1,44.0000013427735,2|0,0:0|0:0,3:0:0:0:
174,237,43432,6,0,P|201:204|204:161,1,88.000002685547,2|2,0:0|0:0,0:0:0:0:
120,103,43849,2,0,L|62:109,1,44.0000013427735,2|0,0:0|0:0,0:0:0:0:
123,26,44126,1,2,0:0:0:0:
194,59,44265,2,0,L|206:16,1,44.0000013427735,2|0,0:0|0:0,0:0:0:0:
392,103,44543,6,0,L|450:109,1,44.0000013427735,2|0,0:0|0:0,0:0:0:0:
389,26,44820,1,0,0:0:0:0:
314,55,44960,1,2,0:0:0:0:
318,59,45099,2,0,L|305:16,1,44.0000013427735,2|0,0:0|0:0,0:0:0:0:
386,181,45376,2,0,L|398:223,1,44.0000013427735,2|0,0:0|0:0,0:0:0:0:
475,292,45654,6,0,B|452:285|452:285|383:312,1,88.000002685547,2|2,0:0|0:0,0:0:0:0:
370,384,46071,2,0,B|393:391|393:391|462:364,1,88.000002685547,2|2,0:0|0:0,0:0:0:0:
475,292,46487,2,0,L|492:244,1,44.0000013427735,2|0,0:0|0:0,0:0:0:0:
423,207,46765,6,0,P|425:164|395:134,1,88.000002685547,2|2,0:0|0:0,0:0:0:0:
323,164,47182,2,0,P|320:206|350:236,1,88.000002685547,2|2,0:0|0:0,0:0:0:0:
409,57,47599,6,0,B|354:50|364:82|316:73,1,96,2|0,0:0|0:0,0:0:0:0:
320,76,47876,2,0,P|320:45|304:18,1,64,2|0,0:0|0:0,0:0:0:0:
409,57,48154,5,0,0:0:0:0:
472,104,48293,2,0,P|463:123|460:148,1,44.0000013427735,2|0,0:0|0:0,0:0:0:0:
399,193,48571,1,0,0:0:0:0:
449,251,48710,2,0,P|458:270|461:295,1,44.0000013427735,2|0,0:0|0:0,0:0:0:0:
477,382,48987,6,0,B|437:374|437:374|431:372|431:372|384:363,1,90.0000034332277,2|2,0:0|0:0,0:0:0:0:
512,254,49543,2,0,B|460:270|460:270|453:271|453:271|389:292,1,120,2|2,0:0|0:0,0:0:0:0:
477,108,50099,2,0,B|431:158|431:158|425:160|425:160|370:217,1,150,2|2,0:0|0:0,0:0:0:0:
342,0,50654,2,8,B|329:74|329:74|325:79|325:79|306:179,1,180.000006866455,2|2,0:0|0:0,0:0:0:0:
304,268,51210,6,0,P|333:300|337:343,1,88.000002685547,2|2,0:0|0:0,0:0:0:0:
381,217,51626,2,0,P|384:173|414:141,1,88.000002685547,2|2,0:0|0:0,0:0:0:0:
453,297,52043,2,0,L|410:289,1,44.0000013427735,2|0,0:0|0:0,0:0:0:0:
412,141,52321,6,0,P|453:154|478:189,1,88.000002685547,2|2,0:0|0:0,0:0:0:0:
304,159,52737,2,0,B|310:114|310:114|312:113|312:113|317:68,1,88.000002685547,2|2,0:0|0:0,0:0:0:0:
381,217,53154,2,0,L|337:225,1,44.0000013427735,2|0,0:0|0:0,0:0:0:0:
174,225,53432,6,0,L|126:216,1,47.9999985351563,6|0,0:0|0:0,0:0:0:0:
186,300,53710,1,0,0:0:0:0:
190,304,53849,1,0,0:0:0:0:
194,308,53987,2,0,L|146:299,1,47.9999985351563,2|0,0:0|0:0,0:0:0:0:
107,134,54265,2,0,L|155:143,1,47.9999985351563,2|0,0:0|0:0,0:0:0:0:
199,213,54543,6,0,L|104:230,1,95.9999970703126,2|2,0:0|0:0,0:0:0:0:
62,63,54960,2,0,L|156:45,1,95.9999970703126,2|2,0:0|0:0,0:0:0:0:
206,165,55376,2,0,L|196:228,1,47.9999985351563,2|0,0:0|0:0,0:0:0:0:
104,230,55654,6,0,P|90:207|65:191,1,47.9999985351563,2|0,0:0|0:0,0:0:0:0:
34,262,55932,1,2,0:0:0:0:
146,326,56071,2,0,P|158:302|160:272,1,47.9999985351563,2|0,0:0|0:0,0:0:0:0:
68,333,56349,1,2,0:0:0:0:
199,213,56487,2,0,L|189:162,1,47.9999985351563,2|0,0:0|0:0,0:0:0:0:
199,22,56765,5,2,0:0:0:0:
132,7,56904,1,2,0:0:0:0:
71,37,57043,1,2,0:0:0:0:
51,101,57182,2,0,B|63:147|74:203,1,95.9999970703126,2|2,0:0|0:0,0:0:0:0:
20,323,57599,2,0,P|65:332|86:336,1,47.9999985351563,2|0,0:0|0:0,0:0:0:0:
183,306,57876,6,0,L|188:274,1,30.0000011444092,2|0,0:0|0:0,0:0:0:0:
41,205,58154,1,0,0:0:0:0:
33,215,58293,1,2,0:0:0:0:
40,255,58432,6,0,L|33:211,1,40,2|0,0:0|0:0,0:0:0:0:
194,125,58710,1,0,0:0:0:0:
202,135,58849,1,2,0:0:0:0:
196,185,58988,6,0,L|203:135,1,50,2|0,0:0|0:0,0:0:0:0:
9,39,59265,1,0,0:0:0:0:
1,49,59404,1,2,0:0:0:0:
11,109,59543,6,0,L|1:49,1,60.0000022888184,2|0,0:0|0:0,0:0:0:0:
128,0,59821,1,0,0:0:0:0:
113,64,59960,1,2,0:0:0:0:
98,128,60099,6,0,B|105:173|105:173|110:179|110:179|116:221,1,95.9999970703126,2|2,0:0|0:0,0:0:0:0:
38,284,60515,2,0,B|80:290|80:290|85:295|85:295|131:302,1,95.9999970703126,2|2,0:0|0:0,0:0:0:0:
207,317,60932,1,2,0:0:0:0:
182,243,61071,1,0,0:0:0:0:
131,302,61210,6,0,P|136:352|171:386,1,95.9999970703126,2|2,0:0|0:0,0:0:0:0:
182,243,61626,2,0,P|179:187|171:129,1,95.9999970703126,2|2,0:0|0:0,0:0:0:0:
207,32,62043,1,2,0:0:0:0:
141,76,62182,1,2,0:0:0:0:
338,147,62321,6,0,P|332:194|330:242,1,95.9999970703126,2|0,0:0|0:0,0:0:0:0:
305,32,62737,1,0,0:0:0:0:
371,76,62876,2,0,P|395:70|421:47,1,47.9999985351563,2|0,0:0|0:0,0:0:0:0:
449,139,63154,2,0,P|467:122|477:101,1,47.9999985351563,2|0,0:0|0:0,0:0:0:0:
485,256,63432,6,0,P|457:224|394:222,1,95.9999970703126,2|2,0:0|0:0,0:0:0:0:
349,335,63849,2,0,B|340:288|340:288|338:287|338:287|328:236,1,95.9999970703126,2|2,0:0|0:0,0:0:0:0:
347,166,64265,1,2,0:0:0:0:
406,217,64404,1,0,0:0:0:0:
490,118,64543,6,0,B|471:134|471:134|433:141,1,47.9999985351563,2|0,0:0|0:0,0:0:0:0:
406,47,64821,1,2,0:0:0:0:
410,51,64960,2,0,B|429:35|429:35|467:28,1,47.9999985351563,2|0,0:0|0:0,0:0:0:0:
371,119,65237,1,2,0:0:0:0:
305,76,65376,2,0,L|311:25,1,47.9999985351563,2|0,0:0|0:0,0:0:0:0:
448,138,65654,5,2,0:0:0:0:
327,184,65793,1,2,0:0:0:0:
452,215,65932,1,2,0:0:0:0:
378,247,66071,2,0,P|378:303|383:358,1,95.9999970703126,2|2,0:0|0:0,0:0:0:0:
501,300,66487,2,0,L|452:295,1,47.9999985351563,2|0,0:0|0:0,0:0:0:0:
448,138,66765,6,0,L|456:95,1,30.0000011444092,2|0,0:0|0:0,0:0:0:0:
330,135,67043,1,0,0:0:0:0:
319,144,67182,1,2,0:0:0:0:
327,184,67321,6,0,L|318:138,1,40,2|0,0:0|0:0,0:0:0:0:
454,237,67599,1,0,0:0:0:0:
465,246,67738,1,2,0:0:0:0:
457,296,67877,6,0,L|466:244,1,50,2|0,0:0|0:0,0:0:0:0:
316,301,68154,1,0,0:0:0:0:
305,310,68293,1,2,0:0:0:0:
316,369,68432,6,0,L|305:310,1,60.0000022888184,2|0,0:0|0:0,0:0:0:0:
327,184,68710,1,0,0:0:0:0:
320,114,68849,1,2,0:0:0:0:
312,45,68987,6,0,L|373:52,1,47.9999985351563,2|0,0:0|0:0,0:0:0:0:
394,123,69265,1,2,0:0:0:0:
398,127,69404,2,0,L|459:120,1,47.9999985351563,2|0,0:0|0:0,0:0:0:0:
477,195,69682,1,2,0:0:0:0:
481,199,69821,2,0,L|540:207,1,47.9999985351563,2|0,0:0|0:0,0:0:0:0:
451,272,70099,6,0,L|403:277,1,47.9999985351563,2|0,0:0|0:0,0:0:0:0:
341,316,70376,1,2,0:0:0:0:
345,320,70515,2,0,P|364:259|343:227,1,95.9999970703126,2|2,0:0|0:0,0:0:0:0:
374,153,70932,2,0,L|327:159,1,47.9999985351563,2|0,0:0|0:0,0:0:0:0:
256,192,71210,5,6,0:0:0:0:
207,131,71349,1,0,0:0:0:0:
254,70,71487,1,2,0:0:0:0:
207,252,71626,2,0,P|245:285|256:335,1,103.999995239258,2|2,0:0|0:0,0:0:0:0:
129,329,72043,2,0,P|155:327|181:325,1,51.999997619629,2|0,0:0|0:0,0:0:0:0:
256,192,72321,5,2,0:0:0:0:
304,130,72460,1,0,0:0:0:0:
254,70,72598,1,2,0:0:0:0:
304,252,72737,2,0,P|266:285|255:335,1,103.999995239258,2|2,0:0|0:0,0:0:0:0:
382,329,73154,2,0,P|356:327|331:325,1,51.999997619629,2|0,0:0|0:0,0:0:0:0:
256,192,73432,6,0,P|160:96|177:43,1,207.999990478516,2|2,0:0|0:0,0:0:0:0:
256,0,74126,1,2,0:0:0:0:
177,42,74265,2,0,P|191:88|193:109,1,51.999997619629,2|0,0:0|0:0,0:0:0:0:
256,192,74543,6,0,P|352:96|335:43,1,207.999990478516,2|2,0:0|0:0,0:0:0:0:
256,0,75237,1,2,0:0:0:0:
334,42,75376,2,0,P|320:88|318:109,1,51.999997619629,2|0,0:0|0:0,0:0:0:0:
256,192,75654,6,0,B|233:278|281:257|256:346,1,155.999992858887,2|0,0:0|0:0,0:0:0:0:
188,304,76210,2,0,L|134:312,1,51.999997619629,2|0,0:0|0:0,0:0:0:0:
324,235,76487,2,0,L|378:243,1,51.999997619629,2|0,0:0|0:0,0:0:0:0:
184,168,76765,5,2,0:0:0:0:
337,114,76904,1,2,0:0:0:0:
192,70,77043,1,2,0:0:0:0:
323,38,77182,1,2,0:0:0:0:
256,0,77321,2,0,L|252:57,1,51.999997619629,2|0,0:0|0:0,0:0:0:0:
248,184,77599,1,2,0:0:0:0:
252,188,77737,1,2,0:0:0:0:
256,192,77876,6,0,P|160:288|177:341,1,207.999990478516,2|2,0:0|0:0,0:0:0:0:
256,384,78570,1,2,0:0:0:0:
177,341,78710,2,0,P|191:295|193:274,1,51.999997619629,2|0,0:0|0:0,0:0:0:0:
256,192,78987,6,0,P|352:288|335:341,1,207.999990478516,2|2,0:0|0:0,0:0:0:0:
256,384,79681,1,2,0:0:0:0:
334,341,79821,2,0,P|320:295|318:274,1,51.999997619629,2|0,0:0|0:0,0:0:0:0:
206,132,80099,6,0,B|142:132|174:164|110:164,1,103.999995239258,2|0,0:0|0:0,0:0:0:0:
49,110,80515,1,0,0:0:0:0:
87,53,80654,2,0,P|112:82|116:108,1,51.999997619629,2|0,0:0|0:0,0:0:0:0:
203,201,80932,2,0,P|190:237|169:253,1,51.999997619629,2|0,0:0|0:0,0:0:0:0:
92,292,81210,5,2,0:0:0:0:
86,223,81349,1,0,0:0:0:0:
120,163,81487,1,2,0:0:0:0:
115,94,81626,1,0,0:0:0:0:
166,46,81765,5,2,0:0:0:0:
173,53,81904,1,0,0:0:0:0:
181,58,82043,1,0,0:0:0:0:
190,60,82182,1,0,0:0:0:0:
306,132,82321,6,0,B|370:132|338:164|402:164,1,103.999995239258,2|0,0:0|0:0,0:0:0:0:
463,110,82737,1,0,0:0:0:0:
425,53,82876,2,0,P|400:82|396:108,1,51.999997619629,2|0,0:0|0:0,0:0:0:0:
309,201,83154,2,0,P|321:237|342:253,1,51.999997619629,2|0,0:0|0:0,0:0:0:0:
420,292,83432,5,2,0:0:0:0:
426,223,83571,1,0,0:0:0:0:
392,163,83709,1,2,0:0:0:0:
397,94,83848,1,0,0:0:0:0:
346,46,83987,5,2,0:0:0:0:
339,53,84126,1,0,0:0:0:0:
331,58,84265,1,0,0:0:0:0:
322,60,84404,1,0,0:0:0:0:
206,33,84543,6,0,P|192:93|187:154,1,103.999995239258,2|0,0:0|0:0,0:0:0:0:
99,199,84960,1,0,0:0:0:0:
103,203,85099,2,0,L|172:196,1,51.999997619629,2|0,0:0|0:0,0:0:0:0:
114,280,85376,2,0,L|183:273,1,51.999997619629,2|0,0:0|0:0,0:0:0:0:
47,270,85654,5,2,0:0:0:0:
19,333,85793,1,0,0:0:0:0:
69,384,85932,1,2,0:0:0:0:
129,349,86071,1,0,0:0:0:0:
114,280,86210,5,2,0:0:0:0:
197,331,86349,1,0,0:0:0:0:
182,263,86487,2,0,L|190:199,1,51.999997619629
306,33,86765,6,0,P|320:93|325:154,1,103.999995239258,2|0,0:0|0:0,0:0:0:0:
405,199,87182,1,0,0:0:0:0:
409,203,87321,2,0,L|340:196,1,51.999997619629,2|0,0:0|0:0,0:0:0:0:
398,280,87598,2,0,L|329:273,1,51.999997619629,2|0,0:0|0:0,0:0:0:0:
465,270,87876,5,2,0:0:0:0:
493,333,88015,1,0,0:0:0:0:
443,384,88154,1,2,0:0:0:0:
383,349,88293,1,0,0:0:0:0:
398,280,88432,5,2,0:0:0:0:
315,331,88571,1,0,0:0:0:0:
330,263,88710,2,0,L|322:199,1,51.999997619629
188,211,88987,6,0,L|174:319,1,95.9999970703126,2|0,0:0|0:0,0:0:0:0:
207,378,89404,1,0,0:0:0:0:
175,306,89543,2,0,L|67:292,1,95.9999970703126,2|0,0:0|0:0,0:0:0:0:
7,325,89960,1,0,0:0:0:0:
79,293,90099,6,0,L|86:232,1,47.9999985351563,2|0,0:0|0:0,0:0:0:0:
149,200,90376,1,0,0:0:0:0:
77,168,90515,2,0,L|69:107,1,47.9999985351563,2|0,0:0|0:0,0:0:0:0:
116,56,90793,1,0,0:0:0:0:
192,70,90932,1,2,0:0:0:0:
206,147,91071,1,0,0:0:0:0:
70,120,91210,6,0,P|48:96|43:31,1,95.9999970703126,2|2,0:0|0:0,0:0:0:0:
206,147,91626,2,0,P|205:194|177:232,1,95.9999970703126,2|2,0:0|0:0,0:0:0:0:
206,309,92043,2,0,L|143:299,1,47.9999985351563,2|0,0:0|0:0,0:0:0:0:
33,282,92321,5,2,0:0:0:0:
104,246,92460,1,2,0:0:0:0:
39,205,92599,1,2,0:0:0:0:
30,127,92737,2,0,B|87:122|75:159|128:151,1,95.9999970703126,2|2,0:0|0:0,0:0:0:0:
194,176,93154,2,0,P|191:145|196:112,1,47.9999985351563,2|0,0:0|0:0,0:0:0:0:
178,39,93432,5,2,0:0:0:0:
175,30,93571,1,0,0:0:0:0:
184,27,93710,1,0,0:0:0:0:
187,36,93849,1,2,0:0:0:0:
70,120,93987,5,2,0:0:0:0:
73,108,94126,1,0,0:0:0:0:
62,104,94265,1,0,0:0:0:0:
58,116,94404,1,2,0:0:0:0:
183,200,94543,5,2,0:0:0:0:
177,182,94682,1,0,0:0:0:0:
194,176,94821,1,0,0:0:0:0:
200,194,94960,1,2,0:0:0:0:
76,315,95099,5,2,0:0:0:0:
84,290,95238,1,0,0:0:0:0:
57,280,95377,1,0,0:0:0:0:
49,307,95516,1,2,0:0:0:0:
206,359,95654,6,0,B|203:315|203:315|200:310|200:310|198:265,1,95.9999970703126,2|2,0:0|0:0,0:0:0:0:
57,280,96071,2,0,B|60:324|60:324|63:329|63:329|65:374,1,95.9999970703126,2|2,0:0|0:0,0:0:0:0:
124,223,96487,2,0,L|119:167,1,47.9999985351563,2|0,0:0|0:0,0:0:0:0:
47,127,96765,6,0,P|67:161|130:172,1,95.9999970703126,2|2,0:0|0:0,0:0:0:0:
188,48,97182,2,0,P|142:58|116:97,1,95.9999970703126,2|2,0:0|0:0,0:0:0:0:
202,172,97599,2,0,L|207:125,1,47.9999985351563,2|0,0:0|0:0,0:0:0:0:
323,48,97876,6,0,P|369:58|396:97,1,95.9999970703126,2|0,0:0|0:0,0:0:0:0:
388,174,98293,1,0,0:0:0:0:
305,125,98432,2,0,P|310:174|315:230,1,95.9999970703126,2|0,0:0|0:0,0:0:0:0:
326,298,98849,1,2,0:0:0:0:
482,239,98987,2,0,P|434:243|387:249,1,95.9999970703126,2|2,0:0|0:0,0:0:0:0:
380,371,99404,2,0,P|388:348|399:327,1,47.9999985351563,2|0,0:0|0:0,0:0:0:0:
512,303,99682,1,2,0:0:0:0:
470,359,99821,1,0,0:0:0:0:
482,239,99960,1,2,0:0:0:0:
387,249,100099,6,0,P|381:208|373:149,1,95.9999970703126,2|2,0:0|0:0,0:0:0:0:
511,78,100515,2,0,B|490:94|490:94|420:92,1,95.9999970703126,2|2,0:0|0:0,0:0:0:0:
348,0,100932,2,0,L|355:47,1,47.9999985351563,2|0,0:0|0:0,0:0:0:0:
309,110,101210,5,2,0:0:0:0:
420,92,101349,1,2,0:0:0:0:
355,47,101487,1,2,0:0:0:0:
373,153,101626,2,0,B|380:206|354:194|365:247,1,95.9999970703126,2|2,0:0|0:0,0:0:0:0:
480,244,102043,2,0,P|460:232|437:227,1,47.9999985351563,2|0,0:0|0:0,0:0:0:0:
420,314,102321,5,2,0:0:0:0:
434,303,102460,1,0,0:0:0:0:
421,301,102599,1,0,0:0:0:0:
432,315,102738,1,2,0:0:0:0:
323,237,102876,5,2,0:0:0:0:
305,251,103015,1,0,0:0:0:0:
307,236,103154,1,0,0:0:0:0:
321,253,103293,1,2,0:0:0:0:
451,144,103432,5,2,0:0:0:0:
469,165,103571,1,0,0:0:0:0:
472,145,103710,1,0,0:0:0:0:
450,162,103849,1,2,0:0:0:0:
308,39,103987,5,2,0:0:0:0:
334,73,104126,1,0,0:0:0:0:
306,70,104265,1,0,0:0:0:0:
338,43,104404,1,2,0:0:0:0:
307,236,104543,6,0,L|356:231,1,47.9999985351563,2|0,0:0|0:0,0:0:0:0:
420,317,104821,1,2,0:0:0:0:
424,321,104960,2,0,L|420:274,1,47.9999985351563,2|0,0:0|0:0,0:0:0:0:
467,212,105237,1,2,0:0:0:0:
401,169,105376,2,0,L|405:121,1,47.9999985351563,2|0,0:0|0:0,0:0:0:0:
454,38,105654,5,2,0:0:0:0:
385,46,105793,1,2,0:0:0:0:
334,94,105932,1,2,0:0:0:0:
326,163,106071,2,0,L|335:224,1,47.9999985351563,2|0,0:0|0:0,0:0:0:0:
391,384,106349,1,2,0:0:0:0:
398,314,106488,2,0,L|391:267,1,47.9999985351563,2|0,0:0|0:0,0:0:0:0:
121,384,106765,5,2,0:0:0:0:
113,314,106904,2,0,L|121:261,1,51.999997619629,2|0,0:0|0:0,0:0:0:0:
207,200,107182,1,2,0:0:0:0:
173,270,107321,2,0,L|119:262,1,51.999997619629,2|0,0:0|0:0,0:0:0:0:
139,115,107599,2,0,L|191:123,1,51.999997619629,2|0,0:0|0:0,0:0:0:0:
107,186,107876,5,2,0:0:0:0:
0,146,108015,1,0,0:0:0:0:
16,264,108154,1,2,0:0:0:0:
42,200,108293,2,0,P|31:146|36:89,1,103.999995239258,2|2,0:0|0:0,0:0:0:0:
24,20,108710,2,0,L|93:9,1,51.999997619629,2|0,0:0|0:0,0:0:0:0:
132,63,108987,5,2,0:0:0:0:
207,84,109126,1,2,0:0:0:0:
188,8,109265,1,2,0:0:0:0:
192,12,109404,2,0,P|196:89|189:132,1,103.999995239258,2|2,0:0|0:0,0:0:0:0:
207,191,109821,2,0,L|155:197,1,51.999997619629,2|0,0:0|0:0,0:0:0:0:
79,211,110099,5,2,0:0:0:0:
131,269,110237,1,2,0:0:0:0:
54,282,110376,1,2,0:0:0:0:
58,286,110515,2,0,B|56:333|56:333|53:338|53:338|50:393,1,103.999995239258,2|2,0:0|0:0,0:0:0:0:
131,269,110932,2,0,L|183:263,1,51.999997619629,2|0,0:0|0:0,0:0:0:0:
203,366,111210,6,0,L|207:337,1,30.0000011444092,2|0,0:0|0:0,0:0:0:0:
199,339,111487,2,0,L|195:368,1,30.0000011444092,2|0,0:0|0:0,0:0:0:0:
58,286,111765,6,0,L|52:241,1,40,2|0,0:0|0:0,0:0:0:0:
61,248,112043,2,0,L|65:287,1,40,2|0,0:0|0:0,0:0:0:0:
201,203,112321,6,0,L|207:154,1,50,2|0,0:0|0:0,0:0:0:0:
199,156,112599,2,0,L|193:205,1,50,2|0,0:0|0:0,0:0:0:0:
39,108,112876,6,0,L|31:41,1,60.0000022888184,2|0,0:0|0:0,0:0:0:0:
40,50,113154,2,0,L|46:109,1,60.0000022888184,2|0,0:0|0:0,0:0:0:0:
206,22,113432,6,0,L|148:11,1,51.999997619629,2|0,0:0|0:0,0:0:0:0:
185,95,113710,1,2,0:0:0:0:
189,99,113849,2,0,L|131:88,1,51.999997619629,2|0,0:0|0:0,0:0:0:0:
119,165,114126,1,2,0:0:0:0:
135,289,114265,2,0,L|145:238,1,51.999997619629,2|0,0:0|0:0,0:0:0:0:
34,242,114543,5,2,0:0:0:0:
5,365,114682,1,2,0:0:0:0:
65,313,114821,1,2,0:0:0:0:
189,370,114960,2,0,L|208:268,1,103.999995239258,2|2,0:0|0:0,0:0:0:0:
179,201,115376,2,0,P|158:215|144:237,1,51.999997619629,2|0,0:0|0:0,0:0:0:0:
322,370,115654,6,0,L|304:268,1,103.999995239258,2|2,0:0|0:0,0:0:0:0:
366,130,116071,1,0,0:0:0:0:
332,201,116210,2,0,P|353:215|367:237,1,51.999997619629,2|0,0:0|0:0,0:0:0:0:
435,167,116487,2,0,P|446:190|447:215,1,51.999997619629,2|0,0:0|0:0,0:0:0:0:
426,384,116765,2,0,B|409:360|409:360|424:287,1,103.999995239258,2|2,0:0|0:0,0:0:0:0:
332,201,117182,2,0,B|315:225|315:225|329:298,1,103.999995239258,2|2,0:0|0:0,0:0:0:0:
447,215,117599,1,2,0:0:0:0:
396,157,117737,1,2,0:0:0:0:
492,51,117876,6,0,P|501:101|471:141,1,103.999995239258,2|2,0:0|0:0,0:0:0:0:
323,36,118293,2,0,B|378:47|374:7|430:18,1,103.999995239258,2|2,0:0|0:0,0:0:0:0:
325,184,118710,2,0,P|320:158|322:132,1,51.999997619629,2|0,0:0|0:0,0:0:0:0:
396,157,118987,5,2,0:0:0:0:
500,236,119126,1,2,0:0:0:0:
370,269,119265,1,2,0:0:0:0:
423,222,119404,2,0,B|439:260|439:260|424:341,1,103.999995239258,2|2,0:0|0:0,0:0:0:0:
363,365,119821,1,2,0:0:0:0:
304,312,119960,1,2,0:0:0:0:
427,321,120099,6,0,L|469:317,1,30.0000011444092,2|0,0:0|0:0,0:0:0:0:
428,331,120376,2,0,L|470:327,1,30.0000011444092,2|0,0:0|0:0,0:0:0:0:
361,223,120654,6,0,L|319:219,1,40,2|0,0:0|0:0,0:0:0:0:
360,233,120932,2,0,L|318:229,1,40,2|0,0:0|0:0,0:0:0:0:
453,135,121210,6,0,L|506:129,1,50,2|0,0:0|0:0,0:0:0:0:
454,145,121487,2,0,L|507:139,1,50,2|0,0:0|0:0,0:0:0:0:
372,5,121765,6,0,L|293:-2,1,60.0000022888184,2|0,0:0|0:0,0:0:0:0:
370,18,122043,2,0,L|291:10,1,60.0000022888184,2|0,0:0|0:0,0:0:0:0:
362,97,122321,6,0,P|315:131|305:189,1,103.999995239258,2|2,0:0|0:0,0:0:0:0:
398,274,122737,2,0,B|391:222|391:222|388:222|388:222|383:174,1,103.999995239258,2|2,0:0|0:0,0:0:0:0:
306,347,123154,2,0,B|330:338|330:338|356:340,1,51.999997619629,2|0,0:0|0:0,0:0:0:0:
476,337,123432,6,0,B|482:285|482:285|485:285|485:285|491:237,1,103.999995239258,2|2,0:0|0:0,0:0:0:0:
441,176,123849,2,0,B|386:158|398:204|340:189,1,103.999995239258,2|2,0:0|0:0,0:0:0:0:
356,122,124265,2,0,P|352:92|356:62,1,51.999997619629,2|0,0:0|0:0,0:0:0:0:
157,70,124543,6,0,P|159:97|155:125,1,55.9999982910157,6|0,0:0|0:0,0:0:0:0:
90,95,124821,1,0,0:0:0:0:
34,48,124960,2,0,P|56:32|82:22,1,55.9999982910157,2|0,0:0|0:0,0:0:0:0:
90,95,125237,1,0,0:0:0:0:
78,165,125376,2,0,P|53:153|32:136,1,55.9999982910157,2|0,0:0|0:0,0:0:0:0:
157,70,125654,5,2,0:0:0:0:
149,146,125793,1,2,0:0:0:0:
207,222,125932,1,2,0:0:0:0:
200,301,126071,2,0,P|166:301|120:306,1,55.9999982910157,2|0,0:0|0:0,0:0:0:0:
0,315,126349,1,0,0:0:0:0:
69,280,126487,1,2,0:0:0:0:
90,355,126626,1,0,0:0:0:0:
4,237,126765,6,0,B|-5:213|-5:213|11:125,1,111.999996582031,2|2,0:0|0:0,0:0:0:0:
24,58,127182,2,0,P|34:111|79:143,1,111.999996582031,2|2,0:0|0:0,0:0:0:0:
153,64,127599,2,0,L|98:71,1,55.9999982910157,2|0,0:0|0:0,0:0:0:0:
206,123,127876,5,2,0:0:0:0:
162,187,128015,1,2,0:0:0:0:
207,249,128154,1,2,0:0:0:0:
92,214,128293,2,0,L|22:224,1,55.9999982910157,2|0,0:0|0:0,0:0:0:0:
136,275,128571,1,2,0:0:0:0:
54,353,128710,2,0,L|110:346,1,55.9999982910157,2|0,0:0|0:0,0:0:0:0:
19,285,128987,5,2,0:0:0:0:
0,287,129126,1,0,0:0:0:0:
12,303,129265,1,0,0:0:0:0:
10,292,129404,1,2,0:0:0:0:
182,247,129543,5,2,0:0:0:0:
207,249,129682,1,0,0:0:0:0:
191,271,129821,1,0,0:0:0:0:
194,256,129960,1,2,0:0:0:0:
38,166,130099,5,2,0:0:0:0:
3,169,130238,1,0,0:0:0:0:
25,197,130377,1,0,0:0:0:0:
22,177,130516,1,2,0:0:0:0:
149,43,130654,5,2,0:0:0:0:
206,50,130793,1,0,0:0:0:0:
170,96,130932,1,0,0:0:0:0:
176,64,131071,1,2,0:0:0:0:
45,1,131210,6,0,B|67:20|67:20|83:103,1,111.999996582031,2|2,0:0|0:0,0:0:0:0:
133,190,131626,2,0,P|73:182|20:176,1,111.999996582031,2|2,0:0|0:0,0:0:0:0:
0,252,132043,2,0,L|11:317,1,55.9999982910157,2|0,0:0|0:0,0:0:0:0:
66,357,132321,6,0,B|141:365|117:332|178:338,1,111.999996582031,2|2,0:0|0:0,0:0:0:0:
129,264,132737,1,2,0:0:0:0:
207,268,132876,2,0,L|199:209,1,55.9999982910157,2|0,0:0|0:0,0:0:0:0:
182,83,133154,2,0,L|174:138,1,55.9999982910157,2|0,0:0|0:0,0:0:0:0:
305,268,133432,6,0,L|313:209,1,55.9999982910157,2|0,0:0|0:0,0:0:0:0:
330,83,133710,2,0,L|337:138,1,55.9999982910157,2|0,0:0|0:0,0:0:0:0:
370,308,133987,2,0,P|441:297|471:247,1,111.999996582031,2|2,0:0|0:0,0:0:0:0:
394,234,134404,1,2,0:0:0:0:
458,135,134543,6,0,P|455:163|460:191,1,55.9999982910157,2|0,0:0|0:0,0:0:0:0:
502,71,134821,1,2,0:0:0:0:
447,16,134960,2,0,L|384:12,1,55.9999982910157,2|0,0:0|0:0,0:0:0:0:
347,74,135237,1,2,0:0:0:0:
304,137,135376,1,2,0:0:0:0:
336,206,135515,1,2,0:0:0:0:
305,279,135654,6,0,P|351:244|405:252,1,111.999996582031,2|2,0:0|0:0,0:0:0:0:
424,326,136071,2,0,P|378:361|324:353,1,111.999996582031,2|2,0:0|0:0,0:0:0:0:
475,267,136487,2,0,L|540:275,1,55.9999982910157,2|0,0:0|0:0,0:0:0:0:
336,206,136765,5,2,0:0:0:0:
335,126,136904,1,2,0:0:0:0:
401,166,137043,1,2,0:0:0:0:
356,165,137182,2,0,P|354:104|358:45,1,111.999996582031,2|2,0:0|0:0,0:0:0:0:
487,101,137599,2,0,L|432:94,1,55.9999982910157,2|0,0:0|0:0,0:0:0:0:
357,53,137876,5,2,0:0:0:0:
338,51,138015,1,0,0:0:0:0:
350,35,138154,1,0,0:0:0:0:
348,46,138293,1,2,0:0:0:0:
486,101,138432,5,2,0:0:0:0:
511,99,138571,1,0,0:0:0:0:
495,77,138710,1,0,0:0:0:0:
498,92,138849,1,2,0:0:0:0:
342,182,138988,5,2,0:0:0:0:
307,179,139127,1,0,0:0:0:0:
329,151,139266,1,0,0:0:0:0:
326,171,139405,1,2,0:0:0:0:
453,305,139543,5,2,0:0:0:0:
510,298,139682,1,0,0:0:0:0:
474,252,139821,1,0,0:0:0:0:
480,284,139960,1,2,0:0:0:0:
350,386,140099,6,0,P|328:369|305:354,1,55.9999982910157,2|0,0:0|0:0,0:0:0:0:
366,313,140376,1,2,0:0:0:0:
437,288,140515,2,0,P|433:316|433:344,1,55.9999982910157,2|0,0:0|0:0,0:0:0:0:
366,313,140793,1,2,0:0:0:0:
309,259,140932,2,0,P|335:249|361:238,1,55.9999982910157,2|0,0:0|0:0,0:0:0:0:
468,216,141210,6,0,P|472:188|473:160,1,55.9999982910157,2|0,0:0|0:0,0:0:0:0:
431,108,141487,1,2,0:0:0:0:
507,22,141626,2,0,P|480:32|455:44,1,55.9999982910157,2|0,0:0|0:0,0:0:0:0:
431,108,141903,1,2,0:0:0:0:
319,86,142043,2,0,P|340:103|364:118,1,55.9999982910157,2|0,0:0|0:0,0:0:0:0:
256,192,142321,5,6,0:0:0:0:
184,187,142460,1,0,0:0:0:0:
145,128,142599,1,0,0:0:0:0:
216,132,142737,1,2,0:0:0:0:
256,192,142876,5,2,0:0:0:0:
327,187,143015,1,0,0:0:0:0:
366,127,143153,1,0,0:0:0:0:
295,132,143292,1,2,0:0:0:0:
256,192,143432,5,2,0:0:0:0:
224,255,143571,1,0,0:0:0:0:
256,320,143709,1,0,0:0:0:0:
288,256,143848,1,2,0:0:0:0:
256,192,143987,6,0,P|233:160|229:118,1,60.0000022888184,2|0,0:0|0:0,0:0:0:0:
252,28,144265,1,0,0:0:0:0:
256,32,144404,1,2,0:0:0:0:
256,192,144543,6,0,P|224:288|96:285,1,240.000009155274,2|2,0:0|0:0,0:0:0:0:
64,156,145237,1,2,0:0:0:0:
164,62,145376,2,0,P|195:77|220:118,1,60.0000022888184,2|0,0:0|0:0,0:0:0:0:
256,192,145654,6,0,P|288:288|416:285,1,240.000009155274,2|2,0:0|0:0,0:0:0:0:
448,156,146348,1,2,0:0:0:0:
348,62,146487,2,0,P|317:77|292:118,1,60.0000022888184,2|0,0:0|0:0,0:0:0:0:
256,192,146765,5,2,0:0:0:0:
295,251,146904,1,0,0:0:0:0:
366,256,147043,1,0,0:0:0:0:
327,196,147181,1,2,0:0:0:0:
256,192,147320,5,2,0:0:0:0:
184,196,147460,1,0,0:0:0:0:
145,256,147599,1,0,0:0:0:0:
216,251,147737,1,2,0:0:0:0:
256,192,147876,5,2,0:0:0:0:
287,128,148015,1,0,0:0:0:0:
256,64,148154,1,0,0:0:0:0:
224,128,148292,1,2,0:0:0:0:
256,192,148432,6,0,P|279:224|283:266,1,60.0000022888184,2|0,0:0|0:0,0:0:0:0:
252,348,148709,1,0,0:0:0:0:
256,352,148848,1,2,0:0:0:0:
256,192,148987,6,0,P|288:96|416:99,1,240.000009155274,2|2,0:0|0:0,0:0:0:0:
448,228,149681,1,2,0:0:0:0:
348,322,149821,2,0,P|317:307|292:266,1,60.0000022888184,2|0,0:0|0:0,0:0:0:0:
256,192,150098,6,0,P|224:96|96:99,1,240.000009155274,2|2,0:0|0:0,0:0:0:0:
64,228,150792,1,2,0:0:0:0:
164,322,150932,2,0,P|195:307|220:266,1,60.0000022888184,2|0,0:0|0:0,0:0:0:0:
256,192,151210,6,0,L|173:205,1,60.0000022888184,2|0,0:0|0:0,0:0:0:0:
131,153,151487,1,0,0:0:0:0:
135,158,151626,1,2,0:0:0:0:
256,192,151765,6,0,L|286:113,1,60.0000022888184,2|0,0:0|0:0,0:0:0:0:
341,100,152042,1,0,0:0:0:0:
345,104,152181,1,2,0:0:0:0:
256,192,152321,6,0,L|308:257,1,60.0000022888184,2|0,0:0|0:0,0:0:0:0:
283,309,152598,1,0,0:0:0:0:
287,313,152737,1,2,0:0:0:0:
256,192,152876,6,0,L|256:105,1,60.0000022888184,2|0,0:0|0:0,0:0:0:0:
251,33,153154,1,0,0:0:0:0:
255,37,153293,1,2,0:0:0:0:
256,192,153432,6,0,B|141:250|147:132|27:192,1,240.000009155274,2|2,0:0|0:0,0:0:0:0:
88,260,154126,1,2,0:0:0:0:
182,64,154265,2,0,P|192:92|198:123,1,60.0000022888184,2|0,0:0|0:0,0:0:0:0:
256,192,154543,6,0,B|371:250|365:132|485:192,1,240.000009155274,2|2,0:0|0:0,0:0:0:0:
424,260,155237,1,2,0:0:0:0:
329,64,155376,2,0,P|320:92|314:123,1,60.0000022888184,2|0,0:0|0:0,0:0:0:0:
256,192,155654,6,0,L|173:179,1,60.0000022888184,2|0,0:0|0:0,0:0:0:0:
131,222,155931,1,0,0:0:0:0:
135,226,156070,1,2,0:0:0:0:
256,192,156210,6,0,L|286:271,1,60.0000022888184,2|0,0:0|0:0,0:0:0:0:
341,276,156486,1,0,0:0:0:0:
345,280,156625,1,2,0:0:0:0:
256,192,156765,6,0,L|308:127,1,60.0000022888184,2|0,0:0|0:0,0:0:0:0:
283,67,157042,1,0,0:0:0:0:
287,71,157181,1,2,0:0:0:0:
256,192,157321,6,0,L|256:279,1,60.0000022888184,2|0,0:0|0:0,0:0:0:0:
253,343,157598,1,0,0:0:0:0:
257,347,157737,1,2,0:0:0:0:
256,192,157876,6,0,B|371:134|365:252|485:192,1,240.000009155274,2|2,0:0|0:0,0:0:0:0:
424,124,158570,1,2,0:0:0:0:
314,261,158710,2,0,P|319:290|329:319,1,60.0000022888184,2|0,0:0|0:0,0:0:0:0:
256,192,158987,6,0,B|141:134|147:252|27:192,1,240.000009155274,2|2,0:0|0:0,0:0:0:0:
88,124,159681,1,2,0:0:0:0:
197,261,159821,2,0,P|192:290|182:319,1,60.0000022888184,2|0,0:0|0:0,0:0:0:0:
14,246,160099,6,0,P|19:217|29:188,1,55.9999982910157,2|0,0:0|0:0,0:0:0:0:
25,102,160376,1,0,0:0:0:0:
29,106,160515,1,0,0:0:0:0:
33,110,160654,2,0,P|62:115|91:125,1,55.9999982910157,2|0,0:0|0:0,0:0:0:0:
157,134,160932,1,0,0:0:0:0:
161,138,161071,1,0,0:0:0:0:
165,142,161210,2,0,P|160:171|150:200,1,55.9999982910157,2|0,0:0|0:0,0:0:0:0:
138,270,161487,1,0,0:0:0:0:
142,274,161626,1,0,0:0:0:0:
146,278,161765,2,0,P|117:273|88:263,1,55.9999982910157,2|0,0:0|0:0,0:0:0:0:
256,192,162043,1,2,0:0:0:0:
312,235,162182,1,0,0:0:0:0:
371,275,162321,6,0,L|429:288,1,51.999997619629,2|0,0:0|0:0,0:0:0:0:
484,229,162599,1,0,0:0:0:0:
488,233,162738,1,0,0:0:0:0:
492,237,162876,2,0,L|505:178,1,51.999997619629,2|0,0:0|0:0,0:0:0:0:
447,108,163154,1,0,0:0:0:0:
451,112,163293,1,0,0:0:0:0:
455,116,163432,2,0,L|396:102,1,51.999997619629,2|0,0:0|0:0,0:0:0:0:
325,145,163710,1,0,0:0:0:0:
329,149,163849,1,0,0:0:0:0:
333,153,163987,2,0,L|319:211,1,51.999997619629,2|0,0:0|0:0,0:0:0:0:
256,250,164265,1,2,0:0:0:0:
183,282,164404,1,0,0:0:0:0:
179,156,164543,6,0,P|184:179|191:203,1,47.9999985351563,2|0,0:0|0:0,0:0:0:0:
60,115,164821,1,0,0:0:0:0:
64,119,164960,1,0,0:0:0:0:
68,123,165099,2,0,P|95:117|118:110,1,47.9999985351563,2|0,0:0|0:0,0:0:0:0:
41,233,165376,1,0,0:0:0:0:
45,237,165515,1,0,0:0:0:0:
49,241,165654,2,0,P|43:213|36:190,1,47.9999985351563,2|0,0:0|0:0,0:0:0:0:
148,264,165932,1,0,0:0:0:0:
152,268,166071,1,0,0:0:0:0:
156,272,166210,2,0,P|128:277|105:284,1,47.9999985351563,2|0,0:0|0:0,0:0:0:0:
178,347,166487,1,2,0:0:0:0:
255,363,166626,1,0,0:0:0:0:
334,347,166765,6,0,L|512:310,1,176.000005371094,2|2,0:0|0:0,0:0:0:0:
488,102,167876,2,0,L|310:139,1,176.000005371094,2|2,0:0|0:0,0:0:0:0:
378,238,168710,1,2,0:0:0:0:
493,207,168987,2,0,L|520:210,1,20,2|0,0:0|0:0,0:0:0:0:
67,59,186765,6,0,B|114:108|84:174,1,120.000004577637,2|0,0:0|0:0,0:0:0:0:
159,333,187599,2,0,B|118:369|17:299|90:163,1,240.000009155274
157,203,188987,6,0,P|167:245|204:268,2,90.0000034332277
192,47,190376,2,0,P|165:55|125:61,1,60.0000022888184
196,51,190932,1,0,0:0:0:0:
126,190,191210,6,0,B|53:197|82:151|1:164,3,120.000004577637,2|0|0|0,0:0|0:0|0:0|0:0,0:0:0:0:
173,115,193432,2,0,P|158:170|138:302,1,180.000006866455
180,358,194543,1,0,0:0:0:0:
445,59,195654,6,0,B|397:105|428:174,1,120.000004577637,2|0,0:0|0:0,0:0:0:0:
353,333,196488,2,0,B|394:369|495:299|422:163,1,240.000009155274
355,204,197876,6,0,P|351:236|308:269,2,90.0000034332277
320,47,199265,2,0,P|347:55|387:61,1,60.0000022888184
324,51,199821,1,0,0:0:0:0:
386,190,200099,6,0,B|459:197|430:151|511:164,3,120.000004577637,2|0|0|0,0:0|0:0|0:0|0:0,0:0:0:0:
339,115,202321,2,0,P|354:170|374:302,1,180.000006866455
332,358,203432,1,0,0:0:0:0:
206,172,204543,6,0,P|112:78|114:257,1,420.000016021729,2|0,0:0|0:0,0:0:0:0:
98,335,206765,2,0,B|51:325|58:356|8:348,2,90.0000034332277,2|0|0,0:0|0:0|0:0,0:0:0:0:
102,339,208154,1,0,0:0:0:0:
46,78,208710,1,0,0:0:0:0:
50,82,208987,6,0,B|138:103|138:103|170:97,3,120.000004577637,2|2|2|2,0:0|0:0|0:0|0:0,0:0:0:0:
149,309,211210,2,0,B|124:330|86:337|86:337|145:260|115:169,1,240.000009155274,2|2,0:0|0:0,0:0:0:0:
306,172,213432,6,0,P|400:78|398:257,1,420.000016021729,2|0,0:0|0:0,0:0:0:0:
414,335,215654,2,0,B|461:325|454:356|504:348,2,90.0000034332277,2|0|0,0:0|0:0|0:0,0:0:0:0:
418,339,217043,1,0,0:0:0:0:
458,78,217599,1,0,0:0:0:0:
462,82,217876,6,0,B|374:103|374:103|342:97,3,120.000004577637,2|2|2|2,0:0|0:0|0:0|0:0,0:0:0:0:
363,309,220099,2,0,B|388:330|426:337|426:337|367:260|397:169,1,240.000009155274,2|2,0:0|0:0,0:0:0:0:
398,180,221904,2,0,P|375:195|349:203,1,47.9999985351563,2|0,0:0|0:0,0:0:0:0:
156,201,222321,6,0,P|133:193|114:180,1,47.9999985351563,6|0,0:0|0:0,0:0:0:0:
143,110,222599,1,2,0:0:0:0:
174,279,222737,2,0,P|138:289|62:285,1,95.9999970703126,2|0,0:0|0:0,0:0:0:0:
0,284,223154,1,2,0:0:0:0:
45,219,223293,1,2,0:0:0:0:
71,84,223432,5,2,0:0:0:0:
22,145,223571,1,2,0:0:0:0:
26,149,223710,2,0,L|79:152,1,47.9999985351563
205,160,223987,2,0,L|202:213,1,47.9999985351563,2|0,0:0|0:0,0:0:0:0:
190,330,224265,1,2,0:0:0:0:
194,333,224543,6,0,P|163:286|71:293,2,143.999995605469,2|2|2,0:0|0:0|0:0,0:0:0:0:
121,352,225515,1,2,0:0:0:0:
90,182,225654,2,0,P|120:135|213:142,2,143.999995605469,2|2|2,0:0|0:0|0:0,0:0:0:0:
163,200,226626,1,2,0:0:0:0:
356,201,226765,6,0,P|379:193|398:180,1,47.9999985351563,2|0,0:0|0:0,0:0:0:0:
369,110,227043,1,2,0:0:0:0:
338,279,227182,2,0,P|374:289|450:285,1,95.9999970703126,2|0,0:0|0:0,0:0:0:0:
512,284,227598,1,2,0:0:0:0:
467,219,227737,1,2,0:0:0:0:
441,84,227876,5,2,0:0:0:0:
490,145,228015,1,2,0:0:0:0:
494,149,228154,2,0,L|441:152,1,47.9999985351563
307,160,228432,2,0,L|310:213,1,47.9999985351563,2|0,0:0|0:0,0:0:0:0:
322,330,228710,1,2,0:0:0:0:
326,334,228987,6,0,P|356:287|449:294,2,143.999995605469,2|2|2,0:0|0:0|0:0,0:0:0:0:
399,353,229960,1,2,0:0:0:0:
430,183,230099,2,0,P|399:136|307:143,2,143.999995605469,2|2|2,0:0|0:0|0:0,0:0:0:0:
357,201,231071,1,2,0:0:0:0:
178,139,231210,6,0,L|192:87,1,47.9999985351563,2|0,0:0|0:0,0:0:0:0:
104,122,231487,2,0,L|118:70,1,47.9999985351563,2|0,0:0|0:0,0:0:0:0:
63,260,231765,2,0,L|49:208,1,47.9999985351563,2|0,0:0|0:0,0:0:0:0:
137,243,232043,2,0,L|123:191,1,47.9999985351563,2|0,0:0|0:0,0:0:0:0:
121,338,232321,2,0,B|75:351|75:351|19:328,1,95.9999970703126,2|0,0:0|0:0,0:0:0:0:
63,260,232737,1,2,0:0:0:0:
194,365,232876,2,0,P|199:317|206:269,1,95.9999970703126,2|0,0:0|0:0,0:0:0:0:
129,102,233432,6,0,B|57:95|80:155|0:148,2,143.999995605469,2|2|2,0:0|0:0|0:0,0:0:0:0:
33,52,234404,1,2,0:0:0:0:
121,178,234543,2,0,P|127:214|124:273,1,95.9999970703126,2|2,0:0|0:0,0:0:0:0:
127,277,234960,2,0,B|174:268|174:268|201:308,1,95.9999970703126,2|2,0:0|0:0,0:0:0:0:
205,312,235376,2,0,P|202:339|201:362,1,47.9999985351563,2|0,0:0|0:0,0:0:0:0:
395,308,235654,6,0,L|408:262,1,47.9999985351563,2|0,0:0|0:0,0:0:0:0:
334,245,235932,2,0,L|321:291,1,47.9999985351563,2|0,0:0|0:0,0:0:0:0:
461,170,236210,2,0,L|449:124,1,47.9999985351563,2|0,0:0|0:0,0:0:0:0:
375,141,236487,2,0,L|389:193,1,47.9999985351563,2|0,0:0|0:0,0:0:0:0:
481,51,236765,2,0,B|437:33|437:33|391:46,1,95.9999970703126,2|0,0:0|0:0,0:0:0:0:
449,124,237181,1,2,0:0:0:0:
318,19,237321,2,0,P|312:66|305:114,1,95.9999970703126,2|0,0:0|0:0,0:0:0:0:
445,318,237876,2,0,B|430:333|402:344|402:344|497:242|443:110,1,287.999991210938,2|0,0:0|0:0,0:0:0:0:
367,54,238987,38,0,B|328:49|301:68|301:68|248:62|249:16|249:16|290:22|300:69|300:69|269:95|260:149|260:149|222:92|119:89|64:287|206:239|216:310|236:311|236:311|255:317|310:254|321:338|418:272|430:171|399:110|267:101|256:192,1,1039.99995239258,2|0,0:0|0:0,0:0:0:0:
