osu file format v14

[General]
AudioFilename: audio.mp3
AudioLeadIn: 0
PreviewTime: 17737
Countdown: 0
SampleSet: Soft
StackLeniency: 0.2
Mode: 0
LetterboxInBreaks: 0
WidescreenStoryboard: 1

[Editor]
Bookmarks: 99,8987,17876,35654,53432,71210,80099,88987,106765,124543,142321,168987,169126,169265,169404,169543,169682,169821,169960,170099,170237,170376,170515,170654,170793,170932,171071,171210,171349,171487,171626,171765,171904,172043,172182,172321,172460,172599,172737,172876,173015,173154,173293,173432,173571,173710,173849,173987,174126,174265,174404,174543,174682,174821,174960,175099,175237,175376,175515,175654,175793,175932,176071,176210,176349,176487,176626,176765,176904,177043,177182,177321,177460,177599,177737,177876,178015,178154,178293,178432,178571,178710,178849,178987,179126,179265,179404,179543,179682,179821,179960,180099,180237,180376,180515,180654,180793,180932,181071,181210,181349,181487,181626,181765,181904,182043,182182,182321,182460,182599,182737,182876,183015,183154,183293,183432,183571,183710,183849,183987,184126,184265,184404,184543,184682,184821,184960,185099,185237,185376,185515,185654,185793,185932,186071,186210,186349,186487,186626,186765,204543,222321,238987
DistanceSpacing: 1
BeatDivisor: 4
GridSize: 32
TimelineZoom: 1

[Metadata]
Title:Mystery of Love
TitleUnicode:Mystery of Love
Artist:Sufjan Stevens
ArtistUnicode:Sufjan Stevens
Creator:jas
Version:Collab Hard
Source:Call Me By Your Name
Tags:cmbyn craezy dyl-byl qiyana ost original soundtrack timothee timothée chalamet armie hammer acoustic english movie gay lgbtq
BeatmapID:2488570
BeatmapSetID:1166024

[Difficulty]
HPDrainRate:4.5
CircleSize:4.3
OverallDifficulty:6
ApproachRate:7.2
SliderMultiplier:1.45
SliderTickRate:1

[Events]
//Background and Video events
0,0,"cmbyn.jpg",0,0
//Break Periods
2,169187,185895
//Storyboard Layer 0 (Background)
//Storyboard Layer 1 (Fail)
//Storyboard Layer 2 (Pass)
//Storyboard Layer 3 (Foreground)
Sprite,Foreground,Centre,"sb\cooltext-357139847897496.png",320,240 M,0,99,,110.9333,410.6667 S,0,99,,0.5840002 F,1,99,654,0,1 F,0,654,8432,1 F,0,8432,8987,1,0
Sprite,Foreground,Centre,"sb\cooltext-357139847897496.png",320,240 M,0,17876,,110.9333,410.6667 S,0,17876,,0.5840002 F,1,17876,18431,0,1 F,0,18431,26209,1 F,0,26764,26765,0,1
Sprite,Foreground,Centre,"sb\cooltext-357139847897496.png",320,240 M,0,26765,,110.9333,410.6667 S,0,26765,,0.5840002 F,1,26765,27320,1 F,0,27320,35098,1 F,0,35098,35099,1 F,0,35099,35653,1,0 F,0,35653,35654,0
Sprite,Foreground,Centre,"sb\cooltext-357139834037972.png",320,240 S,0,8987,,0.5626668 F,0,8987,9543,0,1 M,0,8987,17876,130.1333,410.6667 F,0,9543,17321,1 F,0,17321,17876,1,0
Sprite,Foreground,Centre,"sb\cooltext-357139834037972.png",320,240 M,0,35654,,130.1333,410.6667 S,0,35654,,0.5626668 F,0,35654,36210,0,1 F,0,36210,52876,1 F,0,52876,53432,1,0
Sprite,Foreground,Centre,"sb\cooltext-357139847897496.png",320,240 M,0,17876,,110.9333,410.6667 S,0,17876,,0.5840002 F,1,53432,53987,0,1 F,0,53987,70645,1 F,0,70645,71210,1,0
Sprite,Foreground,Centre,"sb\cooltext-357139834037972.png",320,240 S,0,71210,,0.5626668 F,0,71210,71766,0,1 M,0,71210,80099,130.1333,410.6667 F,0,71766,79544,1 F,0,79544,80099,1,0
Sprite,Foreground,Centre,"sb\cooltext-357139847897496.png",320,240 M,0,80099,,110.9333,410.6667 S,0,80099,,0.5840002 F,1,80099,80654,0,1 F,0,80654,88432,1 F,0,88432,88987,1,0
Sprite,Foreground,Centre,"sb\cooltext-357139834037972.png",320,240 M,0,88987,,130.1333,410.6667 S,0,88987,,0.5626668 F,0,88987,89543,0,1 F,0,89543,106209,1 F,0,106209,106765,1,0
Sprite,Foreground,Centre,"sb\cooltext-357139847897496.png",320,240 M,0,106765,,110.9333,410.6667 S,0,106765,,0.5840002 F,1,106765,107321,0,1 F,0,107321,123987,1 F,0,123987,124543,1,0
Sprite,Foreground,Centre,"sb\cooltext-357139834037972.png",320,240 M,0,124543,,130.1333,410.6667 S,0,124543,,0.5626668 F,0,124543,125099,0,1 F,0,125099,141765,1 F,0,141765,142321,1,0
Sprite,Foreground,Centre,"sb\cooltext-357139847897496.png",320,240 M,0,106765,,110.9333,410.6667 S,0,106765,,0.5840002 F,1,142321,142876,0,1 F,0,142876,159534,1 F,0,159534,168849,1,0
Sprite,Foreground,Centre,"sb\cooltext-357139834037972.png",320,240 M,0,186765,,130.1333,410.6667 S,0,186765,,0.5626668 F,0,186765,187321,0,1 F,0,187321,203987,1 F,0,203987,204543,1,0
Sprite,Foreground,Centre,"sb\cooltext-357139847897496.png",320,240 M,0,204543,,110.9333,410.6667 S,0,204543,,0.5840002 F,1,204543,205099,0,1 F,0,205099,221765,1 F,0,221765,222321,1,0
Sprite,Foreground,Centre,"sb\cooltext-357139834037972.png",320,240 M,0,222321,,130.1333,410.6667 S,0,222321,,0.5626668 F,0,222321,222876,0,1 F,0,222876,238987,1 F,0,238987,244543,1,0
//Storyboard Layer 4 (Overlay)
//Storyboard Sound Samples

[TimingPoints]
99,555.555555555556,4,2,0,30,1,0
22321,-125,4,2,0,30,0,0
22876,-111.111111111111,4,2,0,30,0,0
23432,-100,4,2,0,30,0,0
23987,-90.9090909090909,4,2,0,30,0,0
24543,-100,4,2,0,30,0,0
31210,-125,4,2,0,30,0,0
31765,-111.111111111111,4,2,0,30,0,0
32321,-100,4,2,0,30,0,0
32876,-90.9090909090909,4,2,0,30,0,0
33432,-100,4,2,0,30,0,0
35654,-90.9090909090909,4,2,0,30,0,0
40099,-111.111111111111,4,2,0,30,0,0
40654,-100,4,2,0,30,0,0
41210,-90.9090909090909,4,2,0,30,0,0
41765,-83.3333333333333,4,2,0,30,0,0
42321,-100,4,2,0,30,0,0
48987,-111.111111111111,4,2,0,30,0,0
49543,-100,4,2,0,30,0,0
50099,-90.9090909090909,4,2,0,30,0,0
50654,-83.3333333333333,4,2,0,30,0,0
51210,-90.9090909090909,4,2,0,30,0,0
53432,-83.3333333333333,4,2,0,30,0,0
57876,-100,4,2,0,30,0,0
58432,-90.9090909090909,4,2,0,30,0,0
58987,-83.3333333333333,4,2,0,30,0,0
59543,-76.9230769230769,4,2,0,30,0,0
60099,-83.3333333333333,4,2,0,30,0,0
66765,-100,4,2,0,30,0,0
67321,-90.9090909090909,4,2,0,30,0,0
67876,-83.3333333333333,4,2,0,30,0,0
68432,-76.9230769230769,4,2,0,30,0,0
68987,-83.3333333333333,4,2,0,30,0,0
80099,-90.9090909090909,4,2,0,30,0,0
88987,-100,4,2,0,30,0,0
93432,-125,4,2,0,30,0,0
93987,-111.111111111111,4,2,0,30,0,0
94543,-100,4,2,0,30,0,0
95099,-90.9090909090909,4,2,0,30,0,0
95654,-100,4,2,0,30,0,0
102321,-125,4,2,0,30,0,0
102876,-111.111111111111,4,2,0,30,0,0
103432,-100,4,2,0,30,0,0
103987,-90.9090909090909,4,2,0,30,0,0
104543,-100,4,2,0,30,0,0
106765,-90.9090909090909,4,2,0,30,0,0
111210,-111.111111111111,4,2,0,30,0,0
111765,-100,4,2,0,30,0,0
112321,-90.9090909090909,4,2,0,30,0,0
112876,-83.3333333333333,4,2,0,30,0,0
113432,-90.9090909090909,4,2,0,30,0,0
120099,-111.111111111111,4,2,0,30,0,0
120654,-99.9999999999999,4,2,0,30,0,0
121210,-90.9090909090909,4,2,0,30,0,0
121765,-83.3333333333333,4,2,0,30,0,0
122321,-90.9090909090909,4,2,0,30,0,0
124543,-83.3333333333333,4,2,0,30,0,0
128987,-100,4,2,0,30,0,0
129543,-90.9090909090909,4,2,0,30,0,0
130099,-83.3333333333333,4,2,0,30,0,0
130654,-76.9230769230769,4,2,0,30,0,0
131210,-83.3333333333333,4,2,0,30,0,0
137876,-100,4,2,0,30,0,0
138432,-90.9090909090909,4,2,0,30,0,0
138987,-83.3333333333333,4,2,0,30,0,0
139543,-76.9230769230769,4,2,0,30,0,0
140099,-83.3333333333333,4,2,0,30,0,0
160099,-90.9090909090909,4,2,0,30,0,0
162321,-100,4,2,0,30,0,0
164543,-111.111111111111,4,2,0,30,0,0
166765,-125,4,2,0,30,0,0
186765,-133.333333333333,4,2,0,30,0,0
222321,-100,4,2,0,30,0,0
238987,-185.942729639271,4,2,0,30,0,0
239057,-185.942729639271,4,2,1,5,0,0

[Colours]
Combo1 : 141,210,100
Combo2 : 218,209,163
Combo3 : 130,232,219
Combo4 : 221,119,119

[HitObjects]
98,174,99,6,0,P|133:168|198:206,1,108.75,2|0,0:0|0:0,0:0:0:0:
194,201,654,1,0,0:0:0:0:
191,325,932,2,0,L|122:320,1,36.25,2|0,0:0|0:0,0:0:0:0:
268,288,1210,6,0,L|341:282,1,72.5,2|0,0:0|0:0,0:0:0:0:
419,309,1626,2,0,P|420:272|424:235,1,72.5,2|0,0:0|0:0,0:0:0:0:
435,155,2043,1,2,0:0:0:0:
338,96,2321,6,0,B|280:82|285:109|230:97,1,108.75,2|0,0:0|0:0,0:0:0:0:
230,97,2876,1,0,0:0:0:0:
184,203,3154,2,0,L|189:272,1,36.25,2|0,0:0|0:0,0:0:0:0:
132,301,3432,2,0,P|79:299|39:264,2,108.75,2|2|2,0:0|0:0|0:0,0:0:0:0:
184,203,4543,6,0,L|298:212,1,108.75,2|0,0:0|0:0,0:0:0:0:
292,211,5099,1,0,0:0:0:0:
432,171,5376,2,0,L|435:135,1,36.25,2|0,0:0|0:0,0:0:0:0:
395,61,5654,6,0,B|356:52|360:70|323:62,1,72.5,2|0,0:0|0:0,0:0:0:0:
244,37,6071,2,0,L|171:43,1,72.5,2|0,0:0|0:0,0:0:0:0:
89,50,6487,1,2,0:0:0:0:
114,210,6765,6,0,L|226:219,1,108.75,2|0,0:0|0:0,0:0:0:0:
222,218,7321,1,0,0:0:0:0:
279,319,7599,2,0,L|316:322,1,36.25,2|0,0:0|0:0,0:0:0:0:
378,267,7876,6,0,B|435:280|429:253|484:265,2,108.75,2|2|2,0:0|0:0|0:0,0:0:0:0:
332,163,8987,6,0,P|364:178|409:171,1,72.5,6|2,0:0|0:0,0:0:0:0:
457,244,9404,1,2,0:0:0:0:
457,244,9543,2,0,P|462:278|443:320,1,72.5,2|2,0:0|0:0,0:0:0:0:
343,361,10099,6,0,B|309:344|309:344|246:353,1,72.5,2|2,0:0|0:0,0:0:0:0:
200,377,10515,2,0,P|161:388|110:363,1,72.5,2|2,0:0|0:0,0:0:0:0:
69,328,10932,1,2,0:0:0:0:
46,215,11210,6,0,P|83:194|124:199,1,72.5,2|2,0:0|0:0,0:0:0:0:
177,246,11626,1,2,0:0:0:0:
181,250,11765,2,0,P|218:271|259:266,1,72.5,2|2,0:0|0:0,0:0:0:0:
316,175,12321,6,0,B|353:183|349:165|388:174,1,72.5,2|2,0:0|0:0,0:0:0:0:
450,229,12737,2,0,L|457:309,1,72.5,2|2,0:0|0:0,0:0:0:0:
411,367,13154,1,2,0:0:0:0:
249,366,13432,6,0,P|212:372|162:347,1,72.5,6|2,0:0|0:0,0:0:0:0:
103,321,13849,1,2,0:0:0:0:
106,325,13987,2,0,L|17:339,1,72.5,2|2,0:0|0:0,0:0:0:0:
176,280,14543,6,0,B|182:244|182:244|172:200,1,72.5,2|2,0:0|0:0,0:0:0:0:
103,163,14960,2,0,P|67:167|35:193,1,72.5,2|2,0:0|0:0,0:0:0:0:
100,246,15376,1,2,0:0:0:0:
178,126,15654,6,0,L|172:48,1,72.5,2|2,0:0|0:0,0:0:0:0:
236,0,16071,1,2,0:0:0:0:
306,44,16210,2,0,P|338:55|395:44,1,72.5,2|2,0:0|0:0,0:0:0:0:
456,132,16765,6,0,L|460:220,1,72.5,2|2,0:0|0:0,0:0:0:0:
502,276,17182,2,0,P|456:288|411:265,1,72.5,2|2,0:0|0:0,0:0:0:0:
378,216,17599,1,2,0:0:0:0:
364,350,17876,6,0,P|323:344|239:338,1,108.75,2|0,0:0|0:0,0:0:0:0:
176,363,18432,2,0,P|135:366|77:324,1,108.75,2|0,0:0|0:0,0:0:0:0:
49,253,18987,6,0,L|58:178,1,72.5,2|0,0:0|0:0,0:0:0:0:
49,98,19404,2,0,L|124:89,1,72.5,2|2,0:0|0:0,0:0:0:0:
203,81,19821,1,2,0:0:0:0:
342,113,20099,6,0,B|402:123|388:97|451:107,2,108.75,2|2|2,0:0|0:0|0:0,0:0:0:0:
229,19,21210,2,0,P|194:51|181:85,1,72.5,2|0,0:0|0:0,0:0:0:0:
99,65,21626,2,0,P|105:101|124:132,1,72.5,2|0,0:0|0:0,0:0:0:0:
75,200,22043,2,0,P|108:213|140:212,1,36.25,2|0,0:0|0:0,0:0:0:0:
155,282,22321,6,0,B|183:273|183:273|266:286,1,87,2|2,0:0|0:0,0:0:0:0:
322,291,22876,2,0,B|313:263|313:263|326:180,1,97.8749970130921,2|2,0:0|0:0,0:0:0:0:
334,113,23432,2,0,B|306:122|306:122|223:109,1,108.75,2|2,0:0|0:0,0:0:0:0:
145,95,23987,2,0,B|154:123|154:123|140:212,1,119.625003650665,2|2,0:0|0:0,0:0:0:0:
124,293,24543,6,0,P|70:298|9:307,2,108.75,2|2|2,0:0|0:0|0:0,0:0:0:0:
281,339,25654,2,0,P|329:334|384:326,1,72.5,2|2,0:0|0:0,0:0:0:0:
414,275,26071,2,0,B|425:241|425:241|421:202,1,72.5,2|2,0:0|0:0,0:0:0:0:
413,122,26487,1,2,0:0:0:0:
312,66,26765,6,0,P|260:95|208:85,1,108.75,2|0,0:0|0:0,0:0:0:0:
157,26,27321,2,0,B|98:21|108:48|50:43,1,108.75,2|0,0:0|0:0,0:0:0:0:
0,108,27876,6,0,L|7:155,1,36.25,2|0,0:0|0:0,0:0:0:0:
21,225,28154,1,2,0:0:0:0:
25,229,28293,2,0,B|61:235|61:235|105:214,1,72.5,2|2,0:0|0:0,0:0:0:0:
167,180,28710,1,2,0:0:0:0:
319,229,28987,6,0,P|361:199|426:206,2,108.75,2|2|2,0:0|0:0|0:0,0:0:0:0:
360,356,30099,2,0,L|274:366,1,72.5,2|0,0:0|0:0,0:0:0:0:
218,320,30515,2,0,P|216:283|208:234,1,72.5,2|2,0:0|0:0,0:0:0:0:
260,182,30932,2,0,L|324:174,1,36.25,2|0,0:0|0:0,0:0:0:0:
368,220,31210,6,0,B|414:213|414:213|436:217|457:231,1,87,2|2,0:0|0:0,0:0:0:0:
501,161,31765,2,0,B|493:112|493:112|497:89|512:67,1,97.8749970130921,2|2,0:0|0:0,0:0:0:0:
453,11,32321,2,0,B|399:19|399:19|374:14|350:-1,1,108.75,2|2,0:0|0:0,0:0:0:0:
287,52,32876,2,0,B|295:110|295:110|290:139|272:166,1,119.625003650665,2|2,0:0|0:0,0:0:0:0:
203,212,33432,6,0,B|138:210|160:238|83:235,2,108.75,2|2|2,0:0|0:0|0:0,0:0:0:0:
351,285,34543,2,0,L|429:293,1,72.5,2|2,0:0|0:0,0:0:0:0:
480,231,34960,2,0,P|482:194|472:160,1,72.5,2|2,0:0|0:0,0:0:0:0:
407,106,35376,2,0,L|367:100,1,36.25,2|0,0:0|0:0,0:0:0:0:
301,51,35654,6,0,B|253:43|268:74|207:57,1,79.7500024337769,6|2,0:0|0:0,0:0:0:0:
140,43,36071,1,2,0:0:0:0:
65,81,36210,2,0,L|59:137,1,39.8750012168885,2|0,0:0|0:0,0:0:0:0:
142,154,36487,1,2,0:0:0:0:
1,188,36765,6,0,B|11:221|11:221|11:290,1,79.7500024337769,2|2,0:0|0:0,0:0:0:0:
6,350,37182,2,0,L|97:346,2,79.7500024337769,2|2|0,0:0|0:0|0:0,0:0:0:0:
133,280,37876,6,0,B|179:275|171:296|210:292,1,79.7500024337769,2|2,0:0|0:0,0:0:0:0:
279,340,38293,2,0,P|316:335|349:301,1,79.7500024337769,2|2,0:0|0:0,0:0:0:0:
284,260,38710,2,0,L|283:205,1,39.8750012168885,2|0,0:0|0:0,0:0:0:0:
337,159,38987,6,0,L|335:57,1,79.7500024337769,2|0,0:0|0:0,0:0:0:0:
297,6,39404,2,0,P|336:-2|377:10,1,79.7500024337769,2|2,0:0|0:0,0:0:0:0:
418,80,39821,1,2,0:0:0:0:
414,207,40099,6,0,B|419:268|419:268|412:312,1,97.8749970130921,2|2,0:0|0:0,0:0:0:0:
337,334,40654,2,0,B|278:324|294:358|225:340,1,108.75,2|2,0:0|0:0,0:0:0:0:
159,301,41210,2,0,P|121:346|167:376,1,119.625003650665,2|2,0:0|0:0,0:0:0:0:
225,258,41765,2,0,B|237:196|237:196|211:122,1,130.499996017456,2|2,0:0|0:0,0:0:0:0:
144,88,42321,6,0,B|86:75|101:111|38:97,2,108.75,2|2|2,0:0|0:0|0:0,0:0:0:0:
282,114,43432,2,0,P|326:126|371:105,1,72.5,2|2,0:0|0:0,0:0:0:0:
436,82,43849,2,0,L|435:154,1,72.5,2|2,0:0|0:0,0:0:0:0:
495,215,44265,1,2,0:0:0:0:
377,210,44543,6,0,B|342:200|342:200|295:211,1,72.5,2|0,0:0|0:0,0:0:0:0:
237,253,44960,1,2,0:0:0:0:
172,199,45099,2,0,L|171:162,1,36.25,2|0,0:0|0:0,0:0:0:0:
243,132,45376,2,0,L|244:169,1,36.25,2|0,0:0|0:0,0:0:0:0:
237,253,45654,6,0,P|210:278|162:280,1,72.5,2|2,0:0|0:0,0:0:0:0:
104,245,46071,2,0,L|28:251,1,72.5,2|2,0:0|0:0,0:0:0:0:
106,328,46487,1,2,0:0:0:0:
172,199,46765,6,0,L|169:103,1,72.5,2|2,0:0|0:0,0:0:0:0:
114,63,47182,2,0,P|147:44|194:51,1,72.5,2|2,0:0|0:0,0:0:0:0:
248,96,47599,1,2,0:0:0:0:
368,59,47876,6,0,B|413:50|398:67|442:60,1,72.5,2|0,0:0|0:0,0:0:0:0:
490,124,48293,1,2,0:0:0:0:
480,209,48432,2,0,L|468:245,1,36.25,2|0,0:0|0:0,0:0:0:0:
402,196,48710,2,0,L|413:161,1,36.25,2|0,0:0|0:0,0:0:0:0:
395,275,48987,6,0,B|409:307|433:315|433:315|414:332|411:352,1,97.8749970130921,2|2,0:0|0:0,0:0:0:0:
332,374,49543,2,0,B|288:348|288:348|224:356,1,108.75,2|2,0:0|0:0,0:0:0:0:
148,361,50099,2,0,P|98:358|56:293,1,119.625003650665,2|2,0:0|0:0,0:0:0:0:
61,223,50654,2,0,B|140:245|118:205|190:221,1,130.499996017456,2|2,0:0|0:0,0:0:0:0:
264,185,51210,6,0,L|259:93,1,79.7500024337769,2|2,0:0|0:0,0:0:0:0:
194,56,51626,2,0,B|150:47|163:72|108:61,1,79.7500024337769,2|2,0:0|0:0,0:0:0:0:
34,57,52043,2,0,P|40:30|55:11,1,39.8750012168885,2|0,0:0|0:0,0:0:0:0:
69,131,52321,6,0,B|75:171|75:171|64:222,1,79.7500024337769,2|2,0:0|0:0,0:0:0:0:
25,280,52737,2,0,B|19:320|19:320|27:358,1,79.7500024337769,2|2,0:0|0:0,0:0:0:0:
110,375,53154,1,2,0:0:0:0:
140,248,53432,6,0,B|210:240|191:273|269:268,1,130.499996017456,6|0,0:0|0:0,0:0:0:0:
299,345,53987,2,0,P|333:319|349:279,1,86.9999973449708,2|2,0:0|0:0,0:0:0:0:
416,130,54543,6,0,P|427:133|502:148,1,86.9999973449708,2|2,0:0|0:0,0:0:0:0:
485,230,54960,2,0,P|475:228|400:213,1,86.9999973449708,2|2,0:0|0:0,0:0:0:0:
337,156,55376,1,2,0:0:0:0:
235,65,55654,6,0,B|207:62|207:62|148:73,1,86.9999973449708,2|2,0:0|0:0,0:0:0:0:
68,91,56071,2,0,P|35:119|21:159,1,86.9999973449708,2|2,0:0|0:0,0:0:0:0:
41,240,56487,2,0,L|50:287,1,43.4999986724854,2|0,0:0|0:0,0:0:0:0:
73,362,56765,5,2,0:0:0:0:
111,382,56904,1,2,0:0:0:0:
155,382,57043,1,2,0:0:0:0:
192,359,57182,2,0,L|209:264,1,86.9999973449708,2|2,0:0|0:0,0:0:0:0:
223,191,57599,1,2,0:0:0:0:
221,65,57876,6,0,B|255:72|255:72|282:98|282:98|317:106,1,108.75,2|2,0:0|0:0,0:0:0:0:
390,64,58432,2,0,B|402:100|402:100|392:140|392:140|403:177,1,119.625003650665,2|2,0:0|0:0,0:0:0:0:
476,221,58987,2,0,B|448:252|448:252|404:264|404:264|375:296,1,130.499996017456,2|2,0:0|0:0,0:0:0:0:
378,379,59543,2,0,B|333:369|333:369|297:335|297:335|251:324,1,141.374993528366,2|2,0:0|0:0,0:0:0:0:
170,308,60099,6,0,P|145:346|64:364,2,130.499996017456,2|2|2,0:0|0:0|0:0,0:0:0:0:
20,294,61210,2,0,P|15:243|10:201,1,86.9999973449708,2|2,0:0|0:0,0:0:0:0:
59,140,61626,2,0,P|110:135|152:130,1,86.9999973449708,2|2,0:0|0:0,0:0:0:0:
211,182,62043,1,2,0:0:0:0:
294,312,62321,6,0,P|361:320|428:327,2,130.499996017456,2|2|2,0:0|0:0|0:0,0:0:0:0:
156,333,63432,2,0,P|151:294|181:241,1,86.9999973449708,2|2,0:0|0:0,0:0:0:0:
106,197,63849,2,0,P|141:171|184:168,1,86.9999973449708,2|2,0:0|0:0,0:0:0:0:
253,123,64265,2,0,L|295:131,1,43.4999986724854,2|0,0:0|0:0,0:0:0:0:
378,118,64543,6,0,B|420:107|420:107|507:124,2,130.499996017456,2|2|2,0:0|0:0|0:0,0:0:0:0:
321,273,65654,2,0,L|279:281,1,43.4999986724854,2|2,0:0|0:0,0:0:0:0:
218,339,65932,1,2,0:0:0:0:
222,343,66071,2,0,P|185:365|137:363,1,86.9999973449708,2|2,0:0|0:0,0:0:0:0:
66,333,66487,2,0,L|58:291,1,43.4999986724854,2|0,0:0|0:0,0:0:0:0:
116,230,66765,6,0,B|138:245|160:245|160:245|215:219,1,108.75,2|2,0:0|0:0,0:0:0:0:
261,289,67321,2,0,B|287:276|299:255|299:255|305:187,1,119.625003650665,2|2,0:0|0:0,0:0:0:0:
388,190,67876,2,0,B|390:158|377:135|377:135|317:92,1,130.499996017456,2|2,0:0|0:0,0:0:0:0:
362,22,68432,2,0,B|333:2|304:2|304:2|227:37,1,141.374993528366,2|2,0:0|0:0,0:0:0:0:
161,78,68987,6,0,L|150:166,1,86.9999973449708,2|2,0:0|0:0,0:0:0:0:
103,233,69404,2,0,L|114:321,1,86.9999973449708,2|2,0:0|0:0,0:0:0:0:
180,370,69821,2,0,L|231:378,1,43.4999986724854,2|0,0:0|0:0,0:0:0:0:
295,334,70099,6,0,P|338:325|393:348,1,86.9999973449708,2|2,0:0|0:0,0:0:0:0:
440,281,70515,2,0,P|431:238|454:183,1,86.9999973449708,2|2,0:0|0:0,0:0:0:0:
512,151,70932,1,2,0:0:0:0:
428,40,71210,6,0,B|378:30|392:58|338:49,1,86.9999973449708,6|2,0:0|0:0,0:0:0:0:
266,21,71626,1,2,0:0:0:0:
185,47,71765,2,0,L|190:104,1,43.4999986724854,2|0,0:0|0:0,0:0:0:0:
109,106,72043,2,0,L|105:62,1,43.4999986724854,2|0,0:0|0:0,0:0:0:0:
161,164,72321,6,0,B|166:208|166:208|156:251,1,86.9999973449708,2|2,0:0|0:0,0:0:0:0:
99,309,72737,1,2,0:0:0:0:
175,333,72876,2,0,B|250:318|231:356|308:337,1,130.499996017456,2|0,0:0|0:0,0:0:0:0:
383,318,73432,6,0,P|426:333|486:313,1,86.9999973449708,2|0,0:0|0:0,0:0:0:0:
431,252,73849,1,0,0:0:0:0:
407,172,73987,2,0,L|344:176,1,43.4999986724854,2|0,0:0|0:0,0:0:0:0:
356,95,74265,2,0,L|399:92,1,43.4999986724854,2|0,0:0|0:0,0:0:0:0:
289,140,74543,6,0,B|245:149|245:149|196:130,1,86.9999973449708,2|0,0:0|0:0,0:0:0:0:
150,194,74960,2,0,P|126:157|136:93,1,86.9999973449708,2|0,0:0|0:0,0:0:0:0:
180,54,75376,1,2,0:0:0:0:
289,140,75654,6,0,L|282:235,1,86.9999973449708,2|0,0:0|0:0,0:0:0:0:
322,300,76071,1,0,0:0:0:0:
244,301,76210,2,0,P|210:287|189:290,1,43.4999986724854,2|0,0:0|0:0,0:0:0:0:
159,358,76487,2,0,L|202:361,1,43.4999986724854,2|0,0:0|0:0,0:0:0:0:
125,286,76765,6,0,B|76:278|91:308|25:298,1,86.9999973449708,2|0,0:0|0:0,0:0:0:0:
46,217,77182,1,0,0:0:0:0:
128,204,77321,2,0,P|137:154|139:105,1,86.9999973449708,2|0,0:0|0:0,0:0:0:0:
76,2,77876,6,0,L|174:13,1,86.9999973449708,2|0,0:0|0:0,0:0:0:0:
211,80,78293,1,0,0:0:0:0:
292,67,78432,2,0,P|318:69|336:78,1,43.4999986724854,2|0,0:0|0:0,0:0:0:0:
381,140,78710,2,0,L|376:195,1,43.4999986724854,2|0,0:0|0:0,0:0:0:0:
415,65,78987,6,0,P|372:59|333:76,1,86.9999973449708,2|0,0:0|0:0,0:0:0:0:
303,152,79404,2,0,L|293:246,1,86.9999973449708,2|0,0:0|0:0,0:0:0:0:
381,140,79821,1,2,0:0:0:0:
345,304,80099,6,0,B|330:315|309:322|309:322|198:312,1,119.625003650665,2|0,0:0|0:0,0:0:0:0:
147,307,80654,2,0,L|97:315,1,39.8750012168885,2|0,0:0|0:0,0:0:0:0:
35,273,80932,2,0,L|27:223,1,39.8750012168885,2|0,0:0|0:0,0:0:0:0:
76,166,81210,2,0,L|171:150,1,79.7500024337769,2|2,0:0|0:0,0:0:0:0:
192,147,81626,1,0,0:0:0:0:
229,140,81765,2,0,B|293:132|278:175|344:168,1,119.625003650665,2|0,0:0|0:0,0:0:0:0:
422,159,82321,6,0,P|372:191|359:247,1,119.625003650665,2|0,0:0|0:0,0:0:0:0:
394,322,82876,2,0,L|433:328,1,39.8750012168885,2|0,0:0|0:0,0:0:0:0:
317,353,83154,2,0,L|277:359,1,39.8750012168885,2|0,0:0|0:0,0:0:0:0:
205,320,83432,2,0,P|170:297|152:262,1,79.7500024337769,2|2,0:0|0:0,0:0:0:0:
151,223,83849,1,0,0:0:0:0:
171,187,83987,2,0,L|270:201,1,79.7500024337769,2|0,0:0|0:0,0:0:0:0:
366,194,84543,6,0,P|379:124|390:56,1,119.625003650665,2|0,0:0|0:0,0:0:0:0:
332,14,85099,2,0,L|292:7,1,39.8750012168885,2|0,0:0|0:0,0:0:0:0:
212,24,85376,2,0,L|172:30,1,39.8750012168885,2|0,0:0|0:0,0:0:0:0:
91,45,85654,2,0,L|84:133,1,79.7500024337769,2|2,0:0|0:0,0:0:0:0:
82,162,86071,1,0,0:0:0:0:
79,201,86210,2,0,P|141:268|195:252,1,119.625003650665,2|0,0:0|0:0,0:0:0:0:
232,222,86765,6,0,B|299:213|284:250|348:242,1,119.625003650665,2|0,0:0|0:0,0:0:0:0:
427,223,87321,2,0,L|433:183,1,39.8750012168885,2|0,0:0|0:0,0:0:0:0:
469,109,87599,2,0,L|429:102,1,39.8750012168885,2|0,0:0|0:0,0:0:0:0:
347,111,87876,6,0,L|258:98,1,79.7500024337769,2|2,0:0|0:0,0:0:0:0:
231,80,88293,1,0,0:0:0:0:
195,59,88432,2,0,P|146:61|93:121,1,119.625003650665,2|0,0:0|0:0,0:0:0:0:
84,185,88987,6,0,P|141:178|175:134,1,108.75,2|0,0:0|0:0,0:0:0:0:
250,120,89543,2,0,L|363:129,1,108.75,2|0,0:0|0:0,0:0:0:0:
436,101,90099,6,0,P|443:137|427:175,1,72.5,2|0,0:0|0:0,0:0:0:0:
360,213,90515,2,0,P|347:246|355:281,1,72.5,2|0,0:0|0:0,0:0:0:0:
430,251,90932,1,2,0:0:0:0:
358,128,91210,6,0,B|301:106|315:147|250:120,2,108.75,2|2|2,0:0|0:0|0:0,0:0:0:0:
491,117,92321,2,0,P|463:95|428:89,1,72.5,2|2,0:0|0:0,0:0:0:0:
358,128,92737,2,0,L|364:219,1,72.5,2|2,0:0|0:0,0:0:0:0:
372,281,93154,2,0,P|396:277|423:259,1,36.25,2|0,0:0|0:0,0:0:0:0:
296,250,93432,6,0,B|256:265|256:265|201:255,1,87,2|2,0:0|0:0,0:0:0:0:
149,205,93987,2,0,P|106:192|45:223,1,97.8749970130921,2|2,0:0|0:0,0:0:0:0:
4,275,94543,2,0,P|48:293|106:276,1,108.75,2|2,0:0|0:0,0:0:0:0:
149,205,95099,2,0,L|144:71,1,119.625003650665,2|2,0:0|0:0,0:0:0:0:
112,10,95654,6,0,B|54:22|64:-12|2:5,2,108.75,2|2|2,0:0|0:0|0:0,0:0:0:0:
261,74,96765,2,0,P|296:89|348:80,1,72.5,2|2,0:0|0:0,0:0:0:0:
390,32,97182,2,0,P|425:30|458:45,1,72.5,2|2,0:0|0:0,0:0:0:0:
410,111,97599,2,0,L|399:164,1,36.25,2|0,0:0|0:0,0:0:0:0:
488,125,97876,6,0,L|464:235,1,108.75,2|0,0:0|0:0,0:0:0:0:
406,290,98432,2,0,B|372:276|372:276|313:283,1,72.5,2|0,0:0|0:0,0:0:0:0:
266,322,98849,1,2,0:0:0:0:
201,271,98987,6,0,P|227:246|262:239,1,72.5,2|2,0:0|0:0,0:0:0:0:
192,354,99404,2,0,L|99:350,2,72.5,2|2|2,0:0|0:0|0:0,0:0:0:0:
266,322,100099,6,0,B|309:311|306:339|345:327,1,72.5,2|2,0:0|0:0,0:0:0:0:
405,373,100515,2,0,P|447:380|484:362,1,72.5,2|2,0:0|0:0,0:0:0:0:
437,301,100932,2,0,L|441:240,1,36.25,2|0,0:0|0:0,0:0:0:0:
496,205,101210,6,0,P|462:183|413:190,1,72.5,2|2,0:0|0:0,0:0:0:0:
349,167,101626,2,0,P|347:202|365:233,1,72.5,2|2,0:0|0:0,0:0:0:0:
439,264,102043,1,2,0:0:0:0:
331,359,102321,6,0,B|289:343|289:343|222:352,1,87,2|2,0:0|0:0,0:0:0:0:
170,333,102876,2,0,L|60:326,1,97.8749970130921,2|2,0:0|0:0,0:0:0:0:
55,248,103432,2,0,B|76:182|36:204|59:129,1,108.75,2|2,0:0|0:0,0:0:0:0:
61,64,103987,2,0,P|109:38|108:99,1,119.625003650665,2|2,0:0|0:0,0:0:0:0:
135,169,104543,6,0,P|169:160|199:121,1,72.5,2|2,0:0|0:0,0:0:0:0:
236,63,104960,2,0,L|313:68,1,72.5,2|2,0:0|0:0,0:0:0:0:
390,64,105376,2,0,P|388:41|378:25,1,36.25,2|0,0:0|0:0,0:0:0:0:
353,138,105654,6,0,L|364:217,1,72.5,2|2,0:0|0:0,0:0:0:0:
445,211,106071,2,0,L|435:139,1,72.5,2|2,0:0|0:0,0:0:0:0:
390,64,106487,2,0,P|373:57|339:57,1,36.25,2|0,0:0|0:0,0:0:0:0:
285,98,106765,5,2,0:0:0:0:
285,98,106904,2,0,L|196:107,1,79.7500024337769,2|2,0:0|0:0,0:0:0:0:
123,94,107321,1,2,0:0:0:0:
52,204,107599,2,0,L|56:248,1,39.8750012168885,2|0,0:0|0:0,0:0:0:0:
41,325,107876,6,0,P|88:322|125:291,1,79.7500024337769,2|2,0:0|0:0,0:0:0:0:
156,231,108293,2,0,P|203:234|240:265,1,79.7500024337769,2|2,0:0|0:0,0:0:0:0:
264,327,108710,2,0,L|303:331,1,39.8750012168885,2|0,0:0|0:0,0:0:0:0:
376,290,108987,6,0,B|414:294|414:294|494:275,2,119.625003650665,2|2|2,0:0|0:0|0:0,0:0:0:0:
335,148,110099,2,0,L|340:109,1,39.8750012168885,2|2,0:0|0:0,0:0:0:0:
304,33,110376,1,2,0:0:0:0:
308,37,110515,2,0,P|271:23|218:34,1,79.7500024337769,2|2,0:0|0:0,0:0:0:0:
166,78,110932,2,0,L|161:117,1,39.8750012168885,2|0,0:0|0:0,0:0:0:0:
170,200,111210,6,0,B|195:197|215:183|215:183|231:202|255:209,1,97.8749970130921,2|0,0:0|0:0,0:0:0:0:
339,205,111765,2,0,B|336:176|320:154|320:154|341:135|349:108,1,108.75,2|0,0:0|0:0,0:0:0:0:
349,27,112321,2,0,B|317:29|293:47|293:47|273:24|243:15,1,119.625003650665,2|0,0:0|0:0,0:0:0:0:
161,13,112876,2,0,B|163:46|182:72|182:72|158:94|148:126,1,130.499996017456,2|0,0:0|0:0,0:0:0:0:
188,201,113432,6,0,P|199:255|156:308,2,119.625003650665,2|2|2,0:0|0:0|0:0,0:0:0:0:
96,266,114543,2,0,L|17:275,1,79.7500024337769,2|2,0:0|0:0,0:0:0:0:
9,192,114960,2,0,L|88:183,1,79.7500024337769,2|2,0:0|0:0,0:0:0:0:
163,217,115376,2,0,L|202:221,1,39.8750012168885,2|0,0:0|0:0,0:0:0:0:
268,273,115654,6,0,B|334:285|318:241|393:256,1,119.625003650665,2|0,0:0|0:0,0:0:0:0:
464,268,116210,2,0,P|473:213|486:163,1,79.7500024337769,2|2,0:0|0:0,0:0:0:0:
426,126,116626,1,0,0:0:0:0:
373,62,116765,6,0,P|318:53|268:40,1,79.7500024337769,2|2,0:0|0:0,0:0:0:0:
220,84,117182,2,0,L|201:170,1,79.7500024337769,2|2,0:0|0:0,0:0:0:0:
183,242,117599,2,0,L|123:247,1,39.8750012168885,2|0,0:0|0:0,0:0:0:0:
61,254,117876,6,0,B|43:237|43:237|25:155,1,79.7500024337769,2|2,0:0|0:0,0:0:0:0:
63,106,118293,2,0,P|103:91|156:110,1,79.7500024337769,2|2,0:0|0:0,0:0:0:0:
220,84,118710,2,0,L|263:93,1,39.8750012168885,2|0,0:0|0:0,0:0:0:0:
339,112,118987,5,2,0:0:0:0:
346,151,119126,1,2,0:0:0:0:
351,190,119265,1,2,0:0:0:0:
359,228,119404,2,0,L|451:247,1,79.7500024337769,2|2,0:0|0:0,0:0:0:0:
510,203,119821,1,2,0:0:0:0:
468,82,120099,6,0,B|445:60|445:60|415:64|379:53,1,97.8749970130921,2|0,0:0|0:0,0:0:0:0:
302,26,120654,2,0,B|268:35|268:35|255:66|225:94,1,108.75,2|0,0:0|0:0,0:0:0:0:
161,147,121210,2,0,B|151:184|151:184|174:213|184:257,1,119.625003650665,2|0,0:0|0:0,0:0:0:0:
191,340,121765,2,0,B|221:369|221:369|262:364|309:378,1,130.499996017456,2|0,0:0|0:0,0:0:0:0:
383,341,122321,6,0,L|398:263,1,79.7500024337769,2|2,0:0|0:0,0:0:0:0:
416,180,122737,2,0,L|338:165,1,79.7500024337769,2|2,0:0|0:0,0:0:0:0:
255,147,123154,2,0,L|247:186,1,39.8750012168885,2|0,0:0|0:0,0:0:0:0:
224,266,123432,6,0,L|146:281,1,79.7500024337769,2|2,0:0|0:0,0:0:0:0:
63,299,123848,2,0,L|48:221,1,79.7500024337769,2|2,0:0|0:0,0:0:0:0:
33,139,124265,1,2,0:0:0:0:
119,64,124543,6,0,P|161:83|232:49,1,130.499996017456,6|0,0:0|0:0,0:0:0:0:
306,13,125099,2,0,L|409:15,1,86.9999973449708,2|0,0:0|0:0,0:0:0:0:
462,60,125515,1,2,0:0:0:0:
426,137,125654,6,0,P|406:177|416:228,1,86.9999973449708,2|2,0:0|0:0,0:0:0:0:
439,296,126071,2,0,L|350:317,1,86.9999973449708,2|0,0:0|0:0,0:0:0:0:
273,329,126487,2,0,P|279:353|294:374,1,43.4999986724854,2|0,0:0|0:0,0:0:0:0:
303,254,126765,6,0,P|259:246|213:276,1,86.9999973449708,2|2,0:0|0:0,0:0:0:0:
153,315,127182,2,0,P|109:323|63:293,1,86.9999973449708,2|2,0:0|0:0,0:0:0:0:
29,235,127599,2,0,L|36:177,1,43.4999986724854,2|0,0:0|0:0,0:0:0:0:
52,113,127876,5,2,0:0:0:0:
75,76,128015,1,2,0:0:0:0:
116,62,128154,1,2,0:0:0:0:
159,68,128293,2,0,B|210:57|196:81|245:72,1,86.9999973449708,2|2,0:0|0:0,0:0:0:0:
314,117,128710,2,0,L|312:165,1,43.4999986724854,2|0,0:0|0:0,0:0:0:0:
340,40,128987,6,0,P|286:40|244:71,1,108.75,2|2,0:0|0:0,0:0:0:0:
237,153,129543,2,0,B|234:238|234:238|200:192,1,119.625003650665,2|2,0:0|0:0,0:0:0:0:
142,171,130099,2,0,B|69:188|91:153|8:171,1,130.499996017456,2|2,0:0|0:0,0:0:0:0:
3,254,130654,2,0,P|23:303|44:248,1,141.374993528366,2|2,0:0|0:0,0:0:0:0:
13,169,131210,6,0,B|25:86|-14:119|11:28,2,130.499996017456,2|2|2,0:0|0:0|0:0,0:0:0:0:
173,146,132321,2,0,P|215:135|271:152,1,86.9999973449708,2|2,0:0|0:0,0:0:0:0:
335,172,132737,2,0,L|425:165,1,86.9999973449708,2|2,0:0|0:0,0:0:0:0:
497,204,133154,1,2,0:0:0:0:
456,90,133432,6,0,B|407:49|407:49|329:55,1,130.499996017456,2|0,0:0|0:0,0:0:0:0:
266,87,133987,2,0,B|193:97|216:62|139:76,1,130.499996017456,2|0,0:0|0:0,0:0:0:0:
74,27,134543,6,0,P|56:77|80:130,1,86.9999973449708,2|2,0:0|0:0,0:0:0:0:
129,159,134960,2,0,L|125:246,1,86.9999973449708,2|2,0:0|0:0,0:0:0:0:
47,275,135376,1,2,0:0:0:0:
182,307,135654,6,0,P|229:311|269:275,1,86.9999973449708,2|2,0:0|0:0,0:0:0:0:
305,222,136071,2,0,L|414:229,1,86.9999973449708,2|2,0:0|0:0,0:0:0:0:
471,249,136487,2,0,P|477:226|463:193,1,43.4999986724854,2|0,0:0|0:0,0:0:0:0:
414,148,136765,5,2,0:0:0:0:
443,115,136904,1,2,0:0:0:0:
443,71,137043,1,2,0:0:0:0:
421,33,137182,2,0,B|396:32|381:16|381:16|367:36|322:43,1,86.9999973449708,2|2,0:0|0:0,0:0:0:0:
268,73,137599,2,0,P|220:78|211:75,1,43.4999986724854,2|0,0:0|0:0,0:0:0:0:
148,49,137876,6,0,B|90:62|106:31|39:43,1,108.75,2|2,0:0|0:0,0:0:0:0:
65,121,138432,2,0,B|83:181|83:181|68:244,1,119.625003650665,2|2,0:0|0:0,0:0:0:0:
15,298,138987,2,0,P|80:318|132:287,1,130.499996017456,2|2,0:0|0:0,0:0:0:0:
198,246,139543,2,0,L|347:259,1,141.374993528366,2|2,0:0|0:0,0:0:0:0:
399,313,140099,6,0,P|421:271|414:230,1,86.9999973449708,2|2,0:0|0:0,0:0:0:0:
359,179,140515,2,0,L|364:78,1,86.9999973449708,2|2,0:0|0:0,0:0:0:0:
440,64,140932,1,2,0:0:0:0:
304,34,141210,5,2,0:0:0:0:
266,55,141349,1,2,0:0:0:0:
222,51,141487,1,2,0:0:0:0:
194,17,141626,2,0,B|147:29|157:2|107:14,1,86.9999973449708,2|2,0:0|0:0,0:0:0:0:
54,74,142043,2,0,L|56:122,1,43.4999986724854,2|0,0:0|0:0,0:0:0:0:
64,200,142321,5,6,0:0:0:0:
107,205,142460,1,0,0:0:0:0:
150,210,142599,1,0,0:0:0:0:
193,214,142737,1,2,0:0:0:0:
218,249,142876,5,2,0:0:0:0:
261,254,143015,1,0,0:0:0:0:
304,259,143154,1,0,0:0:0:0:
347,263,143292,1,2,0:0:0:0:
377,294,143432,6,0,L|381:250,1,43.4999986724854,2|0,0:0|0:0,0:0:0:0:
450,203,143710,2,0,L|454:159,1,43.4999986724854,0|2,0:0|0:0,0:0:0:0:
460,76,143987,2,0,P|414:85|369:153,1,130.499996017456,2|2,0:0|0:0,0:0:0:0:
302,203,144543,6,0,B|238:210|249:163|179:169,1,130.499996017456,2|0,0:0|0:0,0:0:0:0:
114,220,145099,2,0,L|110:265,1,43.4999986724854,2|0,0:0|0:0,0:0:0:0:
27,257,145376,2,0,L|31:212,1,43.4999986724854,2|0,0:0|0:0,0:0:0:0:
77,144,145654,6,0,B|64:102|64:102|72:10,1,130.499996017456,2|0,0:0|0:0,0:0:0:0:
154,22,146210,2,0,L|199:26,1,43.4999986724854,2|0,0:0|0:0,0:0:0:0:
257,81,146487,2,0,L|302:85,1,43.4999986724854,2|0,0:0|0:0,0:0:0:0:
409,37,146765,5,2,0:0:0:0:
382,71,146904,1,0,0:0:0:0:
368,112,147043,1,0,0:0:0:0:
375,154,147182,1,2,0:0:0:0:
393,193,147321,5,2,0:0:0:0:
411,232,147460,1,0,0:0:0:0:
412,275,147599,1,0,0:0:0:0:
393,314,147737,1,2,0:0:0:0:
362,344,147876,6,0,L|303:350,1,43.4999986724854,2|0,0:0|0:0,0:0:0:0:
253,298,148154,2,0,L|194:304,1,43.4999986724854,0|2,0:0|0:0,0:0:0:0:
142,253,148432,2,0,P|131:176|113:100,1,130.499996017456,2|2,0:0|0:0,0:0:0:0:
65,61,148987,6,0,B|102:38|102:38|222:56,1,130.499996017456,2|0,0:0|0:0,0:0:0:0:
271,63,149543,2,0,L|341:72,1,43.4999986724854,2|0,0:0|0:0,0:0:0:0:
392,40,149821,2,0,L|462:49,1,43.4999986724854,2|0,0:0|0:0,0:0:0:0:
476,118,150099,6,0,P|485:171|433:247,1,130.499996017456,2|0,0:0|0:0,0:0:0:0:
371,263,150654,2,0,L|301:254,1,43.4999986724854,2|0,0:0|0:0,0:0:0:0:
250,286,150932,2,0,L|180:277,1,43.4999986724854,2|0,0:0|0:0,0:0:0:0:
129,309,151210,6,0,L|59:300,3,43.4999986724854,2|0|0|2,0:0|0:0|0:0|0:0,0:0:0:0:
39,235,151765,1,2,0:0:0:0:
33,191,151904,1,0,0:0:0:0:
28,147,152043,1,0,0:0:0:0:
23,103,152182,1,2,0:0:0:0:
19,59,152321,6,0,L|62:64,1,43.4999986724854,2|0,0:0|0:0,0:0:0:0:
138,31,152599,2,0,L|181:36,1,43.4999986724854,0|2,0:0|0:0,0:0:0:0:
247,87,152876,2,0,B|317:94|306:54|377:60,1,130.499996017456,2|2,0:0|0:0,0:0:0:0:
438,109,153432,6,0,P|448:164|449:230,1,86.9999973449708,2|0,0:0|0:0,0:0:0:0:
399,261,153849,2,0,B|355:254|355:254|286:286,1,86.9999973449708,2|2,0:0|0:0,0:0:0:0:
249,319,154265,2,0,L|181:313,1,43.4999986724854,2|0,0:0|0:0,0:0:0:0:
123,306,154543,6,0,P|126:262|134:220,1,86.9999973449708,2|0,0:0|0:0,0:0:0:0:
177,148,154960,2,0,L|271:137,1,86.9999973449708,2|2,0:0|0:0,0:0:0:0:
346,130,155376,2,0,L|353:72,1,43.4999986724854,2|0,0:0|0:0,0:0:0:0:
415,33,155654,6,0,L|473:26,3,43.4999986724854,2|0|0|2,0:0|0:0|0:0|0:0,0:0:0:0:
505,93,156210,1,2,0:0:0:0:
488,133,156349,1,0,0:0:0:0:
479,175,156487,1,0,0:0:0:0:
479,218,156626,1,2,0:0:0:0:
485,261,156765,6,0,L|527:268,1,43.4999986724854,2|0,0:0|0:0,0:0:0:0:
465,341,157043,2,0,L|423:334,1,43.4999986724854,0|2,0:0|0:0,0:0:0:0:
357,281,157321,2,0,B|322:306|322:306|228:317,1,130.499996017456,2|2,0:0|0:0,0:0:0:0:
152,323,157876,6,0,P|163:273|219:231,1,86.9999973449708,2|0,0:0|0:0,0:0:0:0:
163,166,158293,2,0,P|214:168|265:216,1,86.9999973449708,2|0,0:0|0:0,0:0:0:0:
302,126,158710,2,0,P|325:171|321:201,1,43.4999986724854,2|0,0:0|0:0,0:0:0:0:
387,217,158987,6,0,P|345:243|285:234,1,86.9999973449708,2|0,0:0|0:0,0:0:0:0:
238,289,159404,2,0,P|195:291|159:315,1,86.9999973449708,2|2,0:0|0:0,0:0:0:0:
88,357,159821,2,0,L|35:352,1,43.4999986724854,2|0,0:0|0:0,0:0:0:0:
0,283,160099,6,0,L|12:148,1,119.625003650665,2|0,0:0|0:0,0:0:0:0:
71,107,160654,2,0,L|143:113,1,39.8750012168885,2|0,0:0|0:0,0:0:0:0:
174,57,160932,2,0,L|246:63,1,39.8750012168885,2|0,0:0|0:0,0:0:0:0:
278,114,161210,2,0,P|282:154|287:216,1,79.7500024337769,2|2,0:0|0:0,0:0:0:0:
290,233,161626,1,0,0:0:0:0:
294,272,161765,2,0,P|336:293|414:272,1,119.625003650665,2|0,0:0|0:0,0:0:0:0:
456,212,162321,6,0,B|466:153|439:166|445:99,1,108.75,2|0,0:0|0:0,0:0:0:0:
382,50,162876,2,0,L|317:55,1,36.25,2|0,0:0|0:0,0:0:0:0:
263,61,163154,1,2,0:0:0:0:
195,167,163432,2,0,P|186:208|205:245,1,72.5,2|2,0:0|0:0,0:0:0:0:
220,262,163849,1,0,0:0:0:0:
240,290,163987,2,0,P|251:324|242:358,1,72.5,2|0,0:0|0:0,0:0:0:0:
74,362,164543,6,0,P|78:308|83:255,1,97.8749970130921,2|2,0:0|0:0,0:0:0:0:
45,190,165099,2,0,P|76:181|108:184,1,65.2499980087281,2|2,0:0|0:0,0:0:0:0:
165,247,165654,2,0,P|168:287|172:328,2,65.2499980087281,2|2|2,0:0|0:0|0:0,0:0:0:0:
158,78,166765,6,0,P|216:52|275:83,1,116,2|2,0:0|0:0,0:0:0:0:
354,205,167876,2,0,P|296:231|237:200,1,116,2|2,0:0|0:0,0:0:0:0:
215,138,168710,1,2,0:0:0:0:
297,147,168987,1,2,0:0:0:0:
256,256,186765,6,0,P|117:319|61:140,1,380.625014519692,2|0,0:0|0:0,0:0:0:0:
37,63,188987,6,0,B|79:50|113:66|131:99|131:99|253:65|223:133|349:98|349:98|330:74|336:31,1,380.625014519692
417,53,191210,6,0,B|446:108|413:154|413:154|379:228|433:293|433:293|495:246|457:178,1,380.625014519692,2|0,0:0|0:0,0:0:0:0:
344,194,193432,6,0,L|172:212,1,163.125006222725
101,190,194543,2,0,P|109:254|140:284,1,108.750004148483
256,325,195654,6,0,B|321:308|302:343|365:328,1,108.750004148483,2|0,0:0|0:0,0:0:0:0:
455,193,196765,2,0,L|452:97,2,81.5625031113626,0|0|0,0:0|0:0|0:0,0:0:0:0:
456,277,197876,6,0,B|393:273|375:219|375:219|341:278|282:272|282:272|310:338|281:378|281:378|263:362|223:359,1,380.625014519692
154,367,200099,6,0,P|105:389|54:375,2,108.750004148483,2|0|0,0:0|0:0|0:0,0:0:0:0:
186,212,201765,1,0,0:0:0:0:
345,174,202321,6,0,B|376:224|347:216|383:279|383:279|361:261|322:268,1,163.125006222725
341,346,203432,2,0,L|225:365,1,108.750004148483,0|0,0:0|0:0,0:0:0:0:
144,362,204265,2,0,L|103:358,1,27.1875010371209
43,324,204543,6,0,P|-18:229|140:268,1,380.625014519692,2|0,0:0|0:0,0:0:0:0:
127,343,206765,2,0,P|172:340|207:314,2,81.5625031113626,2|0|0,0:0|0:0|0:0,0:0:0:0:
141,260,208154,1,0,0:0:0:0:
254,31,208987,6,0,P|220:42|149:63,3,108.750004148483,2|2|2|2,0:0|0:0|0:0|0:0,0:0:0:0:
340,54,211210,2,0,P|385:153|402:260,1,217.500008296967,2|2,0:0|0:0,0:0:0:0:
423,341,213432,6,0,P|484:246|326:285,1,380.625014519692,2|0,0:0|0:0,0:0:0:0:
341,359,215654,2,0,P|296:356|261:330,2,81.5625031113626,2|0|0,0:0|0:0|0:0,0:0:0:0:
403,261,217043,1,0,0:0:0:0:
258,31,217876,6,0,P|292:42|363:63,3,108.750004148483,2|2|2|2,0:0|0:0|0:0|0:0,0:0:0:0:
171,54,220099,2,0,P|126:153|109:260,1,217.500008296967,2|2,0:0|0:0,0:0:0:0:
471,281,222321,6,0,L|474:239,1,36.25,6|0,0:0|0:0,0:0:0:0:
448,165,222599,2,0,L|445:128,1,36.25,2|0,0:0|0:0,0:0:0:0:
475,52,222876,2,0,L|478:10,2,36.25,2|0|0,0:0|0:0|0:0,0:0:0:0:
369,141,223432,6,0,P|341:129|322:106,1,36.25,2|0,0:0|0:0,0:0:0:0:
282,65,223710,2,0,P|310:53|339:56,1,36.25,2|0,0:0|0:0,0:0:0:0:
394,65,223987,2,0,L|389:180,1,108.75,2|0,0:0|0:0,0:0:0:0:
341,242,224543,6,0,B|287:243|287:243|243:212,2,108.75,2|2|2,0:0|0:0|0:0,0:0:0:0:
419,252,225515,1,2,0:0:0:0:
369,317,225654,6,0,P|335:350|309:356,1,72.5,2|0,0:0|0:0,0:0:0:0:
231,342,226071,2,0,L|147:344,1,72.5,2|0,0:0|0:0,0:0:0:0:
85,383,226487,1,2,0:0:0:0:
119,270,226765,6,0,L|116:225,1,36.25,2|0,0:0|0:0,0:0:0:0:
88,158,227043,2,0,L|91:113,1,36.25,2|0,0:0|0:0,0:0:0:0:
141,56,227321,1,2,0:0:0:0:
173,71,227460,1,2,0:0:0:0:
209,68,227599,1,2,0:0:0:0:
241,51,227737,1,2,0:0:0:0:
254,17,227876,6,0,L|337:24,1,72.5,2|0,0:0|0:0,0:0:0:0:
407,52,228293,1,2,0:0:0:0:
344,108,228432,2,0,B|354:153|354:153|348:175|348:175|357:227,1,108.75,2|0,0:0|0:0,0:0:0:0:
402,283,228987,6,0,P|457:298|518:266,2,108.75,2|2|2,0:0|0:0|0:0,0:0:0:0:
273,225,230099,2,0,L|179:230,1,72.5,2|0,0:0|0:0,0:0:0:0:
144,291,230515,2,0,L|147:363,1,72.5,2|0,0:0|0:0,0:0:0:0:
228,349,230932,1,2,0:0:0:0:
200,228,231210,6,0,P|152:208|92:225,2,108.75,2|2|2,0:0|0:0|0:0,0:0:0:0:
364,233,232321,2,0,L|459:239,1,72.5,2|0,0:0|0:0,0:0:0:0:
480,168,232737,1,2,0:0:0:0:
479,84,232876,2,0,P|450:83|433:75,1,36.25,2|0,0:0|0:0,0:0:0:0:
364,54,233154,2,0,P|346:59|320:55,1,36.25,2|0,0:0|0:0,0:0:0:0:
248,36,233432,6,0,L|133:41,2,108.75,2|2|2,0:0|0:0|0:0,0:0:0:0:
198,161,234543,2,0,P|187:199|200:245,1,72.5,2|2,0:0|0:0,0:0:0:0:
268,202,234960,2,0,L|350:214,1,72.5,2|2,0:0|0:0,0:0:0:0:
293,284,235376,2,0,L|258:278,1,36.25,2|0,0:0|0:0,0:0:0:0:
192,230,235654,6,0,P|158:216|106:225,1,72.5,2|0,0:0|0:0,0:0:0:0:
53,263,236071,1,2,0:0:0:0:
52,178,236210,2,0,L|49:128,1,36.25,2|0,0:0|0:0,0:0:0:0:
2,76,236487,2,0,P|23:66|47:62,1,36.25,2|0,0:0|0:0,0:0:0:0:
116,89,236765,6,0,B|159:101|146:79|193:87,1,72.5,2|0,0:0|0:0,0:0:0:0:
258,130,237182,1,2,0:0:0:0:
309,64,237321,2,0,P|355:60|407:100,1,108.75,2|0,0:0|0:0,0:0:0:0:
339,137,237876,6,0,B|330:204|330:204|346:248,2,108.75,2|2|2,0:0|0:0|0:0,0:0:0:0:
309,64,238849,1,2,0:0:0:0:
313,68,238987,22,0,B|288:24|185:3|132:70|151:223|255:176|332:255|332:255|384:182|440:223|498:131|502:32|389:-5|341:41,1,779.809982698918,2|0,0:0|0:0,0:0:0:0:
