osu file format v14

[General]
AudioFilename: audio.mp3
AudioLeadIn: 0
PreviewTime: -1
Countdown: 0
SampleSet: None
StackLeniency: 0.7
Mode: 0
LetterboxInBreaks: 1
WidescreenStoryboard: 0

[Editor]
DistanceSpacing: 0.8
BeatDivisor: 4
GridSize: 4
TimelineZoom: 1.2

[Metadata]
Title:Over"Quartzer"
TitleUnicode:オーヴアー"クオーツアー"
Artist:Sueyoshi Shuta feat. ISSA
ArtistUnicode:末吉 秀太 feat. ISSA
Creator:ZYROisERROR13
Version:HENSHIN!!!
Source:仮面ライダー
Tags:Kamen Rider 仮面ライダー
BeatmapID:1870394
BeatmapSetID:895121

[Difficulty]
HPDrainRate:5
CircleSize:3.8
OverallDifficulty:4.5
ApproachRate:8
SliderMultiplier:1.4
SliderTickRate:1

[Events]
//Background and Video events
0,0,"titular_riders____by_nobuharuudou-d75r94r.jpg",0,0
//Break Periods
2,13282,19437
//Storyboard Layer 0 (Background)
//Storyboard Layer 1 (Fail)
//Storyboard Layer 2 (Pass)
//Storyboard Layer 3 (Foreground)
//Storyboard Sound Samples

[TimingPoints]
0,451.127819548872,4,1,0,100,1,0

[HitObjects]
256,192,5864,12,0,13082,0:0:0:0:
163,93,20187,5,0,0:0:0:0:
213,96,20413,1,0,0:0:0:0:
257,190,20864,1,0,0:0:0:0:
298,97,21203,1,0,0:0:0:0:
384,96,21428,1,0,0:0:0:0:
94,215,21766,1,0,0:0:0:0:
145,171,21992,1,0,0:0:0:0:
199,124,22218,1,0,0:0:0:0:
251,74,22443,1,0,0:0:0:0:
194,251,22669,2,0,L|251:198,3,70
129,65,23796,5,0,0:0:0:0:
129,65,23909,1,0,0:0:0:0:
129,65,24022,1,0,0:0:0:0:
129,65,24135,2,0,L|129:182,1,105
292,32,24473,1,0,1:1:0:0:
292,127,24699,1,0,0:0:0:0:
66,223,24924,1,0,0:0:0:0:
106,274,25037,1,0,0:0:0:0:
173,277,25150,1,0,0:0:0:0:
124,57,25375,5,0,0:0:0:0:
142,144,25601,1,0,0:0:0:0:
269,142,25827,1,0,0:0:0:0:
285,238,26052,1,0,0:0:0:0:
78,174,26278,6,0,L|176:174,3,70
210,117,27180,1,0,0:0:0:0:
80,246,27518,2,0,P|144:174|129:265,1,245
131,126,28759,1,0,0:0:0:0:
248,185,29097,1,0,0:0:0:0:
382,211,29436,1,0,0:0:0:0:
141,261,29774,1,0,0:0:0:0:
96,64,30338,5,0,0:0:0:0:
96,288,30451,1,0,0:0:0:0:
384,64,30563,5,0,0:0:0:0:
384,288,30676,1,0,0:0:0:0:
320,224,30789,1,0,0:0:0:0:
320,160,31015,1,0,0:0:0:0:
320,64,31127,1,0,0:0:0:0:
224,64,31466,1,0,0:0:0:0:
224,128,31692,1,0,0:0:0:0:
224,224,31804,1,0,0:0:0:0:
160,160,32142,5,0,0:0:0:0:
256,160,32368,1,0,0:0:0:0:
256,256,32593,2,0,L|96:256,1,140
96,192,33496,2,0,L|256:192,1,140
307,191,34398,1,0,0:0:0:0:
45,68,35187,5,0,0:0:0:0:
132,68,35300,2,0,L|277:68,1,140
356,67,35977,1,0,0:0:0:0:
59,190,36879,1,0,0:0:0:0:
134,190,37105,1,0,0:0:0:0:
133,320,37330,1,0,0:0:0:0:
210,321,37556,2,0,L|319:321,1,105
424,72,38684,1,0,0:0:0:0:
359,130,38909,5,0,0:0:0:0:
294,180,39135,1,0,0:0:0:0:
293,260,39360,1,0,0:0:0:0:
220,262,39586,1,0,0:0:0:0:
71,164,39812,2,0,P|227:78|275:193,1,315
350,159,41165,1,0,0:0:0:0:
101,190,41842,1,0,0:0:0:0:
163,242,42067,1,0,0:0:0:0:
230,287,42293,1,0,0:0:0:0:
311,288,42518,1,0,0:0:0:0:
61,39,42744,5,0,0:0:0:0:
102,78,42857,1,0,0:0:0:0:
160,127,43082,2,0,L|216:127,2,35
414,46,43646,5,0,0:0:0:0:
337,116,43872,1,0,0:0:0:0:
414,202,44097,1,0,0:0:0:0:
343,286,44323,1,0,0:0:0:0:
251,212,44548,2,0,L|204:166,1,35
170,168,44887,1,0,0:0:0:0:
106,165,44999,1,0,0:0:0:0:
256,192,45225,12,0,47819,0:0:0:0:
64,55,48157,5,0,0:0:0:0:
126,56,48383,1,0,0:0:0:0:
192,56,48609,1,0,0:0:0:0:
63,235,48834,2,0,P|280:130|330:143,1,280
135,269,50526,2,0,L|208:221,1,70
252,193,50864,1,0,0:0:0:0:
381,302,51090,1,0,0:0:0:0:
403,189,51315,2,0,L|340:136,2,70
307,164,51992,5,0,0:0:0:0:
238,124,52218,1,0,0:0:0:0:
241,199,52894,2,0,L|412:197,1,140
427,275,54022,1,0,0:0:0:0:
252,273,54473,1,0,0:0:0:0:
104,168,55150,1,0,0:0:0:0:
152,168,55375,1,0,0:0:0:0:
152,244,55601,1,0,0:0:0:0:
224,248,55827,2,0,L|512:212,1,280
480,220,56954,5,0,0:0:0:0:
360,192,57631,1,0,0:0:0:0:
276,196,58082,1,0,0:0:0:0:
216,200,58308,1,0,0:0:0:0:
56,64,58646,5,0,0:0:0:0:
132,64,58984,1,0,0:0:0:0:
96,136,59210,1,0,0:0:0:0:
256,188,59548,1,0,0:0:0:0:
256,192,59774,12,0,61353,0:0:0:0:
72,48,62593,5,0,0:0:0:0:
168,204,62819,1,0,0:0:0:0:
256,44,63045,1,0,0:0:0:0:
340,212,63270,2,0,L|432:212,2,70
52,64,64172,1,0,0:0:0:0:
256,304,64398,1,0,0:0:0:0:
456,64,64624,1,0,0:0:0:0:
48,192,65075,1,0,0:0:0:0:
176,192,65300,1,0,0:0:0:0:
256,312,65526,5,0,0:0:0:0:
368,312,65751,1,0,0:0:0:0:
80,52,66203,1,0,0:0:0:0:
456,52,66766,1,0,0:0:0:0:
256,52,67105,1,0,0:0:0:0:
64,188,67443,1,0,0:0:0:0:
452,192,67669,1,0,0:0:0:0:
252,308,68007,1,0,0:0:0:0:
252,192,68233,1,0,0:0:0:0:
156,124,68571,6,0,P|264:124|264:124,1,105
84,292,69586,1,0,0:0:0:0:
176,220,69812,1,0,0:0:0:0:
176,168,70037,1,0,0:0:0:0:
176,100,70375,2,0,L|448:336,1,350
84,244,72067,5,0,0:0:0:0:
80,40,72518,1,0,0:0:0:0:
80,40,72744,1,0,0:0:0:0:
80,40,72969,1,0,0:0:0:0:
80,144,73421,1,0,0:0:0:0:
256,192,73872,1,0,0:0:0:0:
256,192,74097,12,0,76691,0:0:0:0:
48,48,77030,5,0,0:0:0:0:
248,352,77255,1,0,0:0:0:0:
472,32,77481,1,0,0:0:0:0:
