osu file format v14

[General]
AudioFilename: audio.mp3
AudioLeadIn: 0
PreviewTime: 30323
Countdown: 0
SampleSet: Soft
StackLeniency: 0.4
Mode: 0
LetterboxInBreaks: 0
WidescreenStoryboard: 1

[Editor]
Bookmarks: 95939,100913,109618
DistanceSpacing: 1.1
BeatDivisor: 4
GridSize: 16
TimelineZoom: 2.5

[Metadata]
Title:Loser
TitleUnicode:Loser
Artist:Sueco
ArtistUnicode:Sueco
Creator:Rison
Version:AF's Expert
Source:
Tags:Sanayui stripedgoose Amats neoskylove affirmation leominexd leomine It Was Fun While Lasted english alternative rock male vocal
BeatmapID:4087821
BeatmapSetID:1963294

[Difficulty]
HPDrainRate:5.2
CircleSize:4
OverallDifficulty:8.7
ApproachRate:9.3
SliderMultiplier:0.999999999999999
SliderTickRate:1

[Events]
//Background and Video events
0,0,"bg.jpg",0,0
//Break Periods
2,101093,109598
//Storyboard Layer 0 (Background)
//Storyboard Layer 1 (Fail)
//Storyboard Layer 2 (Pass)
//Storyboard Layer 3 (Foreground)
//Storyboard Layer 4 (Overlay)
//Storyboard Sound Samples

[TimingPoints]
1412,310.880829015544,4,2,1,50,1,0
1412,-70.4225352112676,4,2,1,50,0,0
2577,-70.4225352112676,4,2,1,5,0,0
2655,-70.4225352112676,4,2,1,50,0,0
5064,-70.4225352112676,4,2,1,5,0,0
5142,-70.4225352112676,4,2,1,50,0,0
7551,-70.4225352112676,4,2,1,5,0,0
7629,-70.4225352112676,4,2,1,50,0,0
10893,-35.2112676056338,4,2,1,50,0,0
11049,-39.6825396825397,4,2,1,60,0,0
11282,-39.6825396825397,4,2,1,5,0,0
11360,-56.8181818181818,4,2,1,70,0,0
11904,-56.8181818181818,4,2,1,5,0,0
11981,-56.8181818181818,4,2,1,70,0,0
12525,-56.8181818181818,4,2,1,5,0,0
12603,-56.8181818181818,4,2,1,70,0,0
14158,-56.8181818181818,4,2,1,70,0,0
14391,-56.8181818181818,4,2,1,5,0,0
14468,-56.8181818181818,4,2,1,70,0,0
15012,-56.8181818181818,4,2,1,5,0,0
15090,-56.8181818181818,4,2,1,70,0,0
16878,-56.8181818181818,4,2,1,5,0,0
16956,-56.8181818181818,4,2,1,70,0,0
17499,-56.8181818181818,4,2,1,5,0,0
17577,-56.8181818181818,4,2,1,70,0,0
19365,-56.8181818181818,4,2,1,5,0,0
19443,-56.8181818181818,4,2,1,70,0,0
20686,-56.8181818181818,4,2,1,40,0,0
21308,-147.058823529412,4,2,1,40,0,0
30323,-147.058823529412,4,2,1,55,0,0
31256,-54.3478260869565,4,2,1,85,0,0
31489,-54.3478260869565,4,2,1,5,0,0
31567,-54.3478260869565,4,2,1,85,0,0
31800,-54.3478260869565,4,2,1,5,0,0
31878,-54.3478260869565,4,2,1,85,0,0
32111,-54.3478260869565,4,2,1,5,0,0
32189,-54.3478260869565,4,2,1,85,0,0
32733,-54.3478260869565,4,2,1,5,0,0
32810,-54.3478260869565,4,2,1,85,0,0
33044,-54.3478260869565,4,2,1,5,0,0
33121,-54.3478260869565,4,2,1,85,0,0
33355,-54.3478260869565,4,2,1,5,0,0
33432,-54.3478260869565,4,2,1,85,0,0
33976,-54.3478260869565,4,2,1,5,0,0
34054,-54.3478260869565,4,2,1,85,0,0
34287,-54.3478260869565,4,2,1,5,0,0
34365,-54.3478260869565,4,2,1,85,0,0
34598,-54.3478260869565,4,2,1,5,0,0
34676,-54.3478260869565,4,2,1,85,0,0
35220,-54.3478260869565,4,2,1,5,0,0
35298,-54.3478260869565,4,2,1,85,0,0
35531,-54.3478260869565,4,2,1,5,0,0
35608,-54.3478260869565,4,2,1,85,0,0
36463,-54.3478260869565,4,2,1,5,0,0
36541,-54.3478260869565,4,2,1,85,0,0
36774,-54.3478260869565,4,2,1,5,0,0
36852,-119.047619047619,4,2,1,85,0,0
37474,-54.3478260869565,4,2,1,85,0,0
37707,-54.3478260869565,4,2,1,5,0,0
37785,-54.3478260869565,4,2,1,85,0,0
38018,-54.3478260869565,4,2,1,5,0,0
38095,-119.047619047619,4,2,1,85,0,0
38717,-54.3478260869565,4,2,1,85,0,0
38950,-54.3478260869565,4,2,1,5,0,0
39028,-54.3478260869565,4,2,1,85,0,0
39261,-54.3478260869565,4,2,1,5,0,0
39339,-54.3478260869565,4,2,1,85,0,0
40194,-54.3478260869565,4,2,1,5,0,0
40272,-54.3478260869565,4,2,1,85,0,0
40505,-54.3478260869565,4,2,1,5,0,0
40582,-54.3478260869565,4,2,1,85,0,0
41204,-70.4225352112676,4,2,1,50,0,0
42370,-70.4225352112676,4,2,1,5,0,0
42448,-70.4225352112676,4,2,1,50,0,0
43225,-35.2112676056338,4,2,1,50,0,0
43380,-39.6825396825397,4,2,1,60,0,0
43613,-39.6825396825397,4,2,1,5,0,0
43691,-56.8181818181818,4,2,1,70,0,0
44857,-56.8181818181818,4,2,1,5,0,0
44935,-56.8181818181818,4,2,1,70,0,0
47344,-56.8181818181818,4,2,1,5,0,0
47422,-56.8181818181818,4,2,1,70,0,0
51152,-56.8181818181818,4,2,1,75,0,0
51696,-56.8181818181818,4,2,1,5,0,0
51774,-56.8181818181818,4,2,1,75,0,0
52318,-56.8181818181818,4,2,1,5,0,0
52396,-56.8181818181818,4,2,1,75,0,0
54183,-56.8181818181818,4,2,1,5,0,0
54261,-56.8181818181818,4,2,1,75,0,0
54805,-56.8181818181818,4,2,1,5,0,0
54883,-56.8181818181818,4,2,1,75,0,0
56670,-56.8181818181818,4,2,1,5,0,0
56748,-56.8181818181818,4,2,1,75,0,0
57292,-56.8181818181818,4,2,1,5,0,0
57370,-56.8181818181818,4,2,1,75,0,0
59235,-56.8181818181818,4,2,1,55,0,0
61101,-54.3478260869565,4,2,1,80,0,0
61334,-54.3478260869565,4,2,1,5,0,0
61411,-54.3478260869565,4,2,1,80,0,0
61644,-54.3478260869565,4,2,1,5,0,0
61722,-119.047619047619,4,2,1,80,0,0
62344,-54.3478260869565,4,2,1,80,0,0
62577,-54.3478260869565,4,2,1,5,0,0
62655,-54.3478260869565,4,2,1,80,0,0
62888,-54.3478260869565,4,2,1,5,0,0
62966,-119.047619047619,4,2,1,80,0,0
63588,-54.3478260869565,4,2,1,80,0,0
63821,-54.3478260869565,4,2,1,5,0,0
63899,-54.3478260869565,4,2,1,80,0,0
64132,-54.3478260869565,4,2,1,5,0,0
64209,-119.047619047619,4,2,1,80,0,0
64831,-54.3478260869565,4,2,1,80,0,0
65064,-54.3478260869565,4,2,1,5,0,0
65142,-54.3478260869565,4,2,1,80,0,0
65375,-54.3478260869565,4,2,1,5,0,0
65453,-89.2857142857143,4,2,1,80,0,0
65686,-89.2857142857143,4,2,1,5,0,0
65764,-89.2857142857143,4,2,1,80,0,0
65997,-89.2857142857143,4,2,1,5,0,0
66075,-54.3478260869565,4,2,1,80,0,0
66308,-54.3478260869565,4,2,1,5,0,0
66386,-54.3478260869565,4,2,1,80,0,0
66619,-54.3478260869565,4,2,1,5,0,0
66696,-119.047619047619,4,2,1,80,0,0
67318,-54.3478260869565,4,2,1,80,0,0
67551,-54.3478260869565,4,2,1,5,0,0
67629,-54.3478260869565,4,2,1,80,0,0
67862,-54.3478260869565,4,2,1,5,0,0
67940,-119.047619047619,4,2,1,80,0,0
68562,-54.3478260869565,4,2,1,80,0,0
68795,-54.3478260869565,4,2,1,5,0,0
68873,-54.3478260869565,4,2,1,80,0,0
69106,-54.3478260869565,4,2,1,5,0,0
69184,-119.047619047619,4,2,1,80,0,0
69805,-54.3478260869565,4,2,1,80,0,0
71048,-54.3478260869565,4,2,1,85,0,0
71282,-54.3478260869565,4,2,1,5,0,0
71360,-54.3478260869565,4,2,1,85,0,0
71593,-54.3478260869565,4,2,1,5,0,0
71671,-54.3478260869565,4,2,1,85,0,0
71904,-54.3478260869565,4,2,1,5,0,0
71981,-54.3478260869565,4,2,1,85,0,0
72525,-54.3478260869565,4,2,1,5,0,0
72603,-54.3478260869565,4,2,1,85,0,0
72836,-54.3478260869565,4,2,1,5,0,0
72914,-54.3478260869565,4,2,1,85,0,0
73147,-54.3478260869565,4,2,1,5,0,0
73225,-54.3478260869565,4,2,1,85,0,0
73769,-54.3478260869565,4,2,1,5,0,0
73847,-54.3478260869565,4,2,1,85,0,0
74080,-54.3478260869565,4,2,1,5,0,0
74158,-54.3478260869565,4,2,1,85,0,0
74391,-54.3478260869565,4,2,1,5,0,0
74468,-54.3478260869565,4,2,1,85,0,0
76256,-54.3478260869565,4,2,1,5,0,0
76334,-54.3478260869565,4,2,1,85,0,0
76567,-54.3478260869565,4,2,1,5,0,0
76645,-119.047619047619,4,2,1,85,0,0
77266,-54.3478260869565,4,2,1,85,0,0
77499,-54.3478260869565,4,2,1,5,0,0
77577,-54.3478260869565,4,2,1,85,0,0
77810,-54.3478260869565,4,2,1,5,0,0
77888,-119.047619047619,4,2,1,85,0,0
78510,-54.3478260869565,4,2,1,85,0,0
78743,-54.3478260869565,4,2,1,5,0,0
78821,-54.3478260869565,4,2,1,85,0,0
79054,-54.3478260869565,4,2,1,5,0,0
79132,-54.3478260869565,4,2,1,85,0,0
79365,-54.3478260869565,4,2,1,5,0,0
79443,-54.3478260869565,4,2,1,85,0,0
79676,-54.3478260869565,4,2,1,5,0,0
79753,-54.3478260869565,4,2,1,85,0,0
79986,-54.3478260869565,4,2,1,5,0,0
80064,-54.3478260869565,4,2,1,85,0,0
80297,-54.3478260869565,4,2,1,5,0,0
80375,-54.3478260869565,4,2,1,85,0,0
80608,-54.3478260869565,4,2,1,5,0,0
80686,-54.3478260869565,4,2,1,85,0,0
80919,-54.3478260869565,4,2,1,5,0,0
80997,-61.7283950617284,4,2,1,70,0,0
82163,-61.7283950617284,4,2,1,5,0,0
82241,-61.7283950617284,4,2,1,70,0,0
84650,-61.7283950617284,4,2,1,5,0,0
84728,-61.7283950617284,4,2,1,70,0,0
87137,-61.7283950617284,4,2,1,5,0,0
87215,-61.7283950617284,4,2,1,70,0,0
89624,-61.7283950617284,4,2,1,5,0,0
89702,-61.7283950617284,4,2,1,70,0,0
92111,-61.7283950617284,4,2,1,5,0,0
92189,-61.7283950617284,4,2,1,70,0,0
93043,-61.7283950617284,4,2,1,5,0,0
93121,-61.7283950617284,4,2,1,70,0,0
94287,-61.7283950617284,4,2,1,5,0,0
94365,-61.7283950617284,4,2,1,70,0,0
95220,-61.7283950617284,4,2,1,5,0,0
95298,-61.7283950617284,4,2,1,70,0,0
95841,-61.7283950617284,4,2,1,5,0,0
95919,-61.7283950617284,4,2,1,70,0,0
96541,-61.7283950617284,4,2,1,45,0,0
96852,-61.7283950617284,4,2,1,48,0,0
97163,-61.7283950617284,4,2,1,51,0,0
97474,-61.7283950617284,4,2,1,54,0,0
97785,-61.7283950617284,4,2,1,57,0,0
98095,-61.7283950617284,4,2,1,60,0,0
98406,-61.7283950617284,4,2,1,63,0,0
98717,-61.7283950617284,4,2,1,66,0,0
99028,-61.7283950617284,4,2,1,69,0,0
99339,-61.7283950617284,4,2,1,72,0,0
99650,-61.7283950617284,4,2,1,75,0,0
99961,-61.7283950617284,4,2,1,78,0,0
100272,-61.7283950617284,4,2,1,81,0,0
100582,-61.7283950617284,4,2,1,84,0,0
100893,-250,4,2,1,40,0,0
109909,-250,4,2,1,55,0,0
110842,-54.3478260869565,4,2,1,85,0,0
111075,-54.3478260869565,4,2,1,5,0,0
111152,-54.3478260869565,4,2,1,85,0,0
111385,-54.3478260869565,4,2,1,5,0,0
111463,-54.3478260869565,4,2,1,85,0,0
111696,-54.3478260869565,4,2,1,5,0,0
111774,-54.3478260869565,4,2,1,85,0,0
112318,-54.3478260869565,4,2,1,5,0,0
112396,-54.3478260869565,4,2,1,85,0,0
112629,-54.3478260869565,4,2,1,5,0,0
112707,-54.3478260869565,4,2,1,85,0,0
112940,-54.3478260869565,4,2,1,5,0,0
113018,-54.3478260869565,4,2,1,85,0,0
113562,-54.3478260869565,4,2,1,5,0,0
113639,-54.3478260869565,4,2,1,85,0,0
113872,-54.3478260869565,4,2,1,5,0,0
113950,-54.3478260869565,4,2,1,85,0,0
114183,-54.3478260869565,4,2,1,5,0,0
114261,-54.3478260869565,4,2,1,85,0,0
116049,-54.3478260869565,4,2,1,5,0,0
116127,-54.3478260869565,4,2,1,85,0,0
116360,-54.3478260869565,4,2,1,5,0,0
116437,-119.047619047619,4,2,1,85,0,0
117059,-54.3478260869565,4,2,1,85,0,0
117292,-54.3478260869565,4,2,1,5,0,0
117370,-54.3478260869565,4,2,1,85,0,0
117603,-54.3478260869565,4,2,1,5,0,0
117681,-119.047619047619,4,2,1,85,0,0
118303,-54.3478260869565,4,2,1,85,0,0
118536,-54.3478260869565,4,2,1,5,0,0
118614,-54.3478260869565,4,2,1,85,0,0
118847,-54.3478260869565,4,2,1,5,0,0
118924,-54.3478260869565,4,2,1,85,0,0
119157,-54.3478260869565,4,2,1,5,0,0
119235,-54.3478260869565,4,2,1,85,0,0
119468,-54.3478260869565,4,2,1,5,0,0
119546,-54.3478260869565,4,2,1,85,0,0
120790,-56.8181818181818,4,2,1,85,0,0
130582,-192.307692307692,4,2,1,85,0,0
130738,-192.307692307692,4,2,1,80,0,0

[Colours]
Combo1 : 196,139,120
Combo2 : 100,87,149
Combo3 : 166,105,123

[HitObjects]
263,240,1412,6,0,L|404:231,2,141.999992849732,2|2|2,2:2|2:2|2:2,0:0:0:0:
256,249,2344,2,0,L|362:242,1,106.499994637299,2|0,2:2|0:0,0:0:0:0:
463,284,2655,6,0,P|488:220|449:165,1,141.999992849732,2|2,2:2|2:2,0:0:0:0:
380,352,3121,5,2,2:2:0:0:
378,343,3277,1,2,2:2:0:0:
377,334,3432,1,2,2:2:0:0:
376,326,3588,1,2,2:2:0:0:
362,242,3743,1,2,2:2:0:0:
348,158,3899,6,0,L|356:16,2,141.999992849732,2|2|2,2:2|2:2|2:2,0:0:0:0:
339,164,4831,2,0,P|289:171|264:127,1,106.499994637299,2|0,2:2|0:0,0:0:0:0:
201,34,5142,6,0,P|234:27|262:48,1,70.9999964248658,2|2,2:2|2:2,0:0:0:0:
409,159,5453,2,0,L|339:164,1,70.9999964248658,2|2,2:2|2:2,0:0:0:0:
183,128,5764,1,2,2:2:0:0:
184,136,5920,1,2,2:2:0:0:
185,145,6075,1,2,2:2:0:0:
196,229,6230,1,2,2:2:0:0:
206,312,6386,6,0,P|273:318|305:258,2,141.999992849732,2|2|2,2:2|2:2|2:2,0:0:0:0:
197,307,7318,2,0,P|237:334|213:376,1,106.499994637299,2|0,2:2|0:0,0:0:0:0:
67,362,7629,6,0,B|98:377|98:377|132:363,1,70.9999964248658,2|2,2:2|2:2,0:0:0:0:
196,229,7940,2,0,B|165:214|165:214|130:227,1,70.9999964248658,2|2,2:2|2:2,0:0:0:0:
305,258,8251,1,2,2:2:0:0:
335,178,8406,1,2,2:2:0:0:
334,169,8562,1,2,2:2:0:0:
332,160,8717,1,2,2:2:0:0:
362,80,8873,6,0,L|503:88,1,141.999992849732,0|2,0:0|2:2,0:0:0:0:
498,79,9494,2,0,L|356:70,1,141.999992849732,2|2,2:2|2:2,0:0:0:0:
306,19,10116,6,0,P|277:38|273:72,1,70.9999964248658,2|2,2:2|2:2,0:0:0:0:
212,168,10427,1,2,2:2:0:0:
213,159,10583,1,2,2:2:0:0:
215,150,10738,1,2,2:2:0:0:
317,236,10893,6,0,B|322:276|322:276|305:250,1,70.9999964248658,2|0,1:2|1:1,0:0:0:0:
448,275,11049,2,0,B|398:258|398:258|382:176|382:176|332:159,1,188.999994232178,10|0,3:2|0:0,0:0:0:0:
457,155,11360,6,0,P|495:171|498:213,1,88.0000026855469,2|0,1:2|0:0,0:0:0:0:
292,358,11671,2,0,B|276:363|276:363|216:339|244:267,1,132.00000402832,10|0,2:2|0:0,0:0:0:0:
317,236,11981,2,0,B|356:263|356:263|350:303,1,88.0000026855469,2|2,1:2|1:2,0:0:0:0:
79,352,12292,2,0,P|138:348|132:289,1,132.00000402832,10|0,2:2|0:0,0:0:0:0:
160,176,12603,5,2,1:2:0:0:
73,190,12759,1,2,1:2:0:0:
146,89,12914,5,10,2:2:0:0:
160,176,13070,1,2,1:2:0:0:
59,103,13225,5,2,2:2:0:0:
146,89,13381,1,2,1:2:0:0:
73,190,13536,5,10,2:2:0:0:
59,103,13692,1,2,2:2:0:0:
243,267,13847,6,0,B|253:310|253:310|233:270,1,88.0000026855469,2|0,1:2|0:0,0:0:0:0:
389,72,14158,2,0,B|371:83|371:83|342:168|342:168|325:180,1,132.00000402832,10|0,2:2|0:0,0:0:0:0:
378,237,14468,6,0,P|411:213|402:172,1,88.0000026855469,2|2,1:2|1:2,0:0:0:0:
230,47,14779,2,0,B|244:32|244:32|282:49|282:49|274:118,1,132.00000402832,10|0,2:2|0:0,0:0:0:0:
160,193,15090,5,2,1:2:0:0:
184,277,15246,1,2,1:2:0:0:
73,190,15401,5,10,2:2:0:0:
160,193,15557,1,2,1:2:0:0:
44,273,15712,5,2,2:2:0:0:
73,190,15868,1,2,1:2:0:0:
112,326,16023,5,10,2:2:0:0:
44,273,16179,1,2,2:2:0:0:
263,311,16334,6,0,B|294:340|294:340|336:326,1,88.0000026855469,2|0,1:2|0:0,0:0:0:0:
402,172,16645,2,0,B|364:184|364:184|351:234|351:234|314:247,1,132.00000402832,10|0,2:2|0:0,0:0:0:0:
252,195,16956,2,0,P|257:154|296:140,1,88.0000026855469,2|2,1:2|1:2,0:0:0:0:
420,369,17266,2,0,B|442:353|442:353|429:248,1,132.00000402832,10|0,2:2|0:0,0:0:0:0:
385,145,17577,5,2,1:2:0:0:
473,150,17733,1,2,1:2:0:0:
297,140,17888,5,10,2:2:0:0:
385,145,18044,1,2,1:2:0:0:
209,135,18200,5,2,2:2:0:0:
297,140,18355,1,2,1:2:0:0:
121,130,18511,5,10,2:2:0:0:
209,135,18666,1,2,2:2:0:0:
102,384,18821,6,0,B|98:377|98:377|108:297,1,88.0000026855469,0|0,1:1|0:0,0:0:0:0:
294,320,19132,2,0,B|260:307|260:307|229:360|229:360|196:368,1,132.00000402832,10|0,2:2|0:0,0:0:0:0:
108,297,19443,5,2,1:2:0:0:
21,308,19598,1,2,1:2:0:0:
157,206,19753,5,10,2:2:0:0:
70,217,19908,1,2,2:2:0:0:
81,38,20064,6,0,B|116:63|116:63|95:22,1,88.0000026855469,0|0,1:1|0:0,0:0:0:0:
50,120,20375,1,10,2:2:0:0:
157,206,21308,5,2,2:2:0:0:
149,139,21619,2,0,L|157:206,1,68.000000415039,2|2,2:2|2:2,0:0:0:0:
157,206,22551,5,2,2:2:0:0:
224,198,22862,2,0,L|157:206,1,68.000000415039,2|2,2:2|2:2,0:0:0:0:
156,206,23795,5,2,2:2:0:0:
164,273,24106,2,0,L|156:206,1,68.000000415039,2|2,2:2|2:2,0:0:0:0:
156,206,25038,5,2,2:2:0:0:
89,214,25349,2,0,L|156:206,1,68.000000415039,2|2,2:2|2:2,0:0:0:0:
319,129,26282,5,2,2:2:0:0:
386,137,26593,2,0,L|319:129,1,68.000000415039,2|2,2:2|2:2,0:0:0:0:
386,137,27525,5,2,2:2:0:0:
378,204,27836,2,0,L|386:137,1,68.000000415039,2|2,2:2|2:2,0:0:0:0:
378,204,28769,5,2,2:2:0:0:
311,196,29080,2,0,L|378:204,1,68.000000415039,2|2,2:2|2:2,0:0:0:0:
311,196,30012,5,2,2:2:0:0:
319,129,30323,2,0,L|311:196,1,68.000000415039,2|2,2:2|2:2,0:0:0:0:
52,338,31256,6,0,B|68:323|68:323|161:332|161:332|175:348,1,137.999995367432,4|0,1:2|0:0,0:0:0:0:
123,235,31567,2,0,B|126:256|126:256|73:332|73:332|51:336,1,137.999995367432,2|0,1:2|0:0,0:0:0:0:
176,349,31878,2,0,B|155:341|155:341|116:257|116:257|123:236,1,137.999995367432,10|0,2:2|0:0,0:0:0:0:
70,147,32189,5,2,1:2:0:0:
275,154,32344,1,10,2:2:0:0:
480,161,32500,6,0,B|482:196|462:226|432:206|413:236|415:271,1,137.999995367432,2|0,1:2|0:0,0:0:0:0:
275,154,32810,2,0,B|304:134|340:136|338:172|373:174|403:154,1,137.999995367432,2|0,1:2|0:0,0:0:0:0:
372,336,33121,2,0,B|340:320|324:288|356:272|340:240|308:224,1,137.999995367432,10|0,2:2|0:0,0:0:0:0:
211,273,33432,6,0,P|239:291|222:261,1,91.9999969116211,2|2,1:2|2:2,0:0:0:0:
276,23,33743,6,0,B|288:31|288:31|274:153,1,137.999995367432,2|0,1:2|0:0,0:0:0:0:
163,87,34054,2,0,B|163:72|163:72|276:22,1,137.999995367432,2|0,1:2|0:0,0:0:0:0:
276,154,34365,2,0,B|263:160|263:160|163:87,1,137.999995367432,10|0,2:2|0:0,0:0:0:0:
95,8,34676,5,2,1:2:0:0:
123,195,34831,1,10,2:2:0:0:
151,382,34987,6,0,B|194:367|194:367|208:324|208:324|252:309,1,137.999995367432,2|0,1:2|0:0,0:0:0:0:
419,330,35298,2,0,B|375:315|375:315|361:272|361:272|317:257,1,137.999995367432,2|0,1:2|0:0,0:0:0:0:
154,270,35608,5,10,2:2:0:0:
172,34,35764,1,8,2:2:0:0:
146,273,35919,1,10,2:2:0:0:
164,37,36075,1,8,2:2:0:0:
24,243,36230,6,0,B|23:224|23:224|50:186|50:186|122:194,1,137.999995367432,4|0,1:2|0:0,0:0:0:0:
220,145,36541,2,0,B|221:164|221:164|194:202|194:202|122:194,1,137.999995367432,2|0,1:2|0:0,0:0:0:0:
62,105,36852,6,0,B|146:115,1,83.9999974365234,10|2,2:2|2:2,0:0:0:0:
146,273,37318,1,8,2:2:0:0:
323,35,37474,6,0,B|304:52|304:52|319:163,1,137.999995367432,2|0,1:2|0:0,0:0:0:0:
316,291,37785,2,0,B|335:274|335:274|319:162,1,137.999995367432,2|0,1:2|0:0,0:0:0:0:
402,50,38095,6,0,B|422:86|422:86|395:119,1,83.9999974365234,10|2,2:2|2:2,0:0:0:0:
180,22,38717,6,0,B|257:1|257:1|272:57,1,137.999995367432,4|0,1:2|0:0,0:0:0:0:
319,162,39028,2,0,B|241:182|241:182|226:126,1,137.999995367432,2|0,1:2|0:0,0:0:0:0:
74,84,39339,2,0,B|148:103|148:103|121:206,1,183.999993823242,10|2,2:2|2:2,0:0:0:0:
74,84,39805,1,8,2:2:0:0:
52,335,39961,6,0,B|88:337|119:316|102:297|133:276|170:279,1,137.999995367432,0|0,1:1|0:0,0:0:0:0:
364,320,40272,2,0,P|303:335|288:275,1,137.999995367432,2|0,1:2|0:0,0:0:0:0:
243,182,40582,5,8,2:2:0:0:
510,199,40738,1,8,2:2:0:0:
240,174,40893,1,8,2:2:0:0:
507,191,41049,1,8,2:2:0:0:
406,225,41204,6,0,L|411:83,2,141.999992849732,2|2|2,2:2|2:2|2:2,0:0:0:0:
400,216,42137,2,0,L|403:109,1,106.499994637299,2|0,2:2|0:0,0:0:0:0:
339,41,42448,6,0,B|309:59|309:59|315:94,1,70.9999964248658,2|2,2:2|2:2,0:0:0:0:
240,174,42759,5,2,2:2:0:0:
248,174,42914,1,2,2:2:0:0:
257,175,43070,1,2,2:2:0:0:
295,291,43225,6,0,P|274:305|289:284,1,70.9999964248658,2|0,1:2|0:0,0:0:0:0:
443,296,43380,6,0,P|487:348|424:320,1,188.999994232178,10|0,2:2|0:0,0:0:0:0:
368,201,43691,6,0,B|411:191|411:191|395:214|395:214|379:210,1,88.0000026855469,2|0,1:2|0:0,0:0:0:0:
207,92,44002,2,0,P|245:106|246:148,1,88.0000026855469,8|0,2:2|0:0,0:0:0:0:
171,256,44235,1,0,3:3:0:0:
171,256,44313,2,0,B|146:219|146:219|169:182,1,88.0000026855469,0|0,1:1|0:0,0:0:0:0:
316,29,44624,2,0,B|351:9|351:9|337:99,1,132.00000402832,10|0,2:2|0:0,0:0:0:0:
292,224,44935,5,2,1:2:0:0:
379,210,45091,1,2,1:2:0:0:
306,311,45246,5,10,2:2:0:0:
292,224,45402,1,2,1:2:0:0:
393,297,45557,5,2,3:2:0:0:
306,311,45713,1,2,1:2:0:0:
379,210,45868,5,10,2:2:0:0:
393,297,46024,1,2,3:2:0:0:
189,225,46178,6,0,B|184:271|184:271|198:231,1,88.0000026855469,2|0,1:2|0:0,0:0:0:0:
261,114,46489,2,0,P|284:134|255:123,1,88.0000026855469,10|0,2:2|0:0,0:0:0:0:
228,35,46722,1,0,0:0:0:0:
228,35,46800,2,0,L|344:27,1,88.0000026855469,0|0,1:1|0:0,0:0:0:0:
127,119,47111,2,0,B|94:116|94:116|84:50|84:50|52:47,1,132.00000402832,8|0,2:2|0:0,0:0:0:0:
44,148,47422,5,2,1:2:0:0:
127,119,47577,1,2,1:2:0:0:
46,236,47733,5,10,2:2:0:0:
44,148,47888,1,2,1:2:0:0:
131,262,48044,5,2,3:2:0:0:
46,236,48199,1,2,1:2:0:0:
181,189,48355,5,10,2:2:0:0:
131,262,48510,2,0,B|126:286|126:286|139:299,1,44.0000013427734,2|0,3:2|3:3,0:0:0:0:
294,258,48665,6,0,B|250:263|250:263|269:247|269:247|287:251,1,88.0000026855469,0|0,1:1|0:0,0:0:0:0:
409,365,48976,2,0,B|366:351|366:351|371:308,1,88.0000026855469,8|0,2:2|0:0,0:0:0:0:
407,214,49209,1,0,0:0:0:0:
407,213,49287,2,0,P|446:225|446:267,1,88.0000026855469,2|2,1:2|1:2,0:0:0:0:
271,340,49598,2,0,B|235:361|235:361|278:346,1,88.0000026855469,10|0,2:2|0:0,0:0:0:0:
342,83,49909,5,2,1:2:0:0:
326,169,50064,1,10,2:2:0:0:
326,169,50142,1,8,2:2:0:0:
326,169,50220,1,2,1:2:0:0:
260,113,50375,1,2,1:2:0:0:
58,205,50531,6,0,B|91:211|91:211|146:181|146:181|179:188,1,132.00000402832,10|8,2:2|2:2,0:0:0:0:
287,251,50842,5,10,2:2:0:0:
287,251,50919,1,0,3:3:0:0:
287,250,50997,2,0,P|265:255|245:248,1,44.0000013427734,2|0,3:2|3:3,0:0:0:0:
126,343,51152,6,0,P|125:301|164:286,1,88.0000026855469,4|0,1:2|0:0,0:0:0:0:
326,169,51463,2,0,B|343:162|343:162|402:198|365:259,1,132.00000402832,10|0,2:2|0:0,0:0:0:0:
334,332,51774,2,0,B|374:355|374:355|405:327,1,88.0000026855469,0|2,1:1|1:2,0:0:0:0:
480,104,52085,2,0,B|447:107|447:107|437:173|437:173|405:176,1,132.00000402832,10|0,2:2|0:0,0:0:0:0:
297,103,52396,5,2,1:2:0:0:
375,63,52551,1,2,1:2:0:0:
210,99,52707,5,10,2:2:0:0:
257,25,52862,1,2,1:2:0:0:
132,138,53018,5,2,2:2:0:0:
135,51,53173,1,2,1:2:0:0:
83,211,53329,5,10,2:2:0:0:
42,134,53485,1,2,2:2:0:0:
113,317,53639,6,0,P|79:318|107:299,1,88.0000026855469,2|0,1:2|0:0,0:0:0:0:
261,288,53950,2,0,B|223:324|223:324|245:247,1,132.00000402832,8|0,2:2|0:0,0:0:0:0:
311,203,54261,2,0,B|357:202|357:202|317:215,1,88.0000026855469,2|2,1:2|1:2,0:0:0:0:
132,138,54572,2,0,B|167:140|196:120|180:101|209:82|244:84,1,132.00000402832,10|0,2:2|0:0,0:0:0:0:
363,114,54883,5,2,1:2:0:0:
369,26,55038,1,2,1:2:0:0:
485,166,55194,5,10,2:2:0:0:
491,78,55349,1,2,1:2:0:0:
357,202,55505,5,2,2:2:0:0:
363,114,55660,1,2,1:2:0:0:
479,254,55816,5,10,2:2:0:0:
485,166,55971,1,2,2:2:0:0:
345,289,56127,6,0,B|369:326|369:326|410:311,1,88.0000026855469,2|0,1:2|0:0,0:0:0:0:
278,231,56437,2,0,P|219:241|228:300,1,132.00000402832,10|0,2:2|0:0,0:0:0:0:
260,373,56748,2,0,L|172:368,1,88.0000026855469,0|2,1:1|1:2,0:0:0:0:
16,263,57059,2,0,B|36:212|36:212|112:228,1,132.00000402832,10|0,2:2|0:0,0:0:0:0:
178,132,57370,5,2,1:2:0:0:
90,138,57525,1,2,1:2:0:0:
266,126,57682,5,10,2:2:0:0:
178,132,57837,1,2,1:2:0:0:
354,120,57993,5,2,2:2:0:0:
266,126,58148,1,2,1:2:0:0:
442,114,58303,5,8,2:2:0:0:
354,120,58459,1,2,2:2:0:0:
456,21,58614,6,0,B|505:11|505:11|473:31,1,88.0000026855469,0|0,1:1|0:0,0:0:0:0:
417,213,58924,2,0,P|339:197|353:119,1,176.000005371094,8|2,2:2|2:2,0:0:0:0:
99,103,61101,6,0,B|135:85|135:85|197:110|197:110|189:139,1,137.999995367432,4|0,1:2|0:0,0:0:0:0:
278,176,61411,2,0,B|242:194|242:194|180:169|180:169|188:140,1,137.999995367432,2|0,1:2|0:0,0:0:0:0:
240,38,61722,6,0,P|275:57|276:98,1,83.9999974365234,10|0,2:2|0:0,0:0:0:0:
136,239,62189,1,8,2:2:0:0:
313,327,62344,6,0,B|359:331|359:331|367:238,1,137.999995367432,2|0,1:2|0:0,0:0:0:0:
421,152,62655,2,0,B|375:148|375:148|366:240,1,137.999995367432,2|0,1:2|0:0,0:0:0:0:
451,315,62966,6,0,B|459:231,1,83.9999974365234,10|2,2:2|2:2,0:0:0:0:
137,61,63588,6,0,B|156:60|156:60|194:87|194:87|186:159,1,137.999995367432,0|0,1:1|0:0,0:0:0:0:
236,256,63899,2,0,B|217:257|217:257|179:230|179:230|187:158,1,137.999995367432,2|0,1:2|0:0,0:0:0:0:
276,98,64210,6,0,B|266:182,1,83.9999974365234,8|2,2:2|2:2,0:0:0:0:
142,303,64676,1,10,2:2:0:0:
450,298,64831,6,0,B|455:286|455:286|407:232|343:277,1,137.999995367432,0|0,1:1|0:0,0:0:0:0:
236,256,65142,2,0,B|231:267|231:267|278:321|343:277,1,137.999995367432,2|0,1:2|0:0,0:0:0:0:
371,178,65453,6,0,B|345:148|345:148|360:189,1,84.0000010253905,10|0,2:2|0:0,0:0:0:0:
232,144,65764,2,0,B|258:174|258:174|242:132,1,84.0000010253905,2|0,1:2|0:0,0:0:0:0:
180,18,66075,6,0,B|181:45|181:45|218:61|218:61|287:47,1,137.999995367432,4|0,1:2|0:0,0:0:0:0:
394,77,66386,2,0,B|393:50|393:50|356:34|356:34|286:47,1,137.999995367432,2|0,1:2|0:0,0:0:0:0:
232,144,66696,6,0,B|274:161|274:161|293:127,1,83.9999974365234,10|2,2:2|2:2,0:0:0:0:
180,18,67163,1,8,2:2:0:0:
129,156,67318,6,0,B|102:249|102:249|140:234,1,137.999995367432,2|0,1:2|0:0,0:0:0:0:
152,313,67629,2,0,B|179:220|179:220|140:234,1,137.999995367432,2|0,1:2|0:0,0:0:0:0:
28,282,67940,6,0,P|34:321|73:323,1,83.9999974365234,10|2,2:2|2:2,0:0:0:0:
241,156,68562,6,0,B|251:151|251:151|295:163|295:163|296:187|296:187|340:198|340:198|350:193,1,137.999995367432,0|0,1:1|0:0,0:0:0:0:
460,229,68873,2,0,B|450:234|450:234|406:222|406:222|405:198|405:198|360:186|360:186|351:192,1,137.999995367432,2|0,1:2|0:0,0:0:0:0:
264,257,69184,6,0,B|271:269|271:269|322:283|322:283|335:276,1,83.9999974365234,8|2,2:2|2:2,0:0:0:0:
307,81,69650,1,10,2:2:0:0:
473,150,69805,5,0,1:1:0:0:
337,275,69961,1,8,2:2:0:0:
152,283,70116,1,10,2:2:0:0:
5,170,70272,1,10,2:2:0:0:
85,125,70427,5,10,2:2:0:0:
95,155,70582,1,0,3:3:0:0:
95,186,70738,1,2,3:2:0:0:
83,216,70893,1,0,3:3:0:0:
301,279,71049,6,0,B|320:268|320:268|344:178|344:178|363:167,1,137.999995367432,4|0,1:2|0:0,0:0:0:0:
235,168,71360,2,0,B|235:189|235:189|300:255|300:255|300:277,1,137.999995367432,2|0,1:2|0:0,0:0:0:0:
363,166,71671,2,0,B|343:155|343:155|254:179|254:179|235:168,1,137.999995367432,10|0,2:2|0:0,0:0:0:0:
167,41,71981,5,2,1:2:0:0:
148,203,72137,1,10,2:2:0:0:
128,365,72292,6,0,P|169:311|236:306,1,137.999995367432,2|0,1:2|0:0,0:0:0:0:
418,340,72603,2,0,P|351:332|314:276,1,137.999995367432,2|0,1:2|0:0,0:0:0:0:
252,103,72914,2,0,P|277:164|248:225,1,137.999995367432,10|0,2:2|0:0,0:0:0:0:
126,186,73225,6,0,B|136:232|136:232|135:187,1,91.9999969116211,2|2,1:2|2:2,0:0:0:0:
314,17,73536,6,0,B|371:26|371:26|360:105,1,137.999995367432,2|0,1:2|0:0,0:0:0:0:
492,186,73847,2,0,B|455:230|455:230|392:181,1,137.999995367432,2|0,1:2|0:0,0:0:0:0:
256,256,74158,2,0,B|235:202|235:202|309:171,1,137.999995367432,10|0,2:2|0:0,0:0:0:0:
374,270,74468,6,0,P|361:301|359:267,1,91.9999969116211,2|2,1:2|2:2,0:0:0:0:
452,88,74779,5,2,1:2:0:0:
465,317,74935,1,8,2:2:0:0:
450,75,75090,1,2,1:2:0:0:
493,167,75401,5,10,2:2:0:0:
263,188,75557,1,8,2:2:0:0:
498,177,75713,1,10,2:2:0:0:
268,198,75868,1,8,2:2:0:0:
351,380,76023,6,0,B|392:360|392:360|373:269,1,137.999995367432,4|0,1:2|0:0,0:0:0:0:
395,159,76334,2,0,B|354:179|354:179|372:269,1,137.999995367432,2|0,1:2|0:0,0:0:0:0:
465,317,76645,6,0,B|447:234,1,83.9999974365234,10|2,2:2|2:2,0:0:0:0:
291,309,77111,1,8,2:2:0:0:
128,91,77266,6,0,B|151:84|151:84|186:91|186:91|207:110|207:110|256:113,1,137.999995367432,2|0,1:2|0:0,0:0:0:0:
386,137,77577,2,0,B|363:144|363:144|328:137|328:137|307:118|307:118|257:114,1,137.999995367432,2|0,1:2|0:0,0:0:0:0:
141,194,77888,6,0,B|178:215|178:215|216:198,1,83.9999974365234,10|2,2:2|2:2,0:0:0:0:
429,10,78510,6,0,B|431:48|410:79|401:65|380:96|383:134,1,137.999995367432,4|0,1:2|0:0,0:0:0:0:
339,262,78821,2,0,B|336:223|357:192|366:206|387:175|384:137,1,137.999995367432,2|0,1:2|0:0,0:0:0:0:
296,106,79132,6,0,P|266:145|308:119,1,137.999995367432,4|0,1:2|0:0,0:0:0:0:
474,167,79443,2,0,P|503:127|461:153,1,137.999995367432,2|0,1:2|0:0,0:0:0:0:
447,296,79753,6,0,P|402:247|338:261,1,137.999995367432,4|0,1:2|0:0,0:0:0:0:
189,297,80064,2,0,P|233:346|298:332,1,137.999995367432,2|0,1:2|0:0,0:0:0:0:
277,195,80375,6,0,L|140:216,1,137.999995367432,4|0,1:2|0:0,0:0:0:0:
4,237,80686,2,0,L|140:215,1,137.999995367432,2|0,1:2|0:0,0:0:0:0:
192,121,80997,6,0,B|142:110|142:110|116:58|116:58|66:48,1,162.000003955078,4|2,1:2|1:2,0:0:0:0:
197,39,81463,1,8,2:2:0:0:
63,130,81619,2,0,B|58:176|58:176|70:143,1,81.000001977539,0|0,1:1|0:0,0:0:0:0:
289,124,81930,2,0,P|233:136|232:192,1,121.500002966309,8|0,2:2|0:0,0:0:0:0:
294,244,82241,6,0,L|374:236,1,81.000001977539,2|2,1:2|3:2,0:0:0:0:
196,334,82551,2,0,B|159:349|159:349|127:322,1,81.000001977539,2|2,1:2|2:2,0:0:0:0:
36,166,82862,1,2,1:2:0:0:
116,179,83018,1,2,2:2:0:0:
195,192,83173,2,0,P|221:162|217:123,1,81.000001977539,2|2,1:2|3:2,0:0:0:0:
186,11,83406,1,0,3:3:0:0:
186,11,83484,6,0,P|191:80|252:49,1,162.000003955078,2|0,1:2|1:1,0:0:0:0:
276,173,83950,1,8,2:2:0:0:
438,166,84106,2,0,P|448:128|425:97,1,81.000001977539,0|0,1:1|0:0,0:0:0:0:
276,173,84417,2,0,B|268:156|268:156|206:169|235:236,1,121.500002966309,8|0,2:2|0:0,0:0:0:0:
306,276,84728,5,2,1:2:0:0:
361,346,84883,1,2,3:2:0:0:
192,355,85038,2,0,L|273:359,1,81.000001977539,2|2,1:2|2:2,0:0:0:0:
475,267,85349,2,0,L|394:263,1,81.000001977539,2|2,1:2|2:2,0:0:0:0:
300,109,85660,1,2,1:2:0:0:
282,118,85737,1,0,3:3:0:0:
271,135,85815,1,2,3:2:0:0:
268,155,85893,1,0,3:3:0:0:
276,173,85971,6,0,L|438:165,1,162.000003955078,2|2,1:2|1:2,0:0:0:0:
307,279,86437,1,8,2:2:0:0:
109,129,86593,2,0,B|144:109|144:109|181:125,1,81.000001977539,0|0,1:1|0:0,0:0:0:0:
307,279,86904,2,0,P|256:302|275:354,1,121.500002966309,8|0,2:2|0:0,0:0:0:0:
354,374,87215,5,2,1:2:0:0:
399,297,87370,1,2,3:2:0:0:
212,211,87525,2,0,L|217:291,1,81.000001977539,2|2,1:2|2:2,0:0:0:0:
443,374,87836,2,0,P|480:361|492:324,1,81.000001977539,2|2,1:2|2:2,0:0:0:0:
266,375,88147,2,0,L|185:380,1,81.000001977539,2|2,1:2|3:2,0:0:0:0:
66,351,88380,1,0,3:3:0:0:
66,351,88458,6,0,B|104:380|104:380|90:266,1,162.000003955078,2|0,1:2|1:1,0:0:0:0:
106,61,88924,1,8,2:2:0:0:
31,229,89080,2,0,P|51:262|90:266,1,81.000001977539,0|0,1:1|0:0,0:0:0:0:
267,159,89391,2,0,B|229:116|229:116|172:146,1,121.500002966309,10|0,2:2|0:0,0:0:0:0:
190,226,89702,5,0,1:1:0:0:
277,240,89857,1,0,3:3:0:0:
364,254,90013,2,0,B|404:250|404:250|364:240,1,81.000001977539,0|0,1:1|0:0,0:0:0:0:
205,314,90323,5,10,2:2:0:0:
294,133,90479,1,2,3:2:0:0:
418,336,90634,1,2,1:2:0:0:
438,339,90711,1,0,3:3:0:0:
457,334,90789,1,2,3:2:0:0:
473,322,90867,1,0,3:3:0:0:
484,305,90945,6,0,L|476:143,1,162.000003955078,4|2,1:2|1:2,0:0:0:0:
459,48,91412,1,8,2:2:0:0:
359,148,91567,2,0,B|322:163|322:163|294:133,1,81.000001977539,0|0,1:1|0:0,0:0:0:0:
459,48,91878,2,0,P|498:90|476:143,1,121.500002966309,8|0,2:2|0:0,0:0:0:0:
420,202,92189,5,2,1:2:0:0:
464,278,92344,1,2,3:2:0:0:
332,340,92500,2,0,L|413:351,1,81.000001977539,2|2,1:2|2:2,0:0:0:0:
265,228,92810,2,0,B|226:240|226:240|214:278|214:278|176:291,1,121.500002966309,2|0,1:2|0:0,0:0:0:0:
92,371,93121,1,2,1:2:0:0:
92,371,93198,1,0,3:3:0:0:
92,371,93277,2,0,L|86:330,1,40.5000009887695,2|0,3:2|3:3,0:0:0:0:
102,204,93432,6,0,B|121:171|121:171|115:213,1,81.000001977539,2|0,1:2|0:0,0:0:0:0:
188,114,93743,1,0,1:1:0:0:
102,89,93899,1,0,3:3:0:0:
265,228,94054,2,0,P|316:205|306:150,1,121.500002966309,0|0,1:1|0:0,0:0:0:0:
281,17,94365,2,0,B|249:43|249:43|264:81,1,81.000001977539,8|0,2:2|0:0,0:0:0:0:
413,120,94676,5,2,1:2:0:0:
449,39,94831,1,2,3:2:0:0:
413,120,94987,2,0,L|423:241,1,121.500002966309,2|0,1:2|0:0,0:0:0:0:
470,308,95298,2,0,B|503:331|503:331|480:296,1,81.000001977539,2|2,1:2|2:2,0:0:0:0:
306,150,95608,2,0,P|254:172|264:227,1,121.500002966309,2|0,1:2|0:0,0:0:0:0:
328,279,95919,6,0,B|308:236|308:236|199:273,1,162.000003955078,12|2,2:2|3:2,0:0:0:0:
40,302,96386,1,0,0:0:0:0:
40,302,96541,2,0,P|70:371|145:360,1,162.000003955078,0|0,1:1|1:1,0:0:0:0:
447,254,97163,6,0,L|406:257,3,40.5000009887695,2|0|2|0,1:2|3:3|3:2|3:3,0:0:0:0:
324,238,97474,2,0,L|327:278,3,40.5000009887695,2|0|2|0,1:2|3:3|3:2|3:3,0:0:0:0:
307,359,97785,2,0,L|347:355,3,40.5000009887695,2|0|2|0,1:2|3:3|3:2|3:3,0:0:0:0:
428,376,98095,2,0,L|424:335,3,40.5000009887695,2|0|2|0,1:2|3:3|3:2|3:3,0:0:0:0:
405,256,98406,5,2,1:2:0:0:
415,261,98483,1,0,3:3:0:0:
424,263,98561,1,0,3:3:0:0:
435,263,98639,1,0,3:3:0:0:
444,260,98716,1,0,1:1:0:0:
453,255,98794,1,0,3:3:0:0:
460,248,98872,1,8,2:2:0:0:
466,240,98950,1,8,2:2:0:0:
469,230,99027,1,10,1:2:0:0:
470,220,99105,1,8,2:2:0:0:
468,210,99183,1,8,2:2:0:0:
464,201,99260,1,8,2:2:0:0:
458,193,99338,1,10,1:2:0:0:
450,186,99416,1,8,2:2:0:0:
441,182,99494,1,10,2:2:0:0:
431,180,99571,1,8,2:2:0:0:
420,181,99650,5,10,1:2:0:0:
402,189,99727,1,8,2:2:0:0:
383,193,99805,1,8,2:2:0:0:
363,190,99883,1,8,2:2:0:0:
344,181,99960,1,10,1:2:0:0:
330,167,100038,1,8,2:2:0:0:
320,150,100116,1,10,2:2:0:0:
316,130,100194,1,8,2:2:0:0:
317,110,100272,1,10,1:2:0:0:
318,89,100349,1,8,2:2:0:0:
313,69,100427,1,8,2:2:0:0:
303,51,100505,1,8,2:2:0:0:
289,37,100583,1,10,1:2:0:0:
270,29,100660,1,8,2:2:0:0:
251,26,100738,1,8,2:2:0:0:
231,29,100816,1,8,2:2:0:0:
213,38,100893,5,2,2:2:0:0:
331,113,110842,6,0,L|290:244,1,137.999995367432,4|0,1:2|0:0,0:0:0:0:
424,214,111152,2,0,L|330:112,1,137.999995367432,2|0,1:2|0:0,0:0:0:0:
290,244,111463,2,0,L|424:213,1,137.999995367432,10|0,2:2|0:0,0:0:0:0:
471,153,111774,5,2,1:2:0:0:
262,171,111930,1,10,2:2:0:0:
52,188,112085,6,0,P|94:137|158:152,1,137.999995367432,2|0,1:2|0:0,0:0:0:0:
248,310,112396,2,0,P|183:298|164:235,1,137.999995367432,2|0,1:2|0:0,0:0:0:0:
256,78,112707,2,0,P|278:139|233:188,1,137.999995367432,10|0,2:2|0:0,0:0:0:0:
170,67,113018,6,0,P|160:35|180:61,1,91.9999969116211,2|2,1:2|2:2,0:0:0:0:
385,201,113329,6,0,B|420:199|450:219|430:249|460:268|495:266,1,137.999995367432,2|0,1:2|0:0,0:0:0:0:
384,328,113639,2,0,B|364:298|367:262|403:265|404:229|385:200,1,137.999995367432,2|0,1:2|0:0,0:0:0:0:
496,265,113950,2,0,B|480:296|447:312|431:279|400:296|384:327,1,137.999995367432,10|0,2:2|0:0,0:0:0:0:
450,378,114261,5,2,1:2:0:0:
253,353,114417,1,10,2:2:0:0:
56,328,114572,5,2,1:2:0:0:
289,263,114728,1,8,2:2:0:0:
87,246,114883,5,2,1:2:0:0:
253,353,115039,1,2,1:2:0:0:
189,123,115194,5,10,2:2:0:0:
153,350,115349,1,8,2:2:0:0:
195,132,115505,1,10,2:2:0:0:
159,359,115660,1,8,2:2:0:0:
299,101,115816,6,0,B|325:76|325:76|314:177,1,137.999995367432,4|0,1:2|0:0,0:0:0:0:
329,253,116127,2,0,B|303:278|303:278|313:176,1,137.999995367432,2|0,1:2|0:0,0:0:0:0:
405,128,116437,6,0,B|430:165|430:165|401:192,1,83.9999974365234,10|2,2:2|2:2,0:0:0:0:
263,304,116904,1,8,2:2:0:0:
59,70,117059,6,0,B|50:92|50:92|56:122|56:122|113:159|113:159|116:174,1,137.999995367432,2|0,1:2|0:0,0:0:0:0:
173,278,117370,2,0,B|182:256|182:256|176:226|176:226|119:189|119:189|115:173,1,137.999995367432,2|0,1:2|0:0,0:0:0:0:
142,75,117681,6,0,B|189:106|189:106|195:132,1,83.9999974365234,10|2,2:2|2:2,0:0:0:0:
277,327,118303,6,0,B|362:306|362:306|354:256,1,137.999995367432,4|0,1:2|0:0,0:0:0:0:
478,113,118614,2,0,B|393:134|393:134|400:183,1,137.999995367432,2|0,1:2|0:0,0:0:0:0:
442,297,118924,6,0,B|486:308|486:308|497:264|497:264|453:252,1,137.999995367432,10|0,2:2|0:0,0:0:0:0:
312,144,119235,2,0,B|267:132|267:132|256:176|256:176|300:188,1,137.999995367432,2|0,1:2|0:0,0:0:0:0:
180,315,119546,6,0,P|240:311|227:251,1,137.999995367432,0|8,1:1|2:2,0:0:0:0:
160,188,119857,6,0,P|145:205|146:227,1,45.9999984558105,10|0,2:2|0:0,0:0:0:0:
290,366,120013,2,0,P|291:343|276:326,1,45.9999984558105,8|0,2:2|0:0,0:0:0:0:
91,294,120168,5,0,1:1:0:0:
267,139,120323,1,8,2:2:0:0:
278,140,120400,1,8,2:2:0:0:
289,141,120478,1,0,3:3:0:0:
301,143,120556,1,0,3:3:0:0:
312,144,120633,1,0,3:3:0:0:
140,37,120790,6,0,P|128:56|124:77,1,44.0000013427734,4|2,1:2|2:2,0:0:0:0:
192,184,120945,2,0,P|182:165|166:151,1,44.0000013427734,2|2,1:2|2:2,0:0:0:0:
38,156,121101,2,0,P|59:157|80:149,3,44.0000013427734,8|2|2|2,2:2|2:2|2:2|2:2,0:0:0:0:
273,38,121411,6,0,L|316:41,1,44.0000013427734,0|0,1:1|0:0,0:0:0:0:
167,79,121567,2,0,L|124:76,1,44.0000013427734,2|2,1:2|2:2,0:0:0:0:
299,123,121722,2,0,L|342:126,3,44.0000013427734,8|0|2|0,2:2|0:0|2:2|0:0,0:0:0:0:
444,211,122033,1,0,1:1:0:0:
458,227,122110,1,2,2:2:0:0:
462,248,122188,1,2,1:2:0:0:
457,269,122266,1,2,2:2:0:0:
443,286,122344,6,0,L|399:282,3,44.0000013427734,8|2|2|2,2:2|2:2|2:2|2:2,0:0:0:0:
315,276,122655,6,0,L|319:320,1,44.0000013427734,0|2,1:1|2:2,0:0:0:0:
295,166,122810,2,0,L|299:122,1,44.0000013427734,2|2,1:2|2:2,0:0:0:0:
303,281,122966,2,0,L|307:325,1,44.0000013427734,8|0,2:2|0:0,0:0:0:0:
283,171,123121,2,0,L|287:127,1,44.0000013427734,2|2,2:2|2:2,0:0:0:0:
204,264,123277,6,0,P|186:278|165:284,1,44.0000013427734,0|2,1:1|2:2,0:0:0:0:
37,261,123432,2,0,B|27:280|27:280|34:301,1,44.0000013427734,2|2,1:2|2:2,0:0:0:0:
125,189,123588,2,0,L|121:145,3,44.0000013427734,8|2|2|2,2:2|2:2|2:2|2:2,0:0:0:0:
37,99,123899,5,0,1:1:0:0:
20,86,123976,1,0,0:0:0:0:
13,66,124054,1,2,1:2:0:0:
17,45,124132,1,2,2:2:0:0:
31,28,124209,2,0,L|74:31,3,44.0000013427734,8|0|2|0,2:2|0:0|2:2|0:0,0:0:0:0:
148,70,124520,6,0,L|191:73,1,44.0000013427734,0|2,1:1|2:2,0:0:0:0:
219,197,124676,2,0,L|222:153,1,44.0000013427734,2|2,1:2|2:2,0:0:0:0:
294,36,124831,2,0,L|290:79,3,44.0000013427734,8|2|2|2,2:2|2:2|1:2|2:2,0:0:0:0:
360,144,125142,6,0,P|379:153|401:154,1,44.0000013427734,0|2,1:1|2:2,0:0:0:0:
219,197,125298,2,0,P|199:187|177:186,1,44.0000013427734,2|2,1:2|2:2,0:0:0:0:
295,277,125453,2,0,B|306:257|306:257|304:235,1,44.0000013427734,10|0,2:2|0:0,0:0:0:0:
290,79,125608,2,0,B|279:99|279:99|280:120,1,44.0000013427734,0|0,1:1|1:1,0:0:0:0:
396,244,125764,6,0,L|439:240,1,44.0000013427734,4|2,1:2|2:2,0:0:0:0:
387,356,125919,2,0,L|343:352,1,44.0000013427734,2|0,1:2|0:0,0:0:0:0:
160,283,126075,2,0,L|203:279,3,44.0000013427734,8|2|2|0,2:2|2:2|2:2|0:0,0:0:0:0:
277,312,126386,6,0,B|264:332|264:332|267:351,1,44.0000013427734,0|2,1:1|2:2,0:0:0:0:
177,186,126541,2,0,P|199:187|219:197,1,44.0000013427734,2|0,1:2|0:0,0:0:0:0:
321,238,126696,2,0,L|317:194,3,44.0000013427734,8|2|2|0,2:2|2:2|2:2|0:0,0:0:0:0:
429,49,127007,5,0,1:1:0:0:
438,69,127084,1,2,2:2:0:0:
440,91,127162,1,2,1:2:0:0:
436,112,127240,1,2,2:2:0:0:
426,132,127318,2,0,L|382:128,3,44.0000013427734,8|2|2|2,2:2|2:2|2:2|2:2,0:0:0:0:
413,254,127629,6,0,P|427:237|429:216,1,44.0000013427734,0|2,1:1|2:2,0:0:0:0:
385,45,127785,2,0,L|428:48,1,44.0000013427734,2|2,1:2|2:2,0:0:0:0:
317,194,127940,2,0,P|303:177|301:155,1,44.0000013427734,8|0,2:2|0:0,0:0:0:0:
224,32,128095,5,2,1:2:0:0:
267,27,128172,1,2,1:2:0:0:
311,22,128251,5,12,2:2:0:0:
59,132,128406,1,2,1:2:0:0:
317,194,128562,5,8,2:2:0:0:
64,303,128717,1,2,1:2:0:0:
319,279,128873,5,12,2:2:0:0:
62,218,129028,1,2,1:2:0:0:
314,108,129184,5,8,2:2:0:0:
57,47,129339,1,2,1:2:0:0:
136,258,129494,5,12,2:2:0:0:
178,28,129650,1,2,1:2:0:0:
178,28,129728,1,2,1:2:0:0:
178,28,129805,1,8,2:2:0:0:
244,238,129961,1,2,1:2:0:0:
57,47,130116,5,12,2:2:0:0:
317,194,130272,1,8,2:2:0:0:
62,218,130427,1,8,2:2:0:0:
285,18,130582,2,0,L|310:21,1,25.9999998413086,8|0,2:2|0:0,0:0:0:0:
