osu file format v14

[General]
AudioFilename: audio.mp3
AudioLeadIn: 0
PreviewTime: 51951
Countdown: 0
SampleSet: Soft
StackLeniency: 0.7
Mode: 2
LetterboxInBreaks: 0
WidescreenStoryboard: 1

[Editor]
Bookmarks: 13801
DistanceSpacing: 1
BeatDivisor: 4
GridSize: 16
TimelineZoom: 1.7

[Metadata]
Title:veil (TV Size)
TitleUnicode:veil (TV Size)
Artist:Suda Keina
ArtistUnicode:須田景凪
Creator:muya-
Version:scorching
Source:炎炎ノ消防隊
Tags:Fire brigade of flames ending one 1 ed jpop j-pop pop short version force enn en no shouboutai fireforce nun nuns japanese anime balloon バルーン porte secre chickenbible verti chatie phob
BeatmapID:3872814
BeatmapSetID:1881103

[Difficulty]
HPDrainRate:5.8
CircleSize:4.8
OverallDifficulty:9
ApproachRate:9
SliderMultiplier:2.2
SliderTickRate:1

[Events]
//Background and Video events
0,0,"1027251.jpg",0,0
Video,0,"fire.mp4"
//Break Periods
//Storyboard Layer 0 (Background)
//Storyboard Layer 1 (Fail)
//Storyboard Layer 2 (Pass)
//Storyboard Layer 3 (Foreground)
//Storyboard Layer 4 (Overlay)
//Storyboard Sound Samples

[TimingPoints]
-599,400,4,2,6,40,1,0
801,-100,4,2,6,40,0,0
1001,400,4,2,6,40,1,0
1001,-111.111111111111,4,2,6,40,0,0
13801,-100,4,2,1,80,0,0
21701,-100,4,2,1,5,0,0
21801,-100,4,2,1,80,0,0
23301,-100,4,2,1,5,0,0
23401,-100,4,2,1,80,0,0
25001,-100,4,2,4,80,0,0
25101,-100,4,2,1,80,0,0
25801,-100,4,2,2,80,0,0
25901,-100,4,2,1,79,0,0
26001,-100,4,2,1,78,0,0
26101,-100,4,2,2,77,0,0
26201,-100,4,2,1,76,0,0
26301,-100,4,2,2,75,0,0
26401,-100,4,2,2,74,0,0
26501,-100,4,2,3,73,0,0
26601,-100,4,2,1,70,0,0
37801,-100,4,2,1,75,0,0
39001,-55.5555555555556,4,2,1,75,0,0
39401,-100,4,2,10,65,0,0
44201,-55.5555555555556,4,2,10,65,0,0
44801,-100,4,2,10,65,0,0
46101,-100,4,2,10,5,0,0
46201,-100,4,2,10,65,0,0
47401,-66.6666666666667,4,2,10,65,0,0
47801,-100,4,2,10,65,0,0
49001,-100,4,2,10,70,0,0
50601,-100,4,2,1,80,0,0
52001,-100,4,2,1,65,0,0
52201,-90.9090909090909,4,2,1,90,0,1
61401,-90.9090909090909,4,2,1,90,0,0
61701,-90.9090909090909,4,2,1,5,0,0
61801,-40,4,2,2,90,0,1
61901,-40,4,2,1,90,0,1
62201,-90.9090909090909,4,2,1,90,0,1
64201,-90.9090909090909,4,2,2,90,0,1
64301,-90.9090909090909,4,2,1,88,0,1
64401,-90.9090909090909,4,2,1,86,0,1
64501,-90.9090909090909,4,2,2,84,0,1
64601,-90.9090909090909,4,2,1,82,0,0
64701,-90.9090909090909,4,2,2,80,0,0
64801,-90.9090909090909,4,2,2,78,0,0
64901,-90.9090909090909,4,2,3,76,0,0
65001,-90.9090909090909,4,2,1,90,0,0
65301,-90.9090909090909,4,2,1,5,0,0
65401,-90.9090909090909,4,2,1,90,0,1
74201,-90.9090909090909,4,2,1,90,0,0
74601,-40,4,2,2,90,0,1
74701,-40,4,2,1,90,0,1
75001,-90.9090909090909,4,2,1,90,0,1
77401,-90.9090909090909,4,2,1,90,0,0
77801,-90.9090909090909,4,2,3,90,0,1
78001,-90.9090909090909,4,2,1,90,0,1
83201,-90.9090909090909,4,2,4,90,0,1
83401,-90.9090909090909,4,2,1,90,0,1
83601,-30.03003003003,4,2,2,90,0,0
83801,-90.9090909090909,4,2,3,90,0,1
84601,-90.9090909090909,4,2,3,70,0,0
85401,-90.9090909090909,4,2,3,50,0,0
86201,-90.9090909090909,4,2,3,65,0,0
87001,-90.9090909090909,4,2,3,80,0,0
87801,-90.9090909090909,4,2,3,90,0,0
88201,-90.9090909090909,4,2,3,5,0,0

[Colours]
Combo1 : 237,214,169
Combo2 : 241,181,114
Combo3 : 26,168,29

[HitObjects]
170,257,801,5,2,0:0:0:0:
335,240,1001,2,0,L|123:240,1,197.99999395752,2|2,1:2|0:2,0:0:0:0:
137,240,1601,1,0,0:0:0:0:
311,285,1801,2,0,P|396:262|379:171,1,197.99999395752,8|2,0:2|1:2,0:0:0:0:
81,188,2601,6,0,L|305:176,2,197.99999395752,2|2|10,0:2|0:2|0:2,0:0:0:0:
283,169,4001,1,2,0:0:0:0:
122,282,4201,6,0,L|114:175,1,98.9999969787599,2|2,1:2|1:2,0:0:0:0:
224,175,4601,2,0,L|330:175,1,98.9999969787599,2|0,0:2|0:0,0:0:0:0:
166,285,5001,2,0,L|370:286,1,197.99999395752,8|2,0:2|1:2,0:0:0:0:
362,276,5601,1,2,0:0:0:0:
188,246,5801,6,0,P|95:241|61:144,2,197.99999395752,2|2|10,0:2|0:2|0:2,0:0:0:0:
388,224,7001,2,0,L|406:159,1,49.4999984893799,2|0,0:2|0:0,0:0:0:0:
318,177,7201,2,0,L|300:119,1,49.4999984893799
413,174,7401,6,0,P|494:202|456:288,1,197.99999395752,2|0,1:2|0:0,0:0:0:0:
366,256,8001,1,2,0:2:0:0:
200,267,8201,2,0,L|87:261,1,98.9999969787599,10|0,0:2|1:2,0:0:0:0:
200,267,8601,2,0,L|304:264,1,98.9999969787599,2|2,1:2|0:0,0:0:0:0:
132,188,9001,6,0,P|65:131|153:80,1,197.99999395752,2|0,0:2|0:0,0:0:0:0:
226,75,9601,1,2,0:0:0:0:
126,157,9801,2,0,P|173:174|180:233,1,98.9999969787599,10|0,0:2|0:0,0:0:0:0:
99,161,10201,1,2,0:2:0:0:
443,272,10601,6,0,L|245:286,1,197.99999395752,2|0,1:2|0:0,0:0:0:0:
153,281,11201,1,2,0:2:0:0:
317,220,11401,2,0,P|365:213|388:167,1,98.9999969787599,10|2,0:0|1:2,0:0:0:0:
290,216,11801,1,2,1:2:0:0:
92,186,12201,5,2,1:2:0:0:
142,170,12301,1,0,0:0:0:0:
150,120,12401,1,0,0:0:0:0:
119,92,12501,1,0,0:0:0:0:
304,202,13801,6,0,L|432:199,1,110,6|0,1:2|3:2,0:0:0:0:
244,150,14101,1,2,0:0:0:0:
179,158,14201,1,8,0:0:0:0:
373,104,14401,2,0,L|433:97,1,55,2|8,3:2|0:0,0:0:0:0:
233,65,14601,1,2,1:2:0:0:
167,64,14701,1,8,0:0:0:0:
189,87,14801,1,2,3:2:0:0:
381,248,15001,2,0,L|389:131,1,110,10|2,0:0|3:2,0:0:0:0:
118,180,15401,5,2,1:2:0:0:
66,182,15501,2,0,L|101:127,1,55,2|0,0:0|3:2,0:0:0:0:
258,124,15701,1,2,0:0:0:0:
191,119,15801,1,8,0:0:0:0:
374,185,16001,2,0,L|438:178,1,55,2|8,3:2|0:0,0:0:0:0:
245,240,16201,6,0,L|125:230,1,110,2|2,1:2|3:2,0:0:0:0:
321,352,16601,2,0,P|373:307|334:275,1,110,10|0,0:0|3:2,0:0:0:0:
87,181,17001,5,2,1:2:0:0:
24,168,17101,2,0,L|73:138,1,55,2|0,0:0|3:2,0:0:0:0:
251,135,17301,1,2,0:0:0:0:
317,131,17401,1,8,0:0:0:0:
155,230,17601,1,2,3:2:0:0:
410,319,17801,5,2,1:2:0:0:
345,309,17901,1,8,0:0:0:0:
282,302,18001,1,2,3:2:0:0:
433,177,18201,2,0,L|440:292,1,110,10|2,0:0|3:2,0:0:0:0:
177,194,18601,6,0,L|114:187,1,55,2|2,1:2|0:0,0:0:0:0:
294,131,18801,1,0,3:2:0:0:
358,131,18901,2,0,L|325:84,1,55,2|8,0:0|0:0,0:0:0:0:
208,55,19201,2,0,L|333:51,1,110,2|0,3:2|1:2,0:0:0:0:
259,52,19501,1,2,0:0:0:0:
200,56,19601,1,2,3:2:0:0:
144,56,19701,1,2,0:0:0:0:
309,192,19801,2,0,L|436:186,1,110,10|2,0:0|3:2,0:0:0:0:
162,312,20201,5,2,1:2:0:0:
97,292,20301,2,0,L|145:251,1,55,2|0,0:0|3:2,0:0:0:0:
293,229,20501,1,2,0:0:0:0:
230,215,20601,1,8,0:0:0:0:
398,177,20801,1,2,3:2:0:0:
213,123,21001,5,2,1:2:0:0:
274,115,21101,1,8,0:0:0:0:
335,107,21201,1,2,3:2:0:0:
84,340,21401,2,0,P|16:304|74:243,1,165,10|0,0:0|0:0,0:0:0:0:
216,228,21801,5,2,1:2:0:0:
147,220,21901,1,2,0:0:0:0:
158,195,22001,1,0,3:2:0:0:
335,150,22101,1,2,0:0:0:0:
401,143,22201,2,0,L|274:127,1,110,8|2,0:0|3:2,0:0:0:0:
233,121,22501,1,8,0:0:0:0:
403,88,22601,6,0,P|450:63|418:12,1,110,2|2,1:2|3:2,0:0:0:0:
154,131,23001,2,0,P|73:167|133:236,1,165,10|0,0:0|0:0,0:0:0:0:
274,274,23401,6,0,L|404:259,1,110,2|0,1:2|3:2,0:0:0:0:
203,294,23701,1,2,0:0:0:0:
137,288,23801,1,8,0:0:0:0:
283,261,24001,1,2,3:2:0:0:
100,162,24201,5,2,1:2:0:0:
36,148,24301,1,8,0:0:0:0:
74,112,24401,1,0,3:2:0:0:
244,102,24501,2,0,L|340:96,1,55,2|8,0:0|0:0,0:0:0:0:
160,65,24801,1,2,3:2:0:0:
344,311,25001,5,6,1:2:0:0:
415,302,25101,1,8,0:0:0:0:
344,311,25201,1,8,0:0:0:0:
415,302,25301,1,8,0:0:0:0:
224,245,25401,1,2,1:2:0:0:
158,224,25501,1,8,0:0:0:0:
328,208,25601,1,8,0:0:0:0:
394,185,25701,1,8,0:0:0:0:
187,148,25801,5,10,2:3:0:0:
118,139,25901,1,8,0:0:0:0:
187,148,26001,1,10,0:0:0:0:
118,139,26101,1,8,2:3:0:0:
288,99,26201,1,10,0:0:0:0:
363,123,26301,1,8,0:3:0:0:
310,131,26401,1,4,0:3:0:0:
254,144,26501,1,4,0:3:0:0:
71,206,26601,6,0,P|32:275|159:288,1,220,6|10,1:2|0:0,0:0:0:0:
251,301,27201,1,2,3:2:0:0:
81,115,27401,1,2,1:2:0:0:
33,115,27501,1,10,0:0:0:0:
216,150,27701,1,2,0:0:0:0:
261,149,27801,1,8,0:0:0:0:
141,168,28001,1,2,3:2:0:0:
443,289,28201,6,0,L|446:163,1,110,2|0,1:2|3:2,0:0:0:0:
284,170,28501,1,2,0:0:0:0:
221,174,28601,1,8,0:0:0:0:
95,217,28801,1,2,3:2:0:0:
158,221,28901,1,0,0:0:0:0:
328,235,29001,1,0,1:2:0:0:
283,235,29101,1,8,0:0:0:0:
237,236,29201,1,10,3:2:0:0:
397,176,29401,2,0,L|280:173,1,110,10|2,0:0|3:2,0:0:0:0:
20,344,29801,6,0,L|166:345,1,110,2|0,1:2|3:2,0:0:0:0:
286,341,30101,1,2,0:0:0:0:
223,341,30201,1,10,0:0:0:0:
97,274,30401,2,0,L|93:197,1,55,2|8,3:2|0:0,0:0:0:0:
273,218,30601,6,0,L|394:217,1,110,2|0,1:2|3:2,0:0:0:0:
386,213,30901,1,0,0:0:0:0:
220,161,31001,2,0,P|168:135|180:79,1,110,10|2,0:0|3:2,0:0:0:0:
461,50,31401,6,0,L|462:177,1,110,2|2,1:2|3:2,0:0:0:0:
380,159,31701,1,2,0:0:0:0:
300,162,31801,2,0,L|301:285,1,110,10|2,0:0|3:2,0:0:0:0:
354,268,32101,1,8,0:0:0:0:
182,266,32201,1,0,1:2:0:0:
116,259,32301,1,8,0:0:0:0:
146,228,32401,1,2,3:2:0:0:
401,173,32601,2,0,P|448:156|451:97,1,110,10|2,0:0|3:2,0:0:0:0:
172,84,33001,5,2,1:2:0:0:
284,95,33201,1,2,3:2:0:0:
29,294,33401,2,0,L|23:153,1,110,10|0,0:0|3:2,0:0:0:0:
110,181,33701,1,8,0:0:0:0:
198,178,33801,2,0,L|192:37,1,110,2|0,1:2|3:2,0:0:0:0:
378,262,34201,2,0,L|238:260,1,110,8|2,0:0|3:2,0:0:0:0:
14,117,34601,6,0,P|29:57|76:70,1,110,2|2,1:2|3:2,0:0:0:0:
221,103,34901,1,2,0:0:0:0:
156,108,35001,1,10,0:0:0:0:
41,244,35201,1,2,3:2:0:0:
99,240,35301,1,8,0:0:0:0:
267,229,35401,1,2,1:2:0:0:
334,223,35501,1,8,0:0:0:0:
304,191,35601,1,2,3:2:0:0:
129,148,35801,2,0,P|80:114|99:68,1,110,10|2,0:0|3:2,0:0:0:0:
365,66,36201,6,0,L|488:69,1,110,2|0,1:2|3:2,0:0:0:0:
344,149,36601,2,0,L|467:152,1,110,10|0,0:0|3:2,0:0:0:0:
460,156,36901,1,8,0:0:0:0:
286,208,37001,1,2,1:2:0:0:
222,209,37101,1,8,0:0:0:0:
157,209,37201,1,0,3:2:0:0:
415,356,37401,2,0,P|466:320|432:281,1,110,10|2,0:0|3:2,0:0:0:0:
141,261,37801,6,0,L|132:137,1,110,2|0,1:2|3:2,0:0:0:0:
403,260,38201,2,0,L|412:136,1,110,10|0,0:0|3:2,0:0:0:0:
133,151,38601,1,2,1:2:0:0:
322,141,38801,1,0,3:2:0:0:
255,140,38901,1,8,0:0:0:0:
322,141,39001,2,0,P|462:114|485:61,1,197.99999395752,10|10,0:0|0:0,0:0:0:0:
190,43,39401,6,0,P|98:82|145:184,1,220,6|10,1:2|3:2,0:0:0:0:
225,162,40001,1,2,0:0:0:0:
392,209,40201,2,0,L|228:174,2,165,10|8|8,1:2|3:2|3:2,0:0:0:0:
203,334,41001,5,0,1:2:0:0:
115,323,41201,1,0,3:2:0:0:
271,288,41401,1,10,3:2:0:0:
370,254,41601,1,2,0:0:0:0:
186,183,41801,2,0,P|105:165|38:108,2,165,8|8|10,1:2|3:2|3:2,0:0:0:0:
448,174,42601,6,0,P|504:116|386:89,1,220,0|10,1:2|3:2,0:0:0:0:
341,141,43201,1,2,0:0:0:0:
179,192,43401,2,0,L|356:165,2,165,10|8|10,1:2|3:2|3:2,0:0:0:0:
355,370,44201,6,0,B|418:263|333:170|304:209|276:216|210:134|252:33,1,395.999987915039,2|10,1:2|3:2,0:0:0:0:
326,98,44801,1,2,0:0:0:0:
481,100,45001,2,0,L|320:33,2,165,10|8|8,1:2|3:2|3:2,0:0:0:0:
205,283,45801,6,0,P|133:227|180:175,1,165,0|0,1:2|0:0,0:0:0:0:
258,186,46201,2,0,L|375:182,1,110,10|0,3:2|0:0,0:0:0:0:
191,342,46601,2,0,L|187:225,1,110,10|2,1:2|0:0,0:0:0:0:
262,232,46901,1,8,3:2:0:0:
336,232,47001,2,0,L|332:122,1,110,2|10,0:0|3:2,0:0:0:0:
74,96,47401,6,0,L|249:113,1,165.000006294251,2|0,1:2|3:2,0:0:0:0:
68,185,47801,2,0,L|177:183,1,110,10|0,3:2|0:0,0:0:0:0:
342,216,48201,2,0,L|169:203,2,165,10|8|8,1:2|3:2|3:2,0:0:0:0:
91,371,49001,6,0,P|74:323|149:302,1,110,2|0,1:2|3:2,0:0:0:0:
286,273,49401,2,0,L|403:272,1,110,10|0,3:2|0:0,0:0:0:0:
203,312,49801,2,0,L|194:191,1,110,2|0,1:2|0:0,0:0:0:0:
284,194,50101,1,8,3:2:0:0:
370,189,50201,2,0,L|363:55,1,110,2|8,0:0|3:2,0:0:0:0:
90,56,50601,5,10,0:0:0:0:
167,70,50701,1,8,0:0:0:0:
104,52,50801,1,0,1:2:0:0:
284,132,51001,2,0,L|414:129,1,110,0|10,1:2|0:0,0:0:0:0:
374,116,51301,1,8,0:0:0:0:
183,118,51401,1,10,0:0:0:0:
345,302,51601,2,0,P|452:249|377:176,1,220,0|2,1:2|0:0,0:0:0:0:
73,203,52201,6,0,P|39:150|87:105,1,121.000003692627,6|0,1:2|3:2,0:0:0:0:
266,198,52601,2,0,L|135:197,1,121.000003692627,10|0,0:0|3:2,0:0:0:0:
160,186,52901,1,8,0:0:0:0:
356,165,53001,1,2,1:2:0:0:
304,145,53101,1,8,0:0:0:0:
374,128,53201,1,2,3:2:0:0:
190,103,53401,1,10,0:0:0:0:
366,75,53601,1,2,3:2:0:0:
96,323,53801,6,0,L|88:183,1,121.000003692627,2|0,1:2|3:2,0:0:0:0:
180,196,54101,1,0,1:2:0:0:
270,191,54201,2,0,L|264:55,1,121.000003692627,10|0,0:0|3:2,0:0:0:0:
257,65,54501,1,8,0:0:0:0:
76,89,54601,5,2,1:2:0:0:
14,67,54701,1,8,0:0:0:0:
52,46,54801,1,0,3:2:0:0:
227,20,55001,2,0,L|107:45,1,121.000003692627,8|2,0:0|3:2,0:0:0:0:
387,213,55401,5,2,1:2:0:0:
261,197,55601,1,2,3:2:0:0:
461,364,55801,2,0,L|467:214,1,121.000003692627,10|0,0:0|3:2,0:0:0:0:
279,249,56101,1,8,0:0:0:0:
343,243,56201,1,2,1:2:0:0:
168,240,56301,1,8,0:0:0:0:
103,222,56401,1,2,3:2:0:0:
297,194,56601,2,0,P|353:168|345:102,1,121.000003692627,10|2,0:0|3:2,0:0:0:0:
77,146,57001,6,0,P|17:130|34:64,1,121.000003692627,2|0,1:2|3:2,0:0:0:0:
74,84,57301,1,0,1:2:0:0:
257,97,57401,2,0,L|401:98,1,121.000003692627,10|0,0:0|3:2,0:0:0:0:
373,78,57701,1,8,0:0:0:0:
193,190,57801,5,2,1:2:0:0:
125,174,57901,1,8,0:0:0:0:
164,163,58001,1,0,3:2:0:0:
380,311,58201,2,0,L|388:177,1,121.000003692627,10|0,0:0|3:2,0:0:0:0:
118,247,58601,6,0,P|211:159|323:176,1,242.000007385254,6|8,1:2|0:0,0:0:0:0:
420,205,59201,1,2,3:2:0:0:
230,236,59401,1,2,1:2:0:0:
162,219,59501,1,8,0:0:0:0:
197,204,59601,1,0,3:2:0:0:
476,131,59801,2,0,L|360:82,1,121.000003692627,10|2,0:0|3:2,0:0:0:0:
68,183,60201,6,0,P|10:102|124:76,1,242.000007385254,2|10,1:2|0:0,0:0:0:0:
246,112,60801,2,0,L|171:110,1,60.5000018463135,2|8,3:2|0:0,0:0:0:0:
365,260,61001,2,0,L|368:132,1,121.000003692627,2|0,1:2|3:2,0:0:0:0:
106,158,61401,2,0,P|21:134|66:58,1,181.500005538941,10|0,0:0|0:0,0:0:0:0:
233,41,61801,6,0,B|316:-5|367:94|367:94|150:152|150:152|138:261|252:241,1,550,6|8,1:2|0:0,0:0:0:0:
412,313,62401,2,0,L|476:305,1,60.5000018463135,2|8,3:2|0:0,0:0:0:0:
266,371,62601,1,2,1:2:0:0:
201,350,62701,1,8,0:0:0:0:
238,327,62801,1,2,3:2:0:0:
430,257,63001,2,0,P|471:205|417:160,1,121.000003692627,10|2,0:2|3:2,0:0:0:0:
152,174,63401,5,2,1:2:0:0:
85,178,63501,1,8,0:2:0:0:
37,155,63601,1,8,0:0:0:0:
109,146,63701,1,8,0:0:0:0:
308,124,63801,6,0,L|378:118,1,60.5000018463135,2|8,1:2|0:0,0:0:0:0:
164,231,64001,2,0,L|79:240,1,60.5000018463135,10|8,0:0|0:0,0:0:0:0:
344,324,64201,5,10,0:3:0:0:
413,317,64301,1,8,0:0:0:0:
344,324,64401,1,8,0:0:0:0:
413,317,64501,1,8,0:3:0:0:
227,304,64601,5,8,0:0:0:0:
160,302,64701,1,8,0:3:0:0:
227,304,64801,1,6,0:3:0:0:
160,302,64901,1,4,0:3:0:0:
404,248,65001,2,0,P|489:205|443:148,1,181.500005538941,6|0,1:2|0:0,0:0:0:0:
268,126,65401,6,0,L|136:125,1,121.000003692627,10|0,0:0|3:2,0:0:0:0:
338,103,65801,1,2,1:2:0:0:
260,77,65901,1,8,0:0:0:0:
315,74,66001,1,2,3:2:0:0:
165,195,66201,1,10,0:2:0:0:
285,168,66401,1,2,3:2:0:0:
20,359,66601,6,0,L|15:220,1,121.000003692627,2|0,1:2|3:2,0:0:0:0:
187,227,66901,1,0,1:2:0:0:
254,219,67001,1,10,0:0:0:0:
112,107,67201,2,0,L|35:107,1,60.5000018463135,0|8,3:2|0:0,0:0:0:0:
237,98,67401,5,2,1:2:0:0:
303,113,67501,1,8,0:0:0:0:
277,144,67601,1,0,3:2:0:0:
80,243,67801,1,8,0:0:0:0:
182,224,68001,1,2,3:2:0:0:
453,281,68201,6,0,L|458:147,1,121.000003692627,2|0,1:2|3:2,0:0:0:0:
236,173,68601,2,0,L|230:38,1,121.000003692627,10|0,0:0|3:2,0:0:0:0:
412,136,68901,1,8,0:0:0:0:
348,132,69001,1,2,1:2:0:0:
172,128,69101,1,8,0:0:0:0:
236,116,69201,1,2,3:2:0:0:
431,76,69401,1,10,0:0:0:0:
330,49,69601,1,2,3:2:0:0:
68,279,69801,6,0,P|36:220|92:198,1,121.000003692627,2|2,1:2|3:2,0:0:0:0:
249,199,70101,1,0,1:2:0:0:
187,163,70201,1,10,0:0:0:0:
373,155,70401,2,0,L|440:142,1,60.5000018463135,0|8,3:2|0:0,0:0:0:0:
241,122,70601,1,2,1:2:0:0:
178,114,70701,1,8,0:0:0:0:
118,104,70801,1,0,3:2:0:0:
343,279,71001,2,0,L|478:260,1,121.000003692627,10|0,0:0|3:2,0:0:0:0:
155,341,71401,6,0,P|72:337|126:217,1,242.000007385254,6|8,1:2|0:0,0:0:0:0:
200,229,72001,1,2,3:2:0:0:
391,183,72201,1,2,1:2:0:0:
334,180,72301,1,8,0:0:0:0:
278,178,72401,1,0,3:2:0:0:
11,120,72601,2,0,P|37:72|124:77,1,121.000003692627,10|0,0:0|3:2,0:0:0:0:
389,206,73001,6,0,P|279:161|147:163,1,242.000007385254,2|8,1:2|0:0,0:0:0:0:
38,303,73601,2,0,L|113:289,1,60.5000018463135,2|8,3:2|0:0,0:0:0:0:
270,294,73801,2,0,L|277:159,1,121.000003692627,2|0,1:2|3:2,0:0:0:0:
79,178,74201,2,0,L|68:22,1,121.000003692627,10|0,0:0|3:2,0:0:0:0:
329,36,74601,6,0,B|470:-1|491:154|420:203|420:203|222:389,1,550,6|8,1:2|0:0,0:0:0:0:
354,304,75201,2,0,L|436:296,1,60.5000018463135,2|8,3:2|0:0,0:0:0:0:
217,341,75401,1,2,1:2:0:0:
259,298,75501,1,8,0:0:0:0:
187,299,75601,1,2,3:2:0:0:
375,207,75801,2,0,L|504:191,1,121.000003692627,10|2,0:0|3:2,0:0:0:0:
194,172,76201,6,0,P|142:152|179:79,1,121.000003692627,2|0,1:2|3:2,0:0:0:0:
210,86,76501,1,0,1:2:0:0:
389,84,76601,2,0,L|397:223,1,121.000003692627,10|2,0:0|3:2,0:0:0:0:
187,269,77001,1,2,1:2:0:0:
252,262,77101,1,8,0:0:0:0:
318,254,77201,1,0,3:2:0:0:
47,259,77401,2,0,L|39:120,1,121.000003692627,14|8,0:0|0:0,0:0:0:0:
109,135,77701,1,8,0:0:0:0:
317,232,77801,6,0,P|412:195|351:100,1,242.000007385254,6|8,1:2|0:0,0:0:0:0:
258,96,78401,1,2,3:2:0:0:
83,92,78601,1,2,1:2:0:0:
129,50,78701,1,8,0:0:0:0:
61,58,78801,1,0,3:2:0:0:
245,163,79001,2,0,L|107:186,1,121.000003692627,10|2,0:0|3:2,0:0:0:0:
405,359,79401,6,0,P|505:320|427:246,1,242.000007385254,2|8,1:2|0:0,0:0:0:0:
238,262,80001,1,2,3:2:0:0:
303,256,80101,1,8,0:0:0:0:
132,318,80201,2,0,P|85:298|108:222,1,121.000003692627,2|0,1:2|3:2,0:0:0:0:
304,142,80601,2,0,L|434:125,1,121.000003692627,10|0,0:0|3:2,0:0:0:0:
145,200,81001,6,0,L|138:45,1,121.000003692627,2|0,1:2|3:2,0:0:0:0:
310,62,81301,1,2,0:0:0:0:
246,56,81401,1,8,0:0:0:0:
408,108,81601,1,2,3:2:0:0:
128,348,81801,5,2,1:2:0:0:
58,326,81901,1,8,0:0:0:0:
89,307,82001,1,0,3:2:0:0:
275,300,82101,1,2,0:0:0:0:
205,288,82201,1,8,0:0:0:0:
354,253,82401,1,2,3:2:0:0:
38,359,82601,6,0,L|33:224,1,121.000003692627,6|8,1:2|0:0,0:0:0:0:
95,234,82901,1,8,0:0:0:0:
288,215,83001,1,2,1:2:0:0:
356,206,83101,1,8,0:0:0:0:
178,174,83201,2,0,L|167:38,1,121.000003692627,6|2,1:2|0:0,0:0:0:0:
435,65,83601,6,0,L|47:68,1,366.300008942871,8|6,0:3|1:2,0:0:0:0:
256,192,83901,12,0,88201,0:0:0:0:
