osu file format v14

[General]
AudioFilename: audio.mp3
AudioLeadIn: 0
PreviewTime:51951
Countdown: 0
SampleSet: Soft
StackLeniency: 0.7
Mode: 2
LetterboxInBreaks: 0
WidescreenStoryboard: 1

[Editor]
Bookmarks: 13801
DistanceSpacing: 1
BeatDivisor: 4
GridSize: 16
TimelineZoom: 1.7

[Metadata]
Title:veil (TV Size)
TitleUnicode:veil (TV Size)
Artist:Suda Keina
ArtistUnicode:須田景凪
Creator:muya-
Version:salad
Source:炎炎ノ消防隊
Tags:Fire brigade of flames ending one 1 ed jpop j-pop pop short version force enn en no shouboutai fireforce nun nuns japanese anime balloon バルーン porte secre chickenbible verti chatie phob
BeatmapID:3875706
BeatmapSetID:1881103

[Difficulty]
HPDrainRate:3
CircleSize:3.2
OverallDifficulty:7
ApproachRate:7
SliderMultiplier:1.5
SliderTickRate:1

[Events]
//Background and Video events
0,0,"1027251.jpg",0,0
Video,0,"fire.mp4"
//Break Periods
//Storyboard Layer 0 (Background)
//Storyboard Layer 1 (Fail)
//Storyboard Layer 2 (Pass)
//Storyboard Layer 3 (Foreground)
//Storyboard Layer 4 (Overlay)
//Storyboard Sound Samples

[TimingPoints]
-599,400,4,2,6,40,1,0
1001,400,4,2,6,40,1,0
13801,-100,4,2,1,80,0,0
25001,-100,4,2,4,80,0,0
25101,-100,4,2,1,80,0,0
25801,-100,4,2,2,80,0,0
25901,-100,4,2,1,79,0,0
26001,-100,4,2,1,78,0,0
26101,-100,4,2,2,77,0,0
26201,-100,4,2,1,76,0,0
26301,-100,4,2,2,75,0,0
26401,-100,4,2,2,74,0,0
26501,-100,4,2,3,73,0,0
26601,-100,4,2,1,70,0,0
37801,-100,4,2,1,75,0,0
39401,-100,4,2,10,65,0,0
49001,-100,4,2,10,70,0,0
50601,-100,4,2,1,80,0,0
52001,-100,4,2,1,65,0,0
52201,-90.9090909090909,4,2,1,90,0,1
61801,-90.9090909090909,4,2,2,90,0,1
61901,-90.9090909090909,4,2,1,90,0,1
64201,-90.9090909090909,4,2,2,90,0,1
64301,-90.9090909090909,4,2,1,88,0,1
64401,-90.9090909090909,4,2,1,86,0,1
64501,-90.9090909090909,4,2,2,84,0,1
64601,-90.9090909090909,4,2,1,82,0,0
64701,-90.9090909090909,4,2,2,80,0,0
64801,-90.9090909090909,4,2,2,78,0,0
64901,-90.9090909090909,4,2,3,76,0,0
65001,-90.9090909090909,4,2,1,90,0,1
74601,-90.9090909090909,4,2,2,90,0,1
74701,-90.9090909090909,4,2,1,90,0,1
77401,-90.9090909090909,4,2,1,90,0,0
77801,-90.9090909090909,4,2,3,90,0,1
78001,-90.9090909090909,4,2,1,90,0,1
83201,-90.9090909090909,4,2,4,90,0,1
83401,-90.9090909090909,4,2,1,90,0,0
83601,-90.9090909090909,4,2,2,90,0,0
83801,-90.9090909090909,4,2,3,90,0,1
84201,-90.9090909090909,4,2,3,90,0,0
84601,-90.9090909090909,4,2,3,70,0,0
85401,-90.9090909090909,4,2,3,50,0,0
86201,-90.9090909090909,4,2,3,65,0,0
87001,-90.9090909090909,4,2,3,80,0,0
87801,-90.9090909090909,4,2,3,90,0,0
88201,-90.9090909090909,4,2,3,5,0,0

[Colours]
Combo1 : 237,214,169
Combo2 : 241,181,114
Combo3 : 26,168,29

[HitObjects]
419,202,801,5,2,0:0:0:0:
419,202,1001,2,0,L|242:202,1,150,2|2,1:2|0:2,0:0:0:0:
119,202,1801,1,8,0:2:0:0:
119,202,2001,1,2,1:2:0:0:
194,202,2201,1,2,1:2:0:0:
194,202,2401,1,2,0:0:0:0:
119,202,2601,5,2,0:2:0:0:
268,203,3001,1,2,0:2:0:0:
417,205,3401,2,0,L|418:33,1,150,10|0,0:2|0:0,0:0:0:0:
230,53,4201,5,2,1:2:0:0:
155,53,4401,1,2,1:2:0:0:
189,74,4601,1,2,0:2:0:0:
382,153,5001,1,8,0:2:0:0:
456,154,5201,1,2,1:2:0:0:
456,154,5401,1,2,1:2:0:0:
382,153,5601,1,2,0:0:0:0:
306,156,5801,6,0,L|469:158,2,150,2|2|10,0:2|0:2|0:2,0:0:0:0:
156,156,7001,2,0,L|154:66,1,75,2|0,0:2|0:0,0:0:0:0:
250,71,7401,6,0,P|332:72|317:188,1,225,2|2,1:2|0:2,0:0:0:0:
245,189,8201,1,10,0:2:0:0:
95,195,8601,1,2,1:2:0:0:
20,194,8801,1,2,0:0:0:0:
73,173,9001,6,0,L|305:175,1,225,2|2,0:2|0:0,0:0:0:0:
372,174,9801,1,10,0:2:0:0:
222,172,10201,1,2,0:2:0:0:
414,335,10601,6,0,P|474:298|386:199,1,225,2|2,1:2|0:2,0:0:0:0:
331,193,11401,1,10,0:0:0:0:
256,193,11601,1,2,1:2:0:0:
331,193,11801,1,2,1:2:0:0:
181,193,12201,5,2,1:2:0:0:
199,72,13801,6,0,L|199:222,1,150,6|8,1:2|0:0,0:0:0:0:
280,90,14401,1,2,3:2:0:0:
370,91,14601,1,2,1:2:0:0:
407,89,14701,1,8,0:0:0:0:
392,79,14801,1,2,3:2:0:0:
317,82,15001,2,0,L|228:82,1,75,10|2,0:0|3:2,0:0:0:0:
61,232,15401,6,0,P|14:175|64:130,1,150,2|8,1:2|0:0,0:0:0:0:
133,130,16001,1,2,3:2:0:0:
225,128,16201,1,2,1:2:0:0:
299,127,16401,1,2,3:2:0:0:
216,118,16601,1,10,0:0:0:0:
497,326,17001,6,0,L|492:160,1,150,2|8,1:2|0:0,0:0:0:0:
415,176,17601,1,2,3:2:0:0:
340,174,17801,1,2,1:2:0:0:
303,174,17901,1,8,0:0:0:0:
265,174,18001,1,2,3:2:0:0:
340,174,18201,2,0,L|432:174,1,75,10|2,0:0|3:2,0:0:0:0:
239,229,18601,6,0,L|68:229,1,150,2|8,1:2|0:0,0:0:0:0:
163,227,19201,1,2,3:2:0:0:
50,234,19501,1,2,0:0:0:0:
27,204,19601,1,2,3:2:0:0:
29,166,19701,1,2,0:0:0:0:
58,142,19801,1,10,0:0:0:0:
343,136,20201,6,0,P|402:101|364:30,1,150,2|8,1:2|0:0,0:0:0:0:
303,35,20801,1,2,3:2:0:0:
212,35,21001,1,2,1:2:0:0:
174,34,21101,1,8,0:0:0:0:
191,67,21201,1,2,3:2:0:0:
265,68,21401,2,0,L|354:67,1,75,10|0,0:0|3:2,0:0:0:0:
183,142,21801,6,0,L|55:142,2,112.5,2|2|2,1:2|0:0|3:2,0:0:0:0:
257,136,22601,1,2,1:2:0:0:
257,61,22801,1,2,3:2:0:0:
183,142,23001,1,10,0:0:0:0:
182,216,23201,1,0,3:2:0:0:
346,285,23401,6,0,L|470:285,2,112.5,2|2|2,1:2|0:0|3:2,0:0:0:0:
271,286,24201,1,2,1:2:0:0:
383,285,24501,2,0,L|382:163,1,112.5,2|2,0:0|3:2,0:0:0:0:
213,159,25001,5,6,1:2:0:0:
138,159,25201,1,8,0:0:0:0:
213,159,25401,1,2,1:2:0:0:
250,158,25501,1,8,0:0:0:0:
287,158,25601,1,8,0:0:0:0:
200,140,25801,5,10,2:3:0:0:
132,171,26001,1,10,0:0:0:0:
109,242,26201,1,10,0:0:0:0:
146,306,26401,1,4,0:3:0:0:
316,308,26601,6,0,P|359:254|311:201,1,150,6|10,1:2|0:0,0:0:0:0:
239,193,27201,1,2,3:2:0:0:
164,194,27401,2,0,L|15:192,1,150,2|8,1:2|0:0,0:0:0:0:
200,177,28201,6,0,L|334:176,2,112.5,2|2|2,1:2|0:0|3:2,0:0:0:0:
124,178,29001,2,0,L|124:88,1,75,0|10,1:2|3:2,0:0:0:0:
199,103,29401,1,10,0:0:0:0:
124,103,29601,1,2,3:2:0:0:
289,206,29801,6,0,P|353:275|314:332,1,150,2|10,1:2|0:0,0:0:0:0:
261,323,30401,1,2,3:2:0:0:
186,323,30601,2,0,P|196:240|275:232,1,150,2|10,1:2|0:0,0:0:0:0:
438,198,31401,6,0,L|303:185,2,112.5,2|2|2,1:2|0:0|3:2,0:0:0:0:
494,200,32201,1,0,1:2:0:0:
484,221,32301,1,8,0:0:0:0:
450,216,32401,1,2,3:2:0:0:
375,218,32601,1,10,0:0:0:0:
300,215,32801,1,2,3:2:0:0:
136,216,33001,6,0,L|137:132,1,75,2|2,1:2|3:2,0:0:0:0:
211,142,33401,2,0,L|212:60,1,75,10|0,0:0|3:2,0:0:0:0:
136,141,33801,2,0,P|127:100|225:54,1,150,2|8,1:2|0:0,0:0:0:0:
380,36,34601,6,0,L|525:36,2,112.5,2|2|2,1:2|0:0|3:2,0:0:0:0:
305,34,35401,1,2,1:2:0:0:
267,35,35501,1,8,0:0:0:0:
229,36,35601,1,2,3:2:0:0:
305,34,35801,1,10,0:0:0:0:
379,33,36001,1,2,3:2:0:0:
207,163,36201,6,0,L|206:339,1,150,2|10,1:2|0:0,0:0:0:0:
281,312,36801,1,0,3:2:0:0:
355,311,37001,2,0,L|354:208,1,75,2|0,1:2|3:2,0:0:0:0:
279,229,37401,2,0,L|277:135,1,75,10|2,0:0|3:2,0:0:0:0:
366,166,37801,6,0,P|433:116|413:60,1,150,2|10,1:2|0:0,0:0:0:0:
240,52,38601,1,2,1:2:0:0:
157,53,38801,1,0,3:2:0:0:
112,54,38901,1,8,0:0:0:0:
135,64,39001,1,10,0:0:0:0:
209,81,39201,1,10,0:0:0:0:
378,260,39401,6,0,P|394:210|303:180,1,150,6|10,1:2|3:2,0:0:0:0:
239,177,40001,1,2,0:0:0:0:
164,177,40201,1,10,1:2:0:0:
281,177,40501,1,8,3:2:0:0:
398,177,40801,1,8,3:2:0:0:
323,178,41001,6,0,P|256:133|267:62,1,150,0|10,1:2|3:2,0:0:0:0:
335,62,41601,1,2,0:0:0:0:
409,65,41801,2,0,L|409:181,1,112.5,8|8,1:2|3:2,0:0:0:0:
297,177,42401,1,10,3:2:0:0:
198,170,42601,6,0,P|131:184|91:275,1,150,0|10,1:2|3:2,0:0:0:0:
165,277,43201,1,2,0:0:0:0:
239,278,43401,1,10,1:2:0:0:
239,203,43601,1,2,0:0:0:0:
164,203,43801,1,2,0:0:0:0:
161,128,44001,1,10,3:2:0:0:
253,124,44201,6,0,L|409:124,1,150,2|10,1:2|3:2,0:0:0:0:
403,124,44801,1,2,0:0:0:0:
328,126,45001,2,0,L|71:125,1,225,10|8,1:2|3:2,0:0:0:0:
205,235,45801,6,0,P|269:214|277:128,1,150,0|10,1:2|3:2,0:0:0:0:
121,99,46601,1,10,1:2:0:0:
56,137,46801,1,2,0:0:0:0:
42,210,47001,1,2,0:0:0:0:
96,261,47201,1,10,3:2:0:0:
264,262,47401,6,0,L|440:261,3,150,2|10|10|2,1:2|3:2|1:2|0:0,0:0:0:0:
213,275,49001,6,0,L|121:273,1,75,2|0,1:2|3:2,0:0:0:0:
213,275,49401,2,0,L|303:276,1,75,10|0,3:2|0:0,0:0:0:0:
206,156,49801,2,0,L|81:152,2,112.5,2|8|8,1:2|3:2|3:2,0:0:0:0:
382,217,50601,5,10,0:0:0:0:
428,212,50701,1,8,0:0:0:0:
405,199,50801,1,0,1:2:0:0:
316,195,51001,1,0,1:2:0:0:
228,198,51201,1,10,0:0:0:0:
182,193,51301,1,8,0:0:0:0:
205,180,51401,1,10,0:0:0:0:
287,175,51601,1,0,1:2:0:0:
403,175,52001,1,2,0:0:0:0:
232,176,52201,6,0,L|231:88,1,82.5000025177003,6|0,1:2|3:2,0:0:0:0:
313,90,52601,2,0,L|406:90,1,82.5000025177003,10|0,0:0|3:2,0:0:0:0:
294,101,53001,1,2,1:2:0:0:
254,111,53101,1,8,0:0:0:0:
237,148,53201,1,2,3:2:0:0:
232,230,53401,1,10,0:0:0:0:
284,293,53601,1,2,3:2:0:0:
466,294,53801,6,0,L|465:128,1,165.000005035401,2|10,1:2|0:0,0:0:0:0:
382,131,54401,1,0,3:2:0:0:
299,134,54601,2,0,L|296:-37,1,165.000005035401,2|8,1:2|0:0,0:0:0:0:
299,134,55201,1,2,3:2:0:0:
113,153,55401,6,0,L|24:154,1,82.5000025177003,2|2,1:2|3:2,0:0:0:0:
113,153,55801,2,0,L|195:152,1,82.5000025177003,10|0,0:0|3:2,0:0:0:0:
99,138,56201,1,2,1:2:0:0:
57,138,56301,1,8,0:0:0:0:
74,124,56401,1,2,3:2:0:0:
156,121,56601,1,10,0:0:0:0:
74,124,56801,1,2,3:2:0:0:
251,125,57001,6,0,L|430:127,1,165.000005035401,2|10,1:2|0:0,0:0:0:0:
498,128,57601,1,0,3:2:0:0:
415,126,57801,2,0,L|306:126,2,82.5000025177003,2|0|10,1:2|3:2|0:0,0:0:0:0:
100,255,58601,6,0,P|39:212|96:147,1,165.000005035401,6|8,1:2|0:0,0:0:0:0:
161,147,59201,1,2,3:2:0:0:
243,145,59401,1,2,1:2:0:0:
244,62,59601,1,0,3:2:0:0:
162,64,59801,1,10,0:0:0:0:
159,146,60001,1,2,3:2:0:0:
339,147,60201,6,0,L|503:149,1,165.000005035401,2|10,1:2|0:0,0:0:0:0:
421,145,60801,1,2,3:2:0:0:
339,147,61001,2,0,L|426:145,2,82.5000025177003,2|0|10,1:2|3:2|0:0,0:0:0:0:
29,241,61801,6,0,L|231:240,1,165.000005035401,6|8,1:2|0:0,0:0:0:0:
277,240,62401,1,2,3:2:0:0:
360,242,62601,1,2,1:2:0:0:
277,240,62801,1,2,3:2:0:0:
195,241,63001,1,10,0:2:0:0:
277,240,63201,1,2,3:2:0:0:
462,231,63401,6,0,P|500:212|439:118,1,165.000005035401,2|2,1:2|1:2,0:0:0:0:
428,114,63901,1,8,0:0:0:0:
387,115,64001,1,10,0:0:0:0:
214,117,64201,1,10,0:3:0:0:
173,117,64301,1,8,0:0:0:0:
196,100,64401,1,8,0:0:0:0:
279,96,64601,1,8,0:0:0:0:
362,100,64801,1,6,0:3:0:0:
178,82,65001,6,0,P|121:97|145:188,1,165.000005035401,6|10,1:2|0:0,0:0:0:0:
317,181,65801,1,2,1:2:0:0:
399,181,66001,1,2,3:2:0:0:
482,181,66201,1,10,0:2:0:0:
399,181,66401,1,2,3:2:0:0:
218,194,66601,6,0,P|168:153|235:82,1,165.000005035401,2|10,1:2|0:0,0:0:0:0:
296,82,67201,1,0,3:2:0:0:
378,83,67401,2,0,L|379:259,1,165.000005035401,2|8,1:2|0:0,0:0:0:0:
296,82,68001,1,2,3:2:0:0:
115,205,68201,6,0,L|27:205,1,82.5000025177003,2|0,1:2|3:2,0:0:0:0:
115,205,68601,2,0,L|197:205,1,82.5000025177003,10|0,0:0|3:2,0:0:0:0:
98,194,69001,1,2,1:2:0:0:
57,185,69101,1,8,0:0:0:0:
41,146,69201,1,2,3:2:0:0:
50,64,69401,1,10,0:0:0:0:
119,19,69601,1,2,3:2:0:0:
303,27,69801,6,0,L|302:201,1,165.000005035401,2|10,1:2|0:0,0:0:0:0:
219,192,70401,1,0,3:2:0:0:
136,194,70601,2,0,L|139:300,1,82.5000025177003,2|0,1:2|3:2,0:0:0:0:
220,273,71001,2,0,L|116:277,1,82.5000025177003,10|0,0:0|3:2,0:0:0:0:
319,285,71401,6,0,P|349:225|266:182,1,165.000005035401,6|8,1:2|0:0,0:0:0:0:
197,178,72001,1,2,3:2:0:0:
105,178,72201,1,2,1:2:0:0:
67,161,72301,1,8,0:0:0:0:
60,120,72401,1,0,3:2:0:0:
112,56,72601,1,10,0:0:0:0:
430,301,73001,6,0,P|466:251|381:195,1,165.000005035401,2|8,1:2|0:0,0:0:0:0:
320,145,73601,1,2,3:2:0:0:
402,143,73801,2,0,L|484:144,1,82.5000025177003,2|0,1:2|3:2,0:0:0:0:
429,118,74201,1,10,0:0:0:0:
112,159,74601,6,0,L|305:159,1,165.000005035401,6|8,1:2|0:0,0:0:0:0:
194,158,75201,1,2,3:2:0:0:
112,159,75401,1,2,1:2:0:0:
70,159,75501,1,8,0:0:0:0:
90,141,75601,1,2,3:2:0:0:
172,140,75801,1,10,0:0:0:0:
89,137,76001,1,2,3:2:0:0:
270,83,76201,6,0,P|327:91|323:189,1,165.000005035401,2|10,1:2|0:0,0:0:0:0:
248,188,76801,1,2,3:2:0:0:
165,187,77001,1,2,1:2:0:0:
128,188,77101,1,8,0:0:0:0:
148,199,77201,1,0,3:2:0:0:
321,198,77401,2,0,L|415:198,1,82.5000025177003,14|8,0:0|0:0,0:0:0:0:
228,328,77801,6,0,L|51:330,1,165.000005035401,6|8,1:2|0:0,0:0:0:0:
150,246,78401,1,2,3:2:0:0:
232,246,78601,1,2,1:2:0:0:
273,245,78701,1,8,0:0:0:0:
255,234,78801,1,0,3:2:0:0:
160,230,79001,1,10,0:0:0:0:
156,154,79201,1,2,3:2:0:0:
346,88,79401,6,0,P|415:105|421:193,1,165.000005035401,2|8,1:2|0:0,0:0:0:0:
342,195,80001,1,2,3:2:0:0:
259,195,80201,2,0,L|260:93,1,82.5000025177003,2|0,1:2|3:2,0:0:0:0:
342,195,80601,1,10,0:0:0:0:
38,191,81001,6,0,L|37:49,1,123.75000377655,2|2,1:2|0:0,0:0:0:0:
179,59,81601,1,2,3:2:0:0:
261,60,81801,2,0,L|113:58,2,123.75000377655,2|2|2,1:2|0:0|3:2,0:0:0:0:
438,67,82601,6,0,L|437:161,1,82.5000025177003,6|8,1:2|0:0,0:0:0:0:
395,147,82901,1,8,0:0:0:0:
353,147,83001,1,2,1:2:0:0:
270,150,83201,1,6,1:2:0:0:
270,67,83401,1,2,0:0:0:0:
353,69,83601,1,8,0:3:0:0:
171,81,83801,5,6,1:2:0:0:
256,192,84201,12,0,88201,0:0:0:0:
