osu file format v14

[General]
AudioFilename: audio.mp3
AudioLeadIn: 0
PreviewTime: 51905
Countdown: 0
SampleSet: Soft
StackLeniency: 0.7
Mode: 0
LetterboxInBreaks: 0
WidescreenStoryboard: 1

[Editor]
Bookmarks: 13805,26605,39405,52205,65005,83805
DistanceSpacing: 1.3
BeatDivisor: 4
GridSize: 8
TimelineZoom: 1.62

[Metadata]
Title:veil (TV Size)
TitleUnicode:veil (TV Size)
Artist:Suda Keina
ArtistUnicode:須田景凪
Creator:Gaab
Version:Insane
Source:炎炎ノ消防隊
Tags:fire force fire brigade of flames enen no shouboutai en en no shoubotai ending ed anime
BeatmapID:2187314
BeatmapSetID:1046312

[Difficulty]
HPDrainRate:5
CircleSize:4
OverallDifficulty:7
ApproachRate:8.5
SliderMultiplier:1.6
SliderTickRate:1

[Events]
//Background and Video events
0,0,"bg.jpg",0,0
//Break Periods
//Storyboard Layer 0 (Background)
//Storyboard Layer 1 (Fail)
//Storyboard Layer 2 (Pass)
//Storyboard Layer 3 (Foreground)
//Storyboard Layer 4 (Overlay)
//Storyboard Sound Samples

[TimingPoints]
1006,400,4,2,1,60,1,0
1306,-100,4,2,1,5,0,0
1406,-100,4,2,1,60,0,0
12206,-133.333333333333,4,2,1,60,0,0
12806,-100,4,2,1,60,0,0
13806,-100,4,2,1,60,0,0
25106,-100,4,2,1,45,0,0
25406,-100,4,2,1,60,0,0
25506,-100,4,2,1,45,0,0
25806,-100,4,2,1,60,0,0
25906,-100,4,2,1,45,0,0
26206,-100,4,2,1,60,0,0
49306,-100,4,2,1,5,0,0
49406,-100,4,2,1,60,0,0
49706,-100,4,2,1,5,0,0
49806,-100,4,2,1,60,0,0
50106,-100,4,2,1,5,0,0
50206,-100,4,2,1,60,0,0
50506,-100,4,2,1,5,0,0
50606,-100,4,2,1,60,0,0
52206,-100,4,2,1,80,0,1
54106,-100,4,2,1,5,0,1
54206,-100,4,2,1,80,0,1
54506,-100,4,2,1,5,0,1
54606,-100,4,2,1,80,0,1
57306,-100,4,2,1,5,0,1
57406,-100,4,2,1,80,0,1
57706,-100,4,2,1,5,0,1
57806,-100,4,2,1,80,0,1
63406,-100,4,2,1,60,0,0
64306,-100,4,2,1,45,0,0
64606,-100,4,2,1,60,0,0
64706,-100,4,2,1,45,0,0
65006,-100,4,2,1,80,0,1
66906,-100,4,2,1,5,0,1
67006,-100,4,2,1,80,0,1
67306,-100,4,2,1,5,0,1
67406,-100,4,2,1,80,0,1
70106,-100,4,2,1,5,0,1
70206,-100,4,2,1,80,0,1
70506,-100,4,2,1,5,0,1
70606,-100,4,2,1,80,0,1
81206,-100,4,2,1,5,0,1
81306,-100,4,2,1,80,0,1
82006,-100,4,2,1,5,0,1
82106,-100,4,2,1,80,0,1
82606,-100,4,2,1,60,0,0
84206,-100,4,2,1,40,0,0
85206,-100,4,2,1,20,0,0
86206,-100,4,2,1,30,0,0
87206,-100,4,2,1,50,0,0
88206,-100,4,2,1,5,0,0

[Colours]
Combo1 : 0,183,236
Combo2 : 255,128,64
Combo3 : 18,124,255
Combo4 : 230,0,86
Combo5 : 255,213,85

[HitObjects]
28,198,806,5,2,0:0:0:0:
111,249,1006,2,0,P|171:256|219:220,1,120,2|0,3:2|0:0,0:0:0:0:
226,204,1406,2,0,L|208:95,1,80,2|0,0:0|0:0,0:0:0:0:
248,39,1806,2,0,P|283:50|310:87,1,80,10|2,0:0|0:0,0:0:0:0:
344,227,2206,2,0,P|333:183|346:140,1,80,2|2,3:2|0:0,0:0:0:0:
382,86,2606,6,0,P|469:63|519:-9,2,160,2|2|8,0:0|0:0|0:0,0:0:0:0:
257,44,4006,1,2,0:0:0:0:
257,44,4206,6,0,L|237:123,1,80,2|2,3:2|0:0,0:0:0:0:
181,215,4606,2,0,P|134:159|134:109,1,120,2|0,0:0|0:0,0:0:0:0:
141,90,5006,2,0,P|100:122|67:122,1,80,10|2,0:0|0:0,0:0:0:0:
71,32,5406,1,2,3:2:0:0:
13,176,5606,1,2,0:0:0:0:
214,137,5806,6,0,P|279:175|379:143,2,160,2|2|8,0:0|0:0|0:0,0:0:0:0:
286,257,7006,1,2,0:0:0:0:
303,246,7106,1,2,0:3:0:0:
324,240,7206,1,2,0:3:0:0:
344,241,7306,1,2,0:3:0:0:
364,247,7406,5,2,3:0:0:0:
478,133,8006,1,2,0:0:0:0:
478,133,8206,2,0,P|440:86|448:30,1,120,10|0,0:0|0:0,0:0:0:0:
434,20,8606,2,0,P|397:20|357:40,1,80,2|2,3:2|0:0,0:0:0:0:
314,182,9006,6,0,P|264:226|271:123,1,240,2|2,0:0|0:0,0:0:0:0:
346,110,9806,1,10,0:0:0:0:
443,274,10206,1,2,0:0:0:0:
443,274,10606,6,0,B|383:319|383:319|287:300,1,160,2|2,3:2|0:3,0:0:0:0:
215,255,11206,1,2,0:0:0:0:
296,184,11406,2,0,P|325:160|372:158,1,80,10|2,0:0|0:0,0:0:0:0:
357,231,11806,1,2,0:0:0:0:
284,97,12006,1,2,3:2:0:0:
480,150,12206,6,0,P|491:89|473:33,1,120.000004577637,2|2,3:2|0:0,0:0:0:0:
398,0,12806,2,0,P|384:38|394:80,1,80,2|2,0:0|0:0,0:0:0:0:
304,346,13806,6,0,P|317:306|300:252,1,80,2|0,3:2|0:0,0:0:0:0:
294,244,14106,1,2,0:0:0:0:
294,244,14206,1,8,0:0:0:0:
201,161,14406,2,0,L|215:242,1,80,2|0,0:0|3:0,0:0:0:0:
335,156,14806,2,0,L|322:76,1,80,2|8,0:0|0:0,0:0:0:0:
235,13,15206,1,0,0:0:0:0:
127,60,15406,6,0,P|113:96|114:138,1,80,2|0,3:2|0:0,0:0:0:0:
121,171,15706,1,2,0:0:0:0:
121,171,15806,1,8,0:0:0:0:
72,282,16006,2,0,L|42:197,1,80,2|0,0:0|3:0,0:0:0:0:
144,329,16406,2,0,P|110:358|61:362,1,80,2|8,0:0|0:0,0:0:0:0:
158,246,16806,1,0,0:0:0:0:
278,324,17006,6,0,L|382:341,1,80,2|0,3:2|0:0,0:0:0:0:
393,327,17306,1,2,0:0:0:0:
393,327,17406,1,8,0:0:0:0:
467,173,17606,2,0,P|426:129|382:128,1,80,2|0,0:0|3:0,0:0:0:0:
312,235,18006,2,0,P|356:233|384:207,1,80,2|8,0:0|0:0,0:0:0:0:
316,145,18406,1,2,0:0:0:0:
190,38,18606,6,0,L|201:134,1,80,2|0,3:2|0:0,0:0:0:0:
220,151,18906,1,2,0:0:0:0:
220,151,19006,1,8,0:0:0:0:
223,349,19206,1,2,0:0:0:0:
120,239,19406,1,2,3:2:0:0:
120,239,19506,1,2,0:0:0:0:
120,239,19606,1,2,0:0:0:0:
291,291,19806,2,0,P|316:250|310:200,1,80,10|0,0:0|0:0,0:0:0:0:
288,104,20206,6,0,P|314:139|358:147,1,80,2|0,3:2|0:0,0:0:0:0:
387,146,20506,1,2,0:0:0:0:
387,146,20606,1,8,0:0:0:0:
398,20,20806,1,2,0:0:0:0:
508,203,21006,1,2,3:0:0:0:
490,46,21206,1,2,0:0:0:0:
363,221,21406,2,0,P|370:267|398:298,1,80,10|0,0:0|0:0,0:0:0:0:
288,104,21806,6,0,P|280:57|252:26,1,80,2|0,3:2|0:0,0:0:0:0:
231,23,22106,1,2,0:0:0:0:
231,23,22206,1,8,0:0:0:0:
221,258,22406,1,2,0:0:0:0:
210,96,22606,1,2,3:0:0:0:
309,201,22806,1,2,0:0:0:0:
103,320,23006,2,0,P|74:291|69:243,1,80,10|0,0:0|0:0,0:0:0:0:
133,125,23406,6,0,L|145:251,2,120,2|0|0,3:2|0:0|0:0,0:0:0:0:
204,67,24206,2,0,B|263:35|265:85|343:35,2,120,2|0|0,3:2|0:0|0:0,0:0:0:0:
70,25,25006,6,0,L|64:74,3,40,2|8|8|8,3:2|0:0|0:0|0:0,0:0:0:0:
72,121,25406,1,0,3:0:0:0:
72,121,25506,1,8,0:0:0:0:
72,121,25606,1,8,0:0:0:0:
72,121,25706,1,8,0:0:0:0:
72,121,25806,2,0,L|66:170,3,40,2|8|8|8,3:2|0:0|0:0|0:0,0:0:0:0:
61,217,26206,1,10,0:0:0:0:
80,222,26306,1,8,3:0:0:0:
98,230,26406,1,4,3:0:0:0:
114,242,26506,1,4,3:0:0:0:
129,255,26606,6,0,P|167:233|231:241,1,80,2|0,3:2|0:0,0:0:0:0:
360,320,27006,1,10,0:0:0:0:
248,321,27206,1,2,0:0:0:0:
419,235,27406,2,0,P|452:169|428:89,1,160,2|8,3:2|0:0,0:0:0:0:
343,31,28006,1,2,0:0:0:0:
275,99,28206,6,0,P|224:126|146:107,2,120,2|0|0,3:2|0:0|0:0,0:0:0:0:
209,52,29006,1,2,3:2:0:0:
102,76,29206,2,0,P|87:118|99:155,2,80,2|8|0,0:0|0:0|0:0,0:0:0:0:
12,172,29806,6,0,P|36:255|1:319,1,160,2|8,3:0|0:0,0:0:0:0:
70,383,30406,1,2,0:0:0:0:
173,367,30606,2,0,P|234:375|272:267,1,160,2|8,3:2|0:0,0:0:0:0:
217,180,31206,1,2,0:0:0:0:
217,180,31406,6,0,L|209:307,2,120,2|0|0,3:0|0:0|0:0,0:0:0:0:
133,95,32206,1,2,3:2:0:0:
127,105,32306,1,0,0:0:0:0:
122,116,32406,2,0,L|117:200,2,80,2|8|0,0:0|0:0|0:0,0:0:0:0:
225,64,33006,6,0,P|273:49|312:61,1,80,2|0,3:2|0:0,0:0:0:0:
379,187,33406,2,0,P|362:141|371:102,1,80,10|0,0:0|0:0,0:0:0:0:
393,28,33806,1,2,3:2:0:0:
332,266,34206,1,10,0:0:0:0:
332,266,34406,1,2,0:0:0:0:
274,327,34606,6,0,P|215:348|162:315,2,120,2|0|0,3:2|0:0|0:0,0:0:0:0:
213,129,35606,2,0,P|246:204|204:293,1,160,2|0,0:0|0:0,0:0:0:0:
120,328,36206,6,0,L|35:319,1,80,2|0,3:2|0:0,0:0:0:0:
0,224,36606,2,0,L|85:215,1,80,10|0,0:0|0:0,0:0:0:0:
213,129,37006,2,0,L|128:120,1,80,2|0,3:2|0:0,0:0:0:0:
93,25,37406,2,0,L|178:16,1,80,10|0,0:0|0:0,0:0:0:0:
300,2,37806,5,2,3:2:0:0:
441,76,38206,2,0,B|464:153|403:150|441:244,1,160,10|0,0:0|3:0,0:0:0:0:
479,333,38806,1,0,0:0:0:0:
441,347,38906,1,8,0:0:0:0:
403,332,39006,1,2,3:2:0:0:
285,241,39206,1,8,0:0:0:0:
285,281,39306,1,0,0:0:0:0:
258,312,39406,5,2,3:2:0:0:
37,101,39806,2,0,P|25:62|51:1,2,80,2|0|0,0:0|0:0|3:0,0:0:0:0:
98,150,40406,1,2,0:0:0:0:
161,206,40606,2,0,P|178:263|140:353,1,160,2|0,0:0|3:0,0:0:0:0:
178,129,41406,6,0,P|221:135|276:105,1,80
324,81,41806,1,0,0:0:0:0:
369,0,42006,1,2,0:0:0:0:
324,81,42206,1,2,0:0:0:0:
364,163,42406,1,2,0:0:0:0:
167,285,42606,5,2,3:2:0:0:
167,285,43006,2,0,L|71:296,1,80,2|0,0:0|0:0,0:0:0:0:
0,273,43406,2,0,P|21:232|62:208,1,80,2|0,3:2|0:0,0:0:0:0:
181,147,43806,2,0,P|160:188|119:212,1,80,2|0,0:0|0:0,0:0:0:0:
4,141,44206,6,0,P|41:127|80:133,1,80,2|0,3:2|0:0,0:0:0:0:
167,285,44606,1,2,0:0:0:0:
48,212,44806,1,2,0:0:0:0:
181,147,45006,1,2,3:2:0:0:
290,9,45806,5,0,3:0:0:0:
290,9,46206,2,0,P|312:57|287:122,1,120,2|0,0:0|0:0,0:0:0:0:
270,142,46606,2,0,P|254:182|268:222,1,80,2|0,3:2|0:0,0:0:0:0:
340,180,47006,1,2,0:0:0:0:
227,66,47206,1,2,0:0:0:0:
69,225,47406,5,2,3:2:0:0:
156,106,47806,1,2,0:0:0:0:
263,216,48206,1,2,3:2:0:0:
339,96,48606,1,2,0:0:0:0:
387,287,49006,6,0,P|352:240|364:167,1,120,2|0,3:2|0:0,0:0:0:0:
355,181,49406,2,0,P|358:239|323:286,1,120,2|0,0:0|0:0,0:0:0:0:
253,270,49806,6,0,P|206:305|133:293,1,120,2|0,3:2|0:0,0:0:0:0:
147,302,50206,2,0,P|205:298|252:333,1,120,2|0,0:0|0:0,0:0:0:0:
270,357,50606,5,10,0:0:0:0:
270,357,50706,1,8,0:0:0:0:
270,357,50806,1,0,3:0:0:0:
178,222,51006,1,0,3:0:0:0:
323,286,51206,1,10,0:0:0:0:
323,286,51306,1,8,0:0:0:0:
323,286,51406,1,10,0:0:0:0:
71,324,51606,1,0,3:0:0:0:
181,127,52006,5,2,0:0:0:0:
181,127,52206,2,0,P|239:108|288:131,1,80,2|0,3:2|0:0,0:0:0:0:
324,291,52606,2,0,P|267:268|244:219,1,80,2|0,0:0|0:0,0:0:0:0:
400,104,53006,2,0,P|377:160|328:183,2,80,2|0|0,3:2|0:0|0:0,0:0:0:0:
300,0,53606,1,2,0:0:0:0:
209,114,53806,6,0,L|204:245,1,120,2|0,3:2|0:0,0:0:0:0:
168,268,54206,2,0,L|172:148,1,120,10|0,0:0|0:0,0:0:0:0:
161,115,54606,2,0,P|117:99|69:117,1,80,2|0,3:0|0:0,0:0:0:0:
0,170,55006,1,8,0:0:0:0:
166,35,55206,1,2,0:0:0:0:
166,35,55406,6,0,L|160:114,1,80,2|0,3:2|0:0,0:0:0:0:
168,268,55806,2,0,L|172:179,1,80,10|0,0:0|0:0,0:0:0:0:
235,137,56206,2,0,P|271:110|333:109,1,80,2|0,3:2|0:0,0:0:0:0:
415,10,56606,2,0,P|422:53|394:109,1,80,10|0,0:0|0:0,0:0:0:0:
455,259,57006,6,0,P|400:235|374:165,1,120,2|0,3:2|0:0,0:0:0:0:
374,181,57406,2,0,P|405:228|398:286,1,120,10|0,0:0|0:0,0:0:0:0:
372,314,57806,1,2,3:2:0:0:
287,129,58206,2,0,P|244:118|194:150,1,80,10|0,0:0|0:0,0:0:0:0:
124,229,58606,6,0,P|178:255|252:198,1,160,2|8,3:2|0:0,0:0:0:0:
148,57,59206,1,2,0:0:0:0:
59,167,59406,2,0,P|33:207|39:257,1,80,2|0,3:2|0:0,0:0:0:0:
108,384,59806,1,10,0:0:0:0:
232,296,60006,1,2,0:0:0:0:
378,380,60206,6,0,B|343:290|417:307|361:202,1,160,2|8,3:2|0:0,0:0:0:0:
338,64,60806,1,2,0:0:0:0:
221,144,61006,2,0,P|212:183|221:221,1,80,2|0,3:2|0:0,0:0:0:0:
331,306,61406,2,0,P|340:267|331:229,1,80,10|0,0:0|0:0,0:0:0:0:
255,61,61806,6,0,B|192:61|192:61|161:78|161:78|98:78,1,160,2|8,3:2|0:0,0:0:0:0:
18,169,62406,2,0,P|9:206|16:248,1,80,2|0,0:0|3:0,0:0:0:0:
175,365,62806,1,2,0:0:0:0:
57,328,63006,1,10,0:0:0:0:
232,294,63206,1,2,0:0:0:0:
135,262,63406,6,0,L|130:216,3,40,2|0|0|0,3:2|0:0|0:0|0:0,0:0:0:0:
128,195,63806,1,0,3:2:0:0:
125,175,63906,1,0,0:0:0:0:
125,155,64006,1,0,0:0:0:0:
127,135,64106,1,0,0:0:0:0:
129,115,64206,2,0,L|137:65,3,40,0|8|8|8,3:0|0:0|0:0|0:0,0:0:0:0:
142,56,64606,1,0,3:0:0:0:
167,45,64706,1,8,0:0:0:0:
195,39,64806,1,8,0:0:0:0:
223,40,64906,1,8,0:0:0:0:
250,48,65006,6,0,P|305:59|338:40,1,80,6|0,3:2|0:0,0:0:0:0:
469,162,65406,2,0,P|414:151|381:170,1,80,10|0,0:0|0:0,0:0:0:0:
276,214,65806,2,0,P|265:159|284:126,2,80,2|0|8,3:2|0:0|0:0,0:0:0:0:
372,323,66406,1,2,0:0:0:0:
248,371,66606,6,0,B|191:357|188:405|115:369,1,120,2|0,3:2|0:0,0:0:0:0:
116,335,67006,2,0,B|172:363|175:315|232:329,1,120,10|0,0:0|0:0,0:0:0:0:
265,342,67406,2,0,P|280:305|271:261,1,80,2|0,3:2|0:0,0:0:0:0:
184,195,67806,1,10,0:0:0:0:
79,248,68006,1,2,0:0:0:0:
79,248,68206,6,0,P|70:193|89:160,1,80,2|0,3:2|0:0,0:0:0:0:
213,77,68606,2,0,P|172:112|138:110,1,80,10|0,0:0|0:0,0:0:0:0:
66,80,69006,2,0,P|44:51|-3:42,2,80,2|0|8,3:2|0:0|0:0,0:0:0:0:
186,196,69606,1,2,0:0:0:0:
274,123,69806,6,0,B|324:123|324:123|348:131|348:131|413:131,1,120,2|0,3:2|0:0,0:0:0:0:
425,170,70206,2,0,B|380:170|380:170|356:162|356:162|306:162,1,120,10|0,0:0|0:0,0:0:0:0:
272,173,70606,2,0,P|256:214|270:259,1,80,2|0,3:2|0:0,0:0:0:0:
396,369,71006,2,0,P|368:334|313:331,1,80,10|0,0:0|0:0,0:0:0:0:
195,317,71406,6,0,B|119:290|112:359|35:331,1,160,2|8,3:2|0:0,0:0:0:0:
0,193,72006,1,2,0:0:0:0:
122,120,72206,2,0,P|180:111|216:129,1,80,2|0,3:2|0:0,0:0:0:0:
263,172,72606,2,0,L|269:282,1,80,10|0,0:0|0:0,0:0:0:0:
334,124,73006,6,0,B|366:108|381:62|381:62|390:112|436:143,1,160,2|8,3:2|0:0,0:0:0:0:
498,220,73606,1,2,0:0:0:0:
421,309,73806,2,0,P|363:318|327:300,1,80,2|0,3:2|0:0,0:0:0:0:
267,251,74206,2,0,L|263:172,1,80,8|0,0:0|0:0,0:0:0:0:
220,84,74606,6,0,B|156:84|156:84|132:100|132:100|52:100,1,160,2|8,3:2|0:0,0:0:0:0:
101,10,75206,1,2,0:0:0:0:
188,163,75406,2,0,L|192:242,1,80,2|0,3:2|0:0,0:0:0:0:
232,337,75806,2,0,P|270:303|277:260,1,80,10|0,0:0|0:0,0:0:0:0:
279,161,76206,6,0,P|311:195|358:196,1,80,2|0,3:2|0:0,0:0:0:0:
489,172,76606,1,10,0:0:0:0:
355,107,76806,1,2,0:0:0:0:
429,260,77006,1,2,3:2:0:0:
429,260,77206,1,2,0:0:0:0:
365,363,77406,2,0,P|321:376|265:356,1,80,10|8,0:0|0:0,0:0:0:0:
206,320,77806,6,0,B|169:242|241:230|194:143,1,160,6|8,3:2|0:0,0:0:0:0:
148,46,78406,1,2,0:0:0:0:
54,126,78606,2,0,P|41:166|54:215,1,80,2|0,3:2|0:0,0:0:0:0:
0,330,79006,2,0,P|60:317|78:290,1,80,10|0,0:0|0:0,0:0:0:0:
150,238,79406,6,0,P|233:257|290:215,1,160,2|8,3:2|0:0,0:0:0:0:
327,57,80006,1,2,0:0:0:0:
209,82,80206,2,0,P|198:130|208:170,1,80,2|0,3:2|0:0,0:0:0:0:
289,215,80606,2,0,L|369:231,1,80,10|0,0:0|0:0,0:0:0:0:
455,184,81006,6,0,P|470:134|453:87,1,80,2|0,3:2|0:0,0:0:0:0:
438,67,81306,2,0,P|385:47|305:75,1,120,2|0,0:0|0:0,0:0:0:0:
139,93,81806,2,0,P|124:143|141:190,1,80,2|0,3:2|0:0,0:0:0:0:
156,210,82106,2,0,P|209:230|289:202,1,120,2|0,0:0|0:0,0:0:0:0:
371,193,82606,5,10,0:0:0:0:
273,86,82806,2,0,L|240:115,2,40,8|8|8,0:0|0:0|0:0,0:0:0:0:
89,249,83206,1,2,0:0:0:0:
228,127,83406,1,14,0:0:0:0:
80,102,83606,1,0,3:0:0:0:
250,292,83806,5,0,0:0:0:0:
256,192,83906,12,0,88206,0:0:0:0:
