osu file format v14

[General]
AudioFilename: audio.mp3
AudioLeadIn: 0
PreviewTime: 52100
Countdown: 0
SampleSet: Soft
StackLeniency: 0.4
Mode: 0
LetterboxInBreaks: 0
WidescreenStoryboard: 1

[Editor]
Bookmarks: 39500,103500
DistanceSpacing: 1
BeatDivisor: 4
GridSize: 8
TimelineZoom: 1.4

[Metadata]
Title:veil
TitleUnicode:veil
Artist:Suda Keina
ArtistUnicode:須田景凪
Creator:Dogerinoo
Version:Mocaotic's Normal
Source:炎炎ノ消防隊
Tags:balloon バルーン porte Fire brigade of flames ending one 1 ed full version fire force en en no shouboutai Mocaotic SkyFlame
BeatmapID:2151959
BeatmapSetID:1015516

[Difficulty]
HPDrainRate:4
CircleSize:3.5
OverallDifficulty:4
ApproachRate:5
SliderMultiplier:1.1
SliderTickRate:1

[Events]
//Background and Video events
0,0,"Screenshot (87).png",0,0
//Break Periods
2,145377,155177
//Storyboard Layer 0 (Background)
//Storyboard Layer 1 (Fail)
//Storyboard Layer 2 (Pass)
//Storyboard Layer 3 (Foreground)
//Storyboard Layer 4 (Overlay)
//Storyboard Sound Samples

[TimingPoints]
1177,400,4,2,1,35,1,0
1177,-125,4,2,1,35,0,0
13977,-100,4,2,1,50,0,0
26777,-100,4,2,1,45,0,0
39577,-111.111111111111,4,2,1,35,0,0
52377,-90.9090909090909,4,2,1,75,0,1
63577,-90.9090909090909,4,2,1,70,0,0
65177,-90.9090909090909,4,2,1,75,0,1
77577,-90.9090909090909,4,2,1,50,0,0
77977,-100,4,2,1,50,0,0
90777,-100,4,2,1,45,0,0
103577,-111.111111111111,4,2,1,35,0,0
116377,-100,4,2,1,30,0,0
117977,-100,4,2,1,40,0,0
118377,-100,4,2,1,60,0,0
118777,-100,4,2,1,80,0,0
119577,-90.9090909090909,4,2,1,75,0,1
130777,-90.9090909090909,4,2,1,70,0,0
132377,-90.9090909090909,4,2,1,75,0,1
144777,-100,4,2,1,70,0,0
145177,-100,4,2,1,30,0,0
156377,-111.111111111111,4,2,1,45,0,0
156777,-111.111111111111,4,2,1,50,0,0
157177,-111.111111111111,4,2,1,55,0,0
157977,-111.111111111111,4,2,1,35,0,0
166777,-111.111111111111,4,2,1,38,0,0
170777,-90.9090909090909,4,2,1,75,0,1
181977,-90.9090909090909,4,2,1,70,0,0
183577,-90.9090909090909,4,2,1,75,0,1
201177,-90.9090909090909,4,2,1,70,0,0
202377,-100,4,2,1,50,0,0

[Colours]
Combo1 : 0,128,64
Combo2 : 253,181,72
Combo3 : 192,192,192
Combo4 : 255,193,164
Combo5 : 193,208,13

[HitObjects]
349,28,1177,6,0,P|392:10|445:18,2,88,4|0|8,3:0|0:0|0:0,0:0:0:0:
298,100,2377,2,0,B|246:156|304:259|385:235|385:235|414:193,1,264,0|8,3:0|0:0,0:0:0:0:
417,369,4377,2,0,P|463:357|516:372,2,88,4|0|8,3:0|0:0|0:0,0:0:0:0:
344,319,5577,2,0,B|289:326|257:371|257:371|166:383|112:305,1,264,0|8,3:0|0:0,0:0:0:0:
55,147,7577,6,0,L|50:46,2,88,4|0|8,3:0|0:0|0:0,0:0:0:0:
130,192,8777,2,0,P|166:200|160:49,1,264,0|8,3:0|0:0,0:0:0:0:
37,163,10777,2,0,P|16:202|19:250,2,88,4|0|8,3:0|0:0|0:0,0:0:0:0:
106,109,11977,1,0,3:0:0:0:
193,109,12377,5,4,3:0:0:0:
193,109,13977,6,0,P|126:95|86:115,1,110,4|8,3:0|0:0,0:0:0:0:
53,152,14577,1,0,0:0:0:0:
53,152,14777,2,0,L|56:227,1,55,0|2,3:0|0:0,0:0:0:0:
57,261,15177,1,8,0:0:0:0:
140,332,15577,6,0,B|171:310|171:310|261:303,1,110,4|8,3:0|0:0,0:0:0:0:
297,301,16177,1,0,0:0:0:0:
297,301,16377,2,0,P|336:288|358:260,2,55,0|0|8,3:0|0:0|0:0,0:0:0:0:
219,222,17177,6,0,P|201:160|222:110,1,110,4|8,3:0|0:0,0:0:0:0:
257,82,17777,1,0,0:0:0:0:
257,82,17977,2,0,L|317:78,1,55,0|2,3:0|0:0,0:0:0:0:
367,74,18377,1,8,0:0:0:0:
461,130,18777,6,0,L|454:243,1,110,4|8,3:0|0:0,0:0:0:0:
429,288,19377,2,0,P|391:272|319:286,1,110,0|0,0:0|0:0,0:0:0:0:
281,316,19977,1,8,0:0:0:0:
188,375,20377,6,0,P|135:387|83:369,1,110,4|8,3:0|0:0,0:0:0:0:
57,326,20977,1,0,0:0:0:0:
57,326,21177,2,0,L|-21:336,2,55,0|2|8,3:0|0:0|0:0,0:0:0:0:
113,231,21977,6,0,P|165:218|217:236,1,110,4|8,3:0|0:0,0:0:0:0:
263,277,22577,1,0,0:0:0:0:
263,277,22777,2,0,L|252:354,2,55,0|0|8,3:0|0:0|0:0,0:0:0:0:
341,199,23577,6,0,B|336:153|336:153|351:100,2,82.5,4|0|0,3:0|0:0|0:0,0:0:0:0:
383,233,24377,2,0,B|388:279|388:279|372:331,2,82.5,0|0|2,3:0|0:0|0:0,0:0:0:0:
427,200,25177,6,0,L|432:124,1,55,4|0,3:0|0:0,0:0:0:0:
435,90,25577,1,4,3:0:0:0:
352,17,25977,2,0,L|276:12,1,55,0|0,3:0|0:0,0:0:0:0:
242,9,26377,1,0,3:0:0:0:
140,50,26777,6,0,P|170:92|166:155,1,110,4|8,3:0|0:0,0:0:0:0:
136,193,27377,1,0,0:0:0:0:
136,193,27577,2,0,P|85:172|33:186,1,110,0|8,3:0|0:0,0:0:0:0:
0,230,28177,1,0,0:0:0:0:
0,230,28377,6,0,L|13:336,2,82.5,4|0|0,3:0|0:0|0:0,0:0:0:0:
14,120,29377,1,2,0:0:0:0:
14,120,29577,2,0,L|85:105,1,55,8|2,0:0|0:0,0:0:0:0:
125,106,29977,6,0,P|157:151|149:226,1,110,4|8,3:0|0:0,0:0:0:0:
169,258,30577,1,0,0:0:0:0:
169,258,30777,2,0,P|214:287|268:287,1,110,0|8,3:0|0:0,0:0:0:0:
317,263,31377,1,0,0:0:0:0:
317,263,31577,6,0,B|337:246|337:246|416:235,2,82.5,4|0|0,3:0|0:0|0:0,0:0:0:0:
242,181,32577,1,2,0:0:0:0:
242,181,32777,2,0,L|247:104,1,55,8|2,0:0|0:0,0:0:0:0:
252,73,33177,6,0,L|329:68,1,55,4|0,3:0|0:0,0:0:0:0:
362,66,33577,1,8,0:0:0:0:
430,152,33977,2,0,B|345:159|345:159|319:181,1,110,0|8,3:0|0:0,0:0:0:0:
300,223,34577,1,0,0:0:0:0:
300,223,34777,6,0,L|198:216,2,82.5,4|0|0,3:0|0:0|0:0,0:0:0:0:
396,276,35777,2,0,P|403:333|354:381,1,110,2|2,0:0|0:0,0:0:0:0:
317,378,36377,5,4,3:0:0:0:
210,352,36777,1,8,0:0:0:0:
236,245,37177,1,0,3:0:0:0:
343,271,37577,1,8,0:0:0:0:
432,334,37977,6,0,P|453:293|445:227,1,110,4|8,3:0|0:0,0:0:0:0:
357,166,38777,2,0,L|283:162,2,55,0|2|8,3:0|0:0|0:0,0:0:0:0:
406,142,39377,1,2,0:0:0:0:
406,142,39577,5,0,3:0:0:0:
447,52,39977,2,0,L|510:48,2,49.4999984893799,2|0|2,0:0|0:0|0:0,0:0:0:0:
410,29,40577,1,0,0:0:0:0:
410,29,40777,1,0,0:0:0:0:
312,14,41177,5,0,3:0:0:0:
225,61,41577,1,2,0:0:0:0:
225,61,41777,2,0,P|243:96|228:172,1,98.9999969787599,0|0,0:0|0:0,0:0:0:0:
196,181,42377,2,0,L|127:179,1,49.4999984893799,0|2,0:0|0:0,0:0:0:0:
97,177,42777,5,0,3:0:0:0:
33,100,43177,2,0,L|21:35,2,49.4999984893799,2|0|2,0:0|0:0|0:0,0:0:0:0:
82,98,43777,1,0,0:0:0:0:
82,98,43977,1,0,0:0:0:0:
179,113,44377,6,0,P|200:164|194:218,1,98.9999969787599,0|2,3:0|0:0,0:0:0:0:
186,255,44977,1,0,0:0:0:0:
186,255,45177,2,0,P|137:234|88:252,1,98.9999969787599,2|0,0:0|0:0,0:0:0:0:
17,338,45977,5,4,3:0:0:0:
110,370,46377,2,0,P|161:382|207:355,1,98.9999969787599,2|2,0:0|0:0,0:0:0:0:
229,322,46977,1,0,0:0:0:0:
229,322,47177,2,0,L|223:257,1,49.4999984893799,0|2,0:0|0:0,0:0:0:0:
247,228,47577,5,0,3:0:0:0:
345,234,47977,1,2,0:0:0:0:
443,240,48377,1,2,0:0:0:0:
389,322,48777,1,0,0:0:0:0:
345,234,49177,6,0,L|341:125,1,98.9999969787599,0|2,3:0|0:0,0:0:0:0:
439,119,49977,2,0,L|435:228,1,98.9999969787599,2|0,0:0|0:0,0:0:0:0:
460,313,50777,6,0,L|521:307,2,49.4999984893799,0|0|8,3:0|0:0|0:0,0:0:0:0:
415,336,51377,1,8,0:0:0:0:
415,336,51577,2,0,L|354:330,1,49.4999984893799,0|10,0:0|0:0,0:0:0:0:
186,300,52377,6,0,P|174:262|177:221,1,60.5000018463135,4|0,3:2|0:0,0:0:0:0:
184,182,52777,1,8,0:0:0:0:
242,166,52977,2,0,L|374:157,1,121.000003692627,2|2,0:0|0:0,0:0:0:0:
406,199,53577,2,0,L|416:287,1,60.5000018463135,8|2,0:0|0:0,0:0:0:0:
400,317,53977,6,0,P|365:335|281:321,2,121.000003692627,4|10|2,3:0|0:0|3:0,0:0:0:0:
477,221,55177,2,0,L|482:143,1,60.5000018463135,8|0,0:0|0:0,0:0:0:0:
459,103,55577,6,0,P|425:94|387:104,1,60.5000018463135,4|2,3:0|0:0,0:0:0:0:
349,132,55977,1,8,0:0:0:0:
303,171,56177,2,0,P|240:182|174:149,1,121.000003692627,0|2,0:0|0:0,0:0:0:0:
150,114,56777,2,0,L|155:48,1,60.5000018463135,8|2,0:0|0:0,0:0:0:0:
117,5,57177,5,4,3:0:0:0:
12,65,57577,1,10,0:0:0:0:
12,186,57977,1,0,3:0:0:0:
117,247,58377,1,8,0:0:0:0:
225,193,58777,6,0,P|266:166|341:172,1,121.000003692627,4|8,3:2|0:0,0:0:0:0:
389,204,59377,1,2,0:0:0:0:
389,204,59577,1,0,3:0:0:0:
489,136,59977,2,0,L|499:47,1,60.5000018463135,8|2,0:0|0:0,0:0:0:0:
469,21,60377,6,0,P|413:5|351:26,1,121.000003692627,4|8,3:0|0:0,0:0:0:0:
320,73,60977,1,0,0:0:0:0:
277,116,61177,2,0,B|243:140|243:140|152:132,1,121.000003692627,0|8,3:0|0:0,0:0:0:0:
45,159,61977,6,0,P|72:200|53:275,1,121.000003692627,4|8,3:0|0:0,0:0:0:0:
27,319,62577,1,2,0:0:0:0:
69,361,62777,2,0,L|142:359,1,60.5000018463135,0|2,3:0|0:0,0:0:0:0:
179,325,63177,2,0,L|252:323,1,60.5000018463135,8|2,0:0|0:0,0:0:0:0:
290,355,63577,5,8,0:0:0:0:
410,352,63977,2,0,L|483:350,2,60.5000018463135,8|8|8,0:0|0:0|0:0,0:0:0:0:
315,275,64777,2,0,P|306:235|311:212,1,60.5000018463135,8|8,0:0|0:0,0:0:0:0:
341,164,65177,6,0,L|479:156,1,121.000003692627,4|8,3:2|0:0,0:0:0:0:
493,39,65977,2,0,L|410:34,1,60.5000018463135,0|2,0:0|0:0,0:0:0:0:
382,70,66377,2,0,L|299:74,1,60.5000018463135,8|2,0:0|0:0,0:0:0:0:
269,104,66777,6,0,P|250:155|274:229,2,121.000003692627,4|10|0,3:0|0:0|3:0,0:0:0:0:
183,18,67977,2,0,L|100:22,1,60.5000018463135,8|0,0:0|0:0,0:0:0:0:
70,53,68377,6,0,B|95:85|95:85|96:172,1,121.000003692627,4|8,3:0|0:0,0:0:0:0:
186,246,69177,2,0,P|225:252|260:241,1,60.5000018463135,0|2,3:0|0:0,0:0:0:0:
300,222,69577,2,0,P|329:217|359:223,1,60.5000018463135,8|2,0:0|0:0,0:0:0:0:
399,269,69977,6,0,P|449:290|519:271,2,121.000003692627,4|10|0,3:0|0:0|3:0,0:0:0:0:
284,308,71177,2,0,P|245:311|215:332,1,60.5000018463135,8|0,0:0|0:0,0:0:0:0:
187,367,71577,6,0,L|63:358,1,121.000003692627,4|8,3:2|0:0,0:0:0:0:
11,354,72177,1,2,0:0:0:0:
11,354,72377,1,0,3:0:0:0:
68,247,72777,2,0,L|154:240,1,60.5000018463135,8|2,0:0|0:0,0:0:0:0:
185,223,73177,6,0,L|203:76,1,121.000003692627,4|8,3:0|0:0,0:0:0:0:
212,43,73777,1,0,0:0:0:0:
265,13,73977,2,0,B|329:16|329:16|382:65,1,121.000003692627,0|8,3:0|0:0,0:0:0:0:
444,150,74777,6,0,P|439:248|418:271,1,121.000003692627,4|8,3:0|0:0,0:0:0:0:
382,303,75377,1,2,0:0:0:0:
324,282,75577,2,0,P|287:276|245:290,1,60.5000018463135,0|2,3:0|0:0,0:0:0:0:
213,313,75977,2,0,P|183:317|153:311,1,60.5000018463135,8|2,0:0|0:0,0:0:0:0:
101,281,76377,5,8,0:0:0:0:
55,168,76777,2,0,P|33:152|-15:154,2,60.5000018463135,0|0|0,3:0|0:0|3:0,0:0:0:0:
168,126,77577,1,2,0:0:0:0:
253,194,77977,6,0,P|306:207|367:193,1,110,4|8,3:0|0:0,0:0:0:0:
403,163,78577,1,0,0:0:0:0:
403,163,78777,2,0,L|404:93,1,55,0|2,3:0|0:0,0:0:0:0:
406,53,79177,1,8,0:0:0:0:
301,18,79577,6,0,B|257:11|257:11|193:47,1,110,4|8,3:0|0:0,0:0:0:0:
171,89,80177,1,0,0:0:0:0:
171,89,80377,2,0,L|181:158,2,55,0|0|8,3:0|0:0|0:0,0:0:0:0:
68,48,81177,6,0,P|28:99|33:165,1,110,4|8,3:0|0:0,0:0:0:0:
50,198,81777,1,0,0:0:0:0:
50,198,81977,2,0,L|131:198,1,55,0|2,3:0|0:0,0:0:0:0:
160,198,82377,1,8,0:0:0:0:
265,229,82777,6,0,P|287:275|282:349,1,110,4|8,3:0|0:0,0:0:0:0:
243,366,83377,2,0,B|206:380|206:380|123:378,1,110,0|0,0:0|0:0,0:0:0:0:
80,371,83977,1,8,0:0:0:0:
36,270,84377,6,0,P|13:212|35:152,1,110,4|8,3:0|0:0,0:0:0:0:
52,120,84977,1,0,0:0:0:0:
52,120,85177,2,0,L|31:70,2,55,0|2|8,3:0|0:0|0:0,0:0:0:0:
133,194,85977,6,0,P|191:217|251:195,1,110,4|8,3:0|0:0,0:0:0:0:
270,163,86577,1,0,0:0:0:0:
270,163,86777,2,0,L|272:108,2,55,0|0|8,3:0|0:0|0:0,0:0:0:0:
313,263,87577,6,0,B|374:247|374:247|409:256,2,82.5,4|0|0,3:0|0:0|0:0,0:0:0:0:
277,305,88377,2,0,B|216:289|216:289|181:298,2,82.5,0|0|2,3:0|0:0|0:0,0:0:0:0:
306,351,89177,6,0,L|374:348,1,55,4|0,3:0|0:0,0:0:0:0:
415,344,89577,1,4,3:0:0:0:
468,247,89977,2,0,L|400:250,1,55,0|0,3:0|0:0,0:0:0:0:
359,254,90377,1,0,3:0:0:0:
252,227,90777,6,0,P|241:183|271:107,1,110,4|8,3:0|0:0,0:0:0:0:
308,97,91377,1,0,0:0:0:0:
308,97,91577,2,0,L|440:89,1,110,0|8,3:0|0:0,0:0:0:0:
476,107,92177,1,0,0:0:0:0:
476,107,92377,6,0,P|487:155|476:208,2,82.5,4|0|0,3:0|0:0|0:0,0:0:0:0:
421,11,93377,1,0,0:0:0:0:
421,11,93577,2,0,L|341:6,1,55,8|2,0:0|0:0,0:0:0:0:
318,26,93977,6,0,P|336:70|318:146,1,110,4|8,3:0|0:0,0:0:0:0:
290,171,94577,1,0,0:0:0:0:
290,171,94777,2,0,B|254:153|254:153|165:151,1,110,0|8,3:0|0:0,0:0:0:0:
132,160,95377,1,0,0:0:0:0:
132,160,95577,6,0,P|92:130|81:83,2,82.5,4|0|0,3:0|0:0|0:0,0:0:0:0:
216,237,96577,1,0,0:0:0:0:
216,237,96777,2,0,L|205:311,1,55,8|2,0:0|0:0,0:0:0:0:
191,343,97177,6,0,L|111:343,1,55,4|0,3:0|0:0,0:0:0:0:
81,342,97577,1,8,0:0:0:0:
19,250,97977,2,0,B|16:168|16:168|39:133,1,110,0|8,3:0|0:0,0:0:0:0:
81,121,98577,1,0,0:0:0:0:
81,121,98777,6,0,P|149:128|184:115,2,82.5,4|0|0,3:0|0:0|0:0,0:0:0:0:
54,14,99777,2,0,P|27:6|-10:9,2,55,0|8|2,0:0|0:0|0:0,0:0:0:0:
103,38,100377,5,4,3:0:0:0:
211,23,100777,1,8,0:0:0:0:
308,74,101177,1,0,3:0:0:0:
416,53,101577,1,8,0:0:0:0:
506,116,101977,6,0,B|515:156|515:156|499:238,1,110,4|8,3:0|0:0,0:0:0:0:
430,307,102777,2,0,L|445:380,2,55,0|2|8,3:0|0:0|0:0,0:0:0:0:
420,259,103377,1,2,0:0:0:0:
420,259,103577,5,0,3:0:0:0:
341,198,103977,2,0,L|275:211,2,49.4999984893799,2|0|2,0:0|0:0|0:0,0:0:0:0:
375,162,104577,1,0,0:0:0:0:
375,162,104777,1,0,0:0:0:0:
443,90,105177,5,0,3:0:0:0:
402,5,105577,1,2,0:0:0:0:
402,5,105777,2,0,P|356:0|290:14,1,98.9999969787599,0|0,0:0|0:0,0:0:0:0:
276,50,106377,2,0,L|279:104,1,49.4999984893799,0|2,0:0|0:0,0:0:0:0:
282,149,106777,5,0,3:0:0:0:
203,209,107177,2,0,P|168:209|135:199,2,49.4999984893799,2|0|2,0:0|0:0|0:0,0:0:0:0:
243,236,107777,1,0,0:0:0:0:
243,236,107977,1,0,0:0:0:0:
297,318,108377,6,0,B|337:303|337:303|408:318,2,98.9999969787599,0|2|2,3:0|0:0|0:0,0:0:0:0:
220,381,109577,1,0,0:0:0:0:
136,327,109977,5,4,3:0:0:0:
176,236,110377,2,0,P|222:211|273:225,1,98.9999969787599,2|2,0:0|0:0,0:0:0:0:
309,251,110977,1,0,0:0:0:0:
309,251,111177,2,0,L|373:239,1,49.4999984893799,0|2,0:0|0:0,0:0:0:0:
407,237,111577,5,0,3:0:0:0:
423,139,111977,1,2,0:0:0:0:
325,123,112377,1,2,0:0:0:0:
341,25,112777,1,0,0:0:0:0:
248,61,113177,6,0,L|127:46,1,98.9999969787599,0|2,3:0|0:0,0:0:0:0:
72,110,113977,2,0,L|87:231,1,98.9999969787599,2|0,0:0|0:0,0:0:0:0:
59,304,114777,6,0,L|-3:302,2,49.4999984893799,0|0|8,3:0|0:0|0:0,0:0:0:0:
110,328,115377,1,8,0:0:0:0:
110,328,115577,2,0,L|184:325,2,74.2499977340699,4|0|0,3:0|3:0|3:0,0:0:0:0:
81,374,116377,5,4,1:0:0:0:
81,374,117977,2,0,L|66:301,1,55,4|0,3:0|0:0,0:0:0:0:
62,262,118377,2,0,L|84:191,1,55,4|0,3:0|0:0,0:0:0:0:
107,160,118777,2,0,L|162:109,1,55,0|0,3:0|0:0,0:0:0:0:
193,88,119177,1,4,3:0:0:0:
314,100,119577,6,0,L|379:107,1,60.5000018463135,4|0,3:2|0:0,0:0:0:0:
434,117,119977,1,8,0:0:0:0:
493,222,120377,2,0,P|493:258|481:286,1,60.5000018463135,0|0,0:0|0:0,0:0:0:0:
438,320,120777,2,0,L|353:304,1,60.5000018463135,8|2,0:0|0:0,0:0:0:0:
318,300,121177,6,0,P|279:304|223:368,2,121.000003692627,4|10|0,3:0|0:0|3:0,0:0:0:0:
410,221,122377,2,0,L|401:151,1,60.5000018463135,8|0,0:0|0:0,0:0:0:0:
370,109,122777,6,0,P|334:105|301:120,1,60.5000018463135,4|2,3:0|0:0,0:0:0:0:
268,155,123177,1,8,0:0:0:0:
147,150,123577,2,0,L|62:145,1,60.5000018463135,0|2,3:0|0:0,0:0:0:0:
39,185,123977,2,0,L|34:270,1,60.5000018463135,8|2,0:0|0:0,0:0:0:0:
32,306,124377,5,4,3:0:0:0:
135,241,124777,1,10,0:0:0:0:
200,344,125177,1,0,3:0:0:0:
303,279,125577,1,8,0:0:0:0:
397,353,125977,6,0,P|436:305|434:236,1,121.000003692627,4|8,3:2|0:0,0:0:0:0:
427,194,126577,1,2,0:0:0:0:
427,194,126777,1,0,3:0:0:0:
328,123,127177,2,0,P|291:119|266:125,1,60.5000018463135,8|2,0:0|0:0,0:0:0:0:
227,169,127577,6,0,P|193:214|128:227,1,121.000003692627,4|8,3:0|0:0,0:0:0:0:
72,223,128177,1,0,0:0:0:0:
28,180,128377,2,0,L|22:53,1,121.000003692627,0|8,3:0|0:0,0:0:0:0:
133,13,129177,6,0,B|171:3|171:3|263:9,1,121.000003692627,4|8,3:0|0:0,0:0:0:0:
312,16,129777,1,2,0:0:0:0:
360,52,129977,2,0,P|362:96|347:125,1,60.5000018463135,0|2,3:0|0:0,0:0:0:0:
334,167,130377,2,0,P|332:211|347:240,1,60.5000018463135,8|2,0:0|0:0,0:0:0:0:
377,271,130777,5,8,0:0:0:0:
322,378,131177,2,0,L|261:373,2,60.5000018463135,8|8|8,0:0|0:0|0:0,0:0:0:0:
442,381,131977,2,0,P|463:344|459:313,1,60.5000018463135,8|8,0:0|0:0,0:0:0:0:
463,266,132377,6,0,L|458:186,1,60.5000018463135,4|0,3:2|0:0,0:0:0:0:
452,145,132777,1,8,0:0:0:0:
476,26,133177,2,0,P|439:21|409:34,1,60.5000018463135,0|2,0:0|0:0,0:0:0:0:
374,70,133577,2,0,P|337:75|307:62,1,60.5000018463135,8|2,0:0|0:0,0:0:0:0:
263,40,133977,6,0,P|193:20|147:32,2,121.000003692627,4|10|0,3:0|0:0|3:0,0:0:0:0:
351,122,135177,2,0,L|349:196,1,60.5000018463135,8|0,0:0|0:0,0:0:0:0:
319,234,135577,6,0,P|290:244|252:240,1,60.5000018463135,4|2,3:0|0:0,0:0:0:0:
211,207,135977,1,8,0:0:0:0:
110,140,136377,2,0,P|105:189|113:214,1,60.5000018463135,0|2,3:0|0:0,0:0:0:0:
134,253,136777,2,0,P|136:282|129:312,1,60.5000018463135,8|2,0:0|0:0,0:0:0:0:
105,368,137177,6,0,P|40:378|-4:336,2,121.000003692627,4|10|0,3:0|0:0|3:0,0:0:0:0:
154,257,138377,2,0,P|151:218|144:196,1,60.5000018463135,8|0,0:0|0:0,0:0:0:0:
92,167,138777,6,0,L|100:46,1,121.000003692627,4|8,3:2|0:0,0:0:0:0:
142,2,139377,1,2,0:0:0:0:
142,2,139577,1,0,3:0:0:0:
254,46,139977,2,0,L|258:118,1,60.5000018463135,8|2,0:0|0:0,0:0:0:0:
262,166,140377,6,0,B|302:183|302:183|389:174,1,121.000003692627,4|8,3:0|0:0,0:0:0:0:
439,166,140977,1,0,0:0:0:0:
479,121,141177,2,0,P|494:68|451:20,1,121.000003692627,0|8,3:0|0:0,0:0:0:0:
334,2,141977,6,0,L|203:11,1,121.000003692627,4|8,3:0|0:0,0:0:0:0:
154,22,142577,1,2,0:0:0:0:
111,64,142777,2,0,P|86:110|102:183,1,121.000003692627,0|8,3:0|0:0,0:0:0:0:
142,215,143377,1,2,0:0:0:0:
184,257,143577,6,0,P|182:309|132:364,1,121.000003692627,8|0,0:0|3:0,0:0:0:0:
23,324,144377,2,0,L|19:203,1,121.000003692627,0|2,3:0|0:0,0:0:0:0:
77,109,145177,5,0,0:0:0:0:
358,105,156377,6,0,B|393:98|393:98|426:102|426:102|471:93,2,98.9999969787599,2|2|2,0:0|0:0|0:0,0:0:0:0:
261,126,157577,1,0,0:0:0:0:
307,213,157977,6,0,P|350:242|402:234,1,98.9999969787599,0|2,3:0|0:0,0:0:0:0:
472,176,158777,2,0,L|481:57,1,98.9999969787599,2|0,0:0|0:0,0:0:0:0:
396,23,159577,6,0,P|346:4|284:12,1,98.9999969787599,0|2,3:0|0:0,0:0:0:0:
257,94,160377,1,2,0:0:0:0:
257,94,160577,2,0,P|257:134|264:153,2,49.4999984893799,0|0|2,0:0|0:0|0:0,0:0:0:0:
216,65,161177,6,0,P|150:48|115:59,1,98.9999969787599,0|2,3:0|0:0,0:0:0:0:
62,134,161977,2,0,L|75:254,1,98.9999969787599,2|0,0:0|0:0,0:0:0:0:
150,294,162777,6,0,P|201:299|260:280,1,98.9999969787599,0|2,3:0|0:0,0:0:0:0:
329,232,163577,1,2,0:0:0:0:
329,232,163777,2,0,P|350:210|373:202,2,49.4999984893799,2|0|2,0:0|0:0|0:0,0:0:0:0:
337,280,164377,6,0,P|382:316|440:305,1,98.9999969787599,4|2,3:0|0:0,0:0:0:0:
490,243,165177,2,0,L|480:136,1,98.9999969787599,2|0,0:0|0:0,0:0:0:0:
425,62,165977,6,0,P|368:53|319:80,1,98.9999969787599,0|2,3:0|0:0,0:0:0:0:
293,160,166777,2,0,L|302:258,1,98.9999969787599,2|0,0:0|0:0,0:0:0:0:
256,192,167577,12,0,169177,0:0:0:0:
459,349,170777,6,0,L|385:343,1,60.5000018463135,4|0,3:2|0:0,0:0:0:0:
338,336,171177,1,8,0:0:0:0:
296,292,171377,2,0,P|318:245|299:177,1,121.000003692627,2|2,0:0|0:0,0:0:0:0:
257,138,171977,2,0,L|189:137,1,60.5000018463135,8|2,0:0|0:0,0:0:0:0:
135,135,172377,5,4,3:0:0:0:
42,211,172777,2,0,L|46:290,1,60.5000018463135,10|0,0:0|0:0,0:0:0:0:
51,331,173177,2,0,P|110:310|169:322,1,121.000003692627,0|8,3:0|0:0,0:0:0:0:
218,350,173777,1,0,0:0:0:0:
270,319,173977,6,0,L|275:241,1,60.5000018463135,4|2,3:0|0:0,0:0:0:0:
278,197,174377,1,8,0:0:0:0:
241,150,174577,2,0,B|190:145|190:145|161:160|161:160|104:156,1,121.000003692627,0|2,0:0|0:0,0:0:0:0:
63,151,175177,2,0,P|56:98|67:70,1,60.5000018463135,8|2,0:0|0:0,0:0:0:0:
89,40,175577,5,4,3:0:0:0:
208,54,175977,1,10,0:0:0:0:
194,173,176377,1,0,3:0:0:0:
313,188,176777,1,8,0:0:0:0:
328,68,177177,6,0,P|363:46|441:63,1,121.000003692627,4|8,3:2|0:0,0:0:0:0:
484,99,177777,1,2,0:0:0:0:
484,99,177977,1,0,3:0:0:0:
473,219,178377,2,0,L|468:291,1,60.5000018463135,8|2,0:0|0:0,0:0:0:0:
430,326,178777,6,0,P|395:344|311:321,1,121.000003692627,4|8,3:0|0:0,0:0:0:0:
276,283,179377,1,0,0:0:0:0:
232,240,179577,2,0,P|197:222|113:245,1,121.000003692627,0|8,3:0|0:0,0:0:0:0:
42,331,180377,6,0,B|42:284|42:284|25:197,1,121.000003692627,4|8,3:0|0:0,0:0:0:0:
12,152,180977,1,2,0:0:0:0:
45,101,181177,2,0,P|86:91|127:100,1,60.5000018463135,0|2,3:0|0:0,0:0:0:0:
156,123,181577,2,0,P|186:123|214:114,1,60.5000018463135,8|2,0:0|0:0,0:0:0:0:
262,76,181977,5,8,0:0:0:0:
382,72,182377,2,0,P|385:40|369:-8,2,60.5000018463135,8|8|8,0:0|0:0|0:0,0:0:0:0:
329,180,183177,2,0,L|389:181,1,60.5000018463135,8|8,0:0|0:0,0:0:0:0:
436,218,183577,6,0,P|443:269|419:321,1,60.5000018463135,4|0,3:2|0:0,0:0:0:0:
393,314,183977,1,8,0:0:0:0:
273,334,184377,2,0,P|242:336|213:329,1,60.5000018463135,0|2,3:0|0:0,0:0:0:0:
167,289,184777,2,0,P|165:258|172:229,1,60.5000018463135,8|2,0:0|0:0,0:0:0:0:
196,174,185177,5,4,3:0:0:0:
315,152,185577,1,10,0:0:0:0:
435,127,185977,2,0,P|453:57|419:12,1,121.000003692627,0|8,3:0|0:0,0:0:0:0:
370,3,186577,1,2,0:0:0:0:
321,38,186777,6,0,P|287:48|243:37,1,60.5000018463135,4|0,3:0|0:0,0:0:0:0:
207,20,187177,1,8,0:0:0:0:
90,53,187577,2,0,P|80:87|91:131,1,60.5000018463135,0|2,3:0|0:0,0:0:0:0:
107,167,187977,2,0,P|117:201|106:245,1,60.5000018463135,8|2,0:0|0:0,0:0:0:0:
96,283,188377,6,0,P|43:285|-1:343,2,121.000003692627,4|10|0,3:0|0:0|3:0,0:0:0:0:
213,313,189577,2,0,L|284:309,1,60.5000018463135,8|0,0:0|0:0,0:0:0:0:
329,285,189977,6,0,P|336:212|295:152,1,121.000003692627,4|8,3:2|0:0,0:0:0:0:
275,133,190577,1,2,0:0:0:0:
275,133,190777,1,0,3:0:0:0:
337,26,191177,6,0,L|409:26,1,60.5000018463135,8|2,0:0|0:0,0:0:0:0:
447,60,191577,2,0,P|469:121|447:181,1,121.000003692627,4|8,3:0|0:0,0:0:0:0:
416,220,192177,1,0,0:0:0:0:
355,222,192377,2,0,L|223:222,1,121.000003692627,0|8,3:0|0:0,0:0:0:0:
175,331,193177,6,0,B|204:366|204:366|305:370,1,121.000003692627,4|8,3:0|0:0,0:0:0:0:
339,360,193777,1,2,0:0:0:0:
375,312,193977,2,0,P|380:270|369:243,1,60.5000018463135,0|2,3:0|0:0,0:0:0:0:
357,194,194377,2,0,P|352:152|363:125,1,60.5000018463135,8|2,0:0|0:0,0:0:0:0:
390,84,194777,5,4,3:0:0:0:
278,37,195177,2,0,L|213:51,2,60.5000018463135,0|0|0,3:0|0:0|3:0,0:0:0:0:
396,23,195977,2,0,L|388:99,1,60.5000018463135,8|2,0:0|0:0,0:0:0:0:
372,141,196377,6,0,P|321:118|242:140,1,121.000003692627,4|8,3:0|0:0,0:0:0:0:
220,175,196977,1,2,0:0:0:0:
220,175,197177,1,0,3:0:0:0:
287,275,197577,2,0,P|291:309|283:339,1,60.5000018463135,8|2,0:0|0:0,0:0:0:0:
243,378,197977,6,0,L|114:373,1,121.000003692627,4|8,3:0|0:0,0:0:0:0:
61,368,198577,1,0,0:0:0:0:
8,337,198777,2,0,P|0:269|32:224,1,121.000003692627,0|8,3:0|0:0,0:0:0:0:
136,175,199577,6,0,B|140:137|140:137|118:70,2,90.7500027694703,4|2|2,3:0|0:0|0:0,0:0:0:0:
181,214,200377,2,0,B|177:252|177:252|199:319,2,90.7500027694703,0|2|2,3:0|0:0|0:0,0:0:0:0:
219,167,201177,6,0,L|297:153,1,60.5000018463135,8|0,0:0|0:0,0:0:0:0:
329,188,201577,2,0,L|407:202,1,60.5000018463135,8|4,0:0|0:0,0:0:0:0:
438,232,201977,2,0,L|452:310,1,60.5000018463135,4|0,3:0|3:0,0:0:0:0:
459,345,202377,5,4,0:0:0:0:
256,192,202577,12,0,206777,0:0:0:0:
