osu file format v14

[General]
AudioFilename: audio.mp3
AudioLeadIn: 0
PreviewTime: 52100
Countdown: 0
SampleSet: Soft
StackLeniency: 0.4
Mode: 0
LetterboxInBreaks: 0
WidescreenStoryboard: 1

[Editor]
DistanceSpacing: 1.2
BeatDivisor: 4
GridSize: 32
TimelineZoom: 1.499999

[Metadata]
Title:veil
TitleUnicode:veil
Artist:Suda Keina
ArtistUnicode:須田景凪
Creator:Dogerinoo
Version:Collab Hard
Source:炎炎ノ消防隊
Tags:balloon バルーン porte Fire brigade of flames ending one 1 ed full version fire force en en no shouboutai Mocaotic SkyFlame
BeatmapID:2165208
BeatmapSetID:1015516

[Difficulty]
HPDrainRate:5
CircleSize:4
OverallDifficulty:7
ApproachRate:8
SliderMultiplier:1.5
SliderTickRate:1

[Events]
//Background and Video events
0,0,"Screenshot (87).png",0,0
//Break Periods
2,145377,155627
//Storyboard Layer 0 (Background)
//Storyboard Layer 1 (Fail)
//Storyboard Layer 2 (Pass)
//Storyboard Layer 3 (Foreground)
//Storyboard Layer 4 (Overlay)
//Storyboard Sound Samples

[TimingPoints]
1177,400,4,2,1,35,1,0
1177,-133.333333333333,4,2,1,35,0,0
13977,-100,4,2,1,50,0,0
26777,-105.263157894737,4,2,1,45,0,0
39577,-117.647058823529,4,2,1,35,0,0
50777,-100,4,2,1,35,0,0
52377,-90.9090909090909,4,2,1,75,0,1
63577,-90.9090909090909,4,2,1,70,0,0
65177,-90.9090909090909,4,2,1,75,0,1
77577,-100,4,2,1,50,0,0
77977,-100,4,2,1,50,0,0
90777,-105.263157894737,4,2,1,45,0,0
103577,-117.647058823529,4,2,1,35,0,0
114777,-100,4,2,1,35,0,0
116377,-100,4,2,1,30,0,0
117977,-100,4,2,1,40,0,0
118377,-100,4,2,1,60,0,0
118777,-100,4,2,1,80,0,0
119577,-90.9090909090909,4,2,1,75,0,1
130777,-90.9090909090909,4,2,1,70,0,0
132377,-90.9090909090909,4,2,1,75,0,1
144777,-100,4,2,1,70,0,0
145177,-133.333333333333,4,2,1,30,0,0
156377,-100,4,2,1,45,0,0
156777,-100,4,2,1,50,0,0
157177,-100,4,2,1,55,0,0
157977,-117.647058823529,4,2,1,35,0,0
166777,-117.647058823529,4,2,1,38,0,0
170777,-90.9090909090909,4,2,1,75,0,1
181977,-90.9090909090909,4,2,1,70,0,0
183577,-90.9090909090909,4,2,1,75,0,1
201177,-90.9090909090909,4,2,1,70,0,0
202377,-100,4,2,1,50,0,0

[Colours]
Combo1 : 0,128,64
Combo2 : 253,181,72
Combo3 : 192,192,192
Combo4 : 255,193,164
Combo5 : 193,208,13

[HitObjects]
100,138,1177,6,0,P|146:147|228:144,1,112.500004291535,4|0,3:0|0:0,0:0:0:0:
340,105,1977,1,8,0:0:0:0:
285,228,2377,1,0,3:0:0:0:
419,215,2777,2,0,L|412:333,2,112.500004291535,0|0|8,0:0|0:0|0:0,0:0:0:0:
158,286,4377,6,0,P|208:252|243:207,1,112.500004291535,4|0,3:0|0:0,0:0:0:0:
115,159,5177,1,8,0:0:0:0:
219,73,5577,1,0,3:0:0:0:
353,75,5977,2,0,L|482:74,2,112.500004291535,0|0|8,0:0|0:0|0:0,0:0:0:0:
341,343,7577,6,0,P|340:273|352:215,1,112.500004291535,4|0,3:0|0:0,0:0:0:0:
222,178,8377,1,8,0:0:0:0:
235,312,8777,1,0,3:0:0:0:
114,250,9177,2,0,L|97:130,1,112.500004291535,0|0,0:0|0:0,0:0:0:0:
222,178,9977,1,8,0:0:0:0:
464,59,10777,6,0,P|404:82|364:123,1,112.500004291535,4|0,3:0|0:0,0:0:0:0:
342,246,11577,1,8,0:0:0:0:
256,197,11977,1,0,3:0:0:0:
174,199,12377,1,4,3:0:0:0:
0,109,13977,6,0,P|62:72|151:92,1,150,4|8,3:0|0:0,0:0:0:0:
202,143,14577,1,0,0:0:0:0:
263,77,14777,2,0,L|254:12,2,37.5,0|2|2,3:0|0:0|0:0,0:0:0:0:
334,132,15177,2,0,P|387:140|424:129,1,75,8|2,0:0|0:0,0:0:0:0:
466,68,15577,6,0,L|442:234,1,150,4|8,3:0|0:0,0:0:0:0:
376,275,16177,1,0,0:0:0:0:
290,245,16377,2,0,L|281:180,2,37.5,0|0|0,3:0|0:0|0:0,0:0:0:0:
208,282,16777,1,8,0:0:0:0:
46,203,17177,6,0,L|74:42,1,150,4|8,3:0|0:0,0:0:0:0:
150,98,17777,1,0,0:0:0:0:
235,69,17977,2,0,L|250:19,2,37.5,0|2|2,3:0|0:0|0:0,0:0:0:0:
260,155,18377,2,0,L|274:260,1,75,8|2,0:0|0:0,0:0:0:0:
316,304,18777,6,0,P|349:322|461:268,1,150,4|8,3:0|0:0,0:0:0:0:
419,204,19377,1,0,0:0:0:0:
455,121,19577,2,0,L|443:35,1,75,0|0,3:0|0:0,0:0:0:0:
359,16,19977,2,0,P|288:55|281:73,1,75,8|0,0:0|0:0,0:0:0:0:
248,125,20377,6,0,L|84:102,1,150,4|8,3:0|0:0,0:0:0:0:
56,183,20977,1,0,0:0:0:0:
112,252,21177,2,0,L|101:305,2,37.5,0|2|2,3:0|0:0|0:0,0:0:0:0:
193,213,21577,2,0,L|297:202,1,75,8|2,0:0|0:0,0:0:0:0:
337,261,21977,6,0,P|306:193|327:116,1,150,4|8,3:0|0:0,0:0:0:0:
388,59,22577,1,0,0:0:0:0:
465,104,22777,2,0,L|497:73,2,37.5,0|0|0,3:0|0:0|0:0,0:0:0:0:
475,193,23177,2,0,L|491:294,1,75,8|0,0:0|0:0,0:0:0:0:
469,355,23577,6,0,P|396:343|309:347,1,150,4|8,3:0|0:0,0:0:0:0:
245,294,24177,1,0,0:0:0:0:
187,362,24377,2,0,L|101:348,1,75,0|2,3:0|0:0,0:0:0:0:
52,283,24777,2,0,P|47:208|52:188,1,75,8|2,0:0|0:0,0:0:0:0:
112,147,25177,6,0,L|168:140,3,37.5,4|0|0|0,3:0|0:0|0:0|0:0,0:0:0:0:
193,135,25577,2,0,L|249:128,3,37.5,4|0|0|0,3:0|0:0|0:0|0:0,0:0:0:0:
274,122,25977,2,0,L|330:115,3,37.5,0|0|0|0,3:0|0:0|0:0|0:0,0:0:0:0:
355,110,26377,2,0,L|411:103,3,37.5,0|0|2|0,3:0|0:0|0:0|0:0,0:0:0:0:
434,99,26777,6,0,P|475:142|494:230,1,142.49999619484,4|8,3:0|0:0,0:0:0:0:
452,295,27377,1,0,0:0:0:0:
452,295,27577,2,0,L|367:307,1,71.2499980974198,0|0,3:0|0:0,0:0:0:0:
302,271,27977,1,8,0:0:0:0:
223,304,28177,5,0,0:0:0:0:
150,259,28377,2,0,L|127:98,1,142.49999619484,4|8,3:0|0:0,0:0:0:0:
197,65,28977,1,0,0:0:0:0:
268,112,29177,1,0,3:0:0:0:
336,60,29377,6,0,L|419:54,1,71.2499980974198,2|8,0:0|0:0,0:0:0:0:
482,94,29777,1,2,0:0:0:0:
411,143,29977,2,0,P|395:189|399:264,1,106.87499714613,4|0,3:0|0:0,0:0:0:0:
417,283,30377,1,8,0:0:0:0:
341,322,30577,2,0,L|345:367,2,35.6249990487099,0|0|0,0:0|0:0|3:0,0:0:0:0:
257,299,30977,1,0,0:0:0:0:
174,321,31177,6,0,L|84:332,1,71.2499980974198,8|0,0:0|0:0,0:0:0:0:
41,270,31577,2,0,P|46:220|39:117,1,142.49999619484,4|8,3:0|0:0,0:0:0:0:
124,109,32177,1,0,0:0:0:0:
198,151,32377,2,0,L|190:195,2,35.6249990487099,0|2|2,3:0|0:0|0:0,0:0:0:0:
271,107,32777,2,0,P|326:91|367:91,1,71.2499980974198,8|2,0:0|0:0,0:0:0:0:
420,117,33177,6,0,L|454:202,1,71.2499980974198,4|0,3:0|0:0,0:0:0:0:
494,254,33577,2,0,L|472:329,1,71.2499980974198,8|0,0:0|0:0,0:0:0:0:
391,344,33977,2,0,L|222:321,1,142.49999619484,0|8,3:0|0:0,0:0:0:0:
167,347,34577,1,0,0:0:0:0:
108,284,34777,6,0,P|87:231|93:200,1,71.2499980974198,4|0,3:0|0:0,0:0:0:0:
121,139,35177,2,0,L|205:113,1,71.2499980974198,8|0,0:0|0:0,0:0:0:0:
270,145,35577,2,0,L|264:195,2,35.6249990487099,0|2|2,3:0|0:0|0:0,0:0:0:0:
345,104,35977,2,0,P|394:97|461:144,1,106.87499714613,8|0,0:0|0:0,0:0:0:0:
465,159,36377,6,0,L|451:228,1,71.2499980974198,4|0,3:0|0:0,0:0:0:0:
420,308,36777,2,0,P|365:329|334:321,1,71.2499980974198,8|0,0:0|0:0,0:0:0:0:
284,277,37177,2,0,P|229:256|198:264,1,71.2499980974198,0|0,3:0|0:0,0:0:0:0:
155,315,37577,2,0,L|68:322,1,71.2499980974198,8|0,0:0|0:0,0:0:0:0:
16,267,37977,6,0,P|4:191|35:118,1,142.49999619484,4|8,3:0|0:0,0:0:0:0:
109,148,38577,1,0,0:0:0:0:
178,97,38777,2,0,L|319:77,1,142.49999619484,0|8,3:0|0:0,0:0:0:0:
398,110,39377,1,2,0:0:0:0:
433,184,39577,6,0,P|422:234|396:312,1,127.50000243187,0|2,3:0|0:0,0:0:0:0:
330,353,40177,1,0,0:0:0:0:
269,296,40377,2,0,L|186:282,1,63.7500012159348,2|0,0:0|0:0,0:0:0:0:
129,315,40777,2,0,P|172:265|159:191,1,127.50000243187,0|0,0:0|3:0,0:0:0:0:
77,67,41577,5,2,0:0:0:0:
77,67,41777,2,0,L|221:51,1,127.50000243187,0|0,0:0|0:0,0:0:0:0:
273,99,42377,2,0,L|348:113,1,63.7500012159348,0|2,0:0|0:0,0:0:0:0:
410,75,42777,6,0,P|382:131|405:212,1,127.50000243187,0|2,3:0|0:0,0:0:0:0:
444,258,43377,1,0,0:0:0:0:
444,258,43577,2,0,L|429:330,1,63.7500012159348,2|0,0:0|0:0,0:0:0:0:
348,333,43977,2,0,P|306:318|276:313,1,63.7500012159348,0|2,0:0|0:0,0:0:0:0:
213,351,44377,6,0,L|72:362,1,127.50000243187,0|2,3:0|0:0,0:0:0:0:
24,305,44977,1,0,0:0:0:0:
68,235,45177,2,0,P|81:177|69:93,1,127.50000243187,2|0,0:0|0:0,0:0:0:0:
206,9,45977,6,0,P|250:32|337:38,1,127.50000243187,4|2,3:0|0:0,0:0:0:0:
406,19,46577,1,0,0:0:0:0:
477,61,46777,2,0,L|449:151,1,63.7500012159348,2|0,0:0|0:0,0:0:0:0:
405,186,47177,2,0,L|425:276,1,63.7500012159348,0|2,0:0|0:0,0:0:0:0:
406,330,47577,6,0,P|339:346|271:328,1,127.50000243187,0|2,3:0|0:0,0:0:0:0:
152,230,48377,2,0,P|136:163|154:95,1,127.50000243187,2|0,0:0|0:0,0:0:0:0:
288,18,49177,2,0,P|350:60|382:118,1,127.50000243187,0|2,3:0|0:0,0:0:0:0:
403,268,49977,2,0,L|276:282,1,127.50000243187,2|0,0:0|0:0,0:0:0:0:
109,213,50777,6,0,L|57:229,2,37.5,0|0|0,3:0|0:0|0:0,0:0:0:0:
170,146,51177,1,8,0:0:0:0:
90,104,51377,2,0,L|38:120,2,37.5,8|0|0,0:0|0:0|0:0,0:0:0:0:
151,37,51777,1,10,0:0:0:0:
446,66,52377,6,0,P|412:122|437:202,1,123.75000377655,4|0,3:2|0:0,0:0:0:0:
445,219,52777,2,0,L|426:311,1,82.5000025177003,8|2,0:0|0:0,0:0:0:0:
340,346,53177,1,0,3:0:0:0:
256,292,53377,1,2,0:0:0:0:
171,342,53577,2,0,P|122:353|88:344,1,82.5000025177003,8|2,0:0|0:0,0:0:0:0:
51,254,53977,6,0,L|23:88,2,165.000005035401,4|10|0,3:0|0:0|3:0,0:0:0:0:
139,207,54977,1,0,0:0:0:0:
225,255,55177,2,0,P|270:263|313:255,1,82.5000025177003,8|0,0:0|0:0,0:0:0:0:
391,206,55577,6,0,L|406:305,1,82.5000025177003,4|2,3:0|0:0,0:0:0:0:
497,318,55977,2,0,L|472:154,1,165.000005035401,8|0,0:0|3:0,0:0:0:0:
402,84,56577,1,2,0:0:0:0:
321,141,56777,2,0,L|225:134,1,82.5000025177003,8|2,0:0|0:0,0:0:0:0:
142,157,57177,6,0,P|129:198|173:337,2,165.000005035401,4|10|0,3:0|0:0|3:0,0:0:0:0:
163,60,58177,1,0,0:0:0:0:
245,114,58377,2,0,L|333:97,1,82.5000025177003,8|0,0:0|0:0,0:0:0:0:
422,77,58777,6,0,P|439:138|416:239,1,165.000005035401,4|8,3:2|0:0,0:0:0:0:
341,299,59377,1,2,0:0:0:0:
268,231,59577,2,0,L|263:186,2,41.2500012588501,0|2|2,3:0|0:0|0:0,0:0:0:0:
189,291,59977,1,8,0:0:0:0:
102,242,60177,1,2,0:0:0:0:
20,298,60377,6,0,P|-19:237|5:135,1,165.000005035401,4|8,3:0|0:0,0:0:0:0:
72,87,60977,1,0,0:0:0:0:
72,87,61177,2,0,L|157:65,1,82.5000025177003,0|0,3:0|0:0,0:0:0:0:
235,119,61577,2,0,L|335:129,1,82.5000025177003,8|0,0:0|0:0,0:0:0:0:
392,63,61977,6,0,P|360:136|392:210,1,165.000005035401,4|8,3:0|0:0,0:0:0:0:
474,264,62577,2,0,L|454:355,1,82.5000025177003,2|0,0:0|3:0,0:0:0:0:
360,316,62977,1,2,0:0:0:0:
269,355,63177,1,8,0:0:0:0:
180,310,63377,1,2,0:0:0:0:
98,366,63577,6,0,L|91:310,3,41.2500012588501,8|0|0|0,0:0|0:0|0:0|0:0,0:0:0:0:
86,285,63977,2,0,L|79:229,3,41.2500012588501,8|0|8|0,0:0|0:0|0:0|0:0,0:0:0:0:
73,204,64377,2,0,L|66:148,3,41.2500012588501,8|0|8|0,0:0|0:0|0:0|0:0,0:0:0:0:
61,123,64777,2,0,L|54:67,3,41.2500012588501,8|0|8|8,0:0|0:0|0:0|0:0,0:0:0:0:
55,32,65177,6,0,P|119:22|183:76,1,123.75000377655,4|0,3:2|0:0,0:0:0:0:
197,90,65577,2,0,L|289:108,1,82.5000025177003,8|2,0:0|0:0,0:0:0:0:
367,62,65977,1,0,3:0:0:0:
439,129,66177,1,2,0:0:0:0:
373,203,66377,2,0,L|281:219,1,82.5000025177003,8|2,0:0|0:0,0:0:0:0:
206,257,66777,6,0,P|123:290|37:331,2,165.000005035401,4|10|0,3:0|0:0|3:0,0:0:0:0:
268,334,67777,1,0,0:0:0:0:
346,273,67977,2,0,P|391:265|434:273,1,82.5000025177003,8|0,0:0|0:0,0:0:0:0:
500,336,68377,6,0,L|512:254,1,82.5000025177003,4|0,3:0|0:0,0:0:0:0:
447,178,68777,2,0,L|422:14,1,165.000005035401,8|0,0:0|3:0,0:0:0:0:
332,57,69377,1,2,0:0:0:0:
233,43,69577,2,0,L|137:36,1,82.5000025177003,8|2,0:0|0:0,0:0:0:0:
63,84,69977,6,0,P|48:164|75:241,2,165.000005035401,4|10|0,3:0|0:0|3:0,0:0:0:0:
152,125,70977,1,0,0:0:0:0:
232,67,71177,2,0,L|313:82,1,82.5000025177003,8|0,0:0|0:0,0:0:0:0:
395,137,71577,6,0,P|412:198|389:299,1,165.000005035401,4|8,3:2|0:0,0:0:0:0:
297,263,72177,1,2,0:0:0:0:
214,318,72377,2,0,L|218:358,2,41.2500012588501,0|2|2,3:0|0:0|0:0,0:0:0:0:
124,275,72777,1,8,0:0:0:0:
43,332,72977,1,2,0:0:0:0:
1,241,73177,6,0,P|43:139|116:137,1,165.000005035401,4|8,3:0|0:0,0:0:0:0:
175,174,73777,1,0,0:0:0:0:
175,174,73977,2,0,L|153:259,1,82.5000025177003,0|0,3:0|0:0,0:0:0:0:
199,342,74377,2,0,P|249:347|299:332,1,82.5000025177003,8|0,0:0|0:0,0:0:0:0:
377,320,74777,6,0,P|429:259|422:179,1,165.000005035401,4|8,3:0|0:0,0:0:0:0:
381,89,75377,2,0,L|290:69,1,82.5000025177003,2|0,0:0|3:0,0:0:0:0:
233,145,75777,1,2,0:0:0:0:
164,73,75977,1,8,0:0:0:0:
93,143,76177,1,2,0:0:0:0:
8,91,76377,6,0,L|15:147,3,41.2500012588501,8|0|0|0,0:0|0:0|0:0|0:0,0:0:0:0:
20,172,76777,2,0,L|27:228,3,41.2500012588501,0|0|0|0,3:0|0:0|0:0|0:0,0:0:0:0:
33,253,77177,2,0,L|40:309,3,41.2500012588501,0|0|0|0,3:0|3:0|3:0|0:0,0:0:0:0:
45,334,77577,1,2,0:0:0:0:
45,334,77977,6,0,P|65:289|151:218,1,150,4|8,3:0|0:0,0:0:0:0:
227,240,78577,1,0,0:0:0:0:
314,260,78777,2,0,L|341:198,2,37.5,0|2|2,3:0|0:0|0:0,0:0:0:0:
373,327,79177,2,0,L|415:231,1,75,8|2,0:0|0:0,0:0:0:0:
492,245,79577,6,0,P|454:185|371:171,1,150,4|8,3:0|0:0,0:0:0:0:
332,89,80177,1,0,0:0:0:0:
254,133,80377,2,0,L|178:114,1,75,0|0,3:0|0:0,0:0:0:0:
124,185,80777,2,0,L|196:203,1,75,8|0,0:0|0:0,0:0:0:0:
254,133,81177,6,0,P|238:211|234:292,1,150,4|8,3:0|0:0,0:0:0:0:
237,371,81777,1,0,0:0:0:0:
313,323,81977,2,0,L|380:339,2,37.5,0|2|2,3:0|0:0|0:0,0:0:0:0:
329,234,82377,2,0,L|401:214,1,75,8|2,0:0|0:0,0:0:0:0:
473,269,82777,6,0,P|482:184|447:129,1,150,4|8,3:0|0:0,0:0:0:0:
454,41,83377,1,0,0:0:0:0:
373,80,83577,2,0,P|331:95|291:99,1,75,0|0,3:0|0:0,0:0:0:0:
233,38,83977,2,0,P|195:43|160:56,1,75,8|0,0:0|0:0,0:0:0:0:
71,43,84377,6,0,P|92:106|102:198,1,150,4|8,3:0|0:0,0:0:0:0:
188,161,84977,1,0,0:0:0:0:
245,230,85177,2,0,L|231:282,2,37.5,0|2|2,3:0|0:0|0:0,0:0:0:0:
333,215,85577,2,0,L|313:288,1,75,8|2,0:0|0:0,0:0:0:0:
264,362,85977,6,0,P|343:320|408:304,1,150,4|8,3:0|0:0,0:0:0:0:
490,295,86577,1,0,0:0:0:0:
469,207,86777,2,0,P|449:168|425:140,1,75,0|0,3:0|0:0,0:0:0:0:
379,68,87177,2,0,P|355:97|339:130,1,75,8|0,0:0|0:0,0:0:0:0:
249,122,87577,6,0,P|279:191|286:279,1,150,4|8,3:0|0:0,0:0:0:0:
199,287,88177,1,0,0:0:0:0:
113,314,88377,2,0,P|117:276|125:240,1,75,0|2,3:0|0:0,0:0:0:0:
50,190,88777,2,8,P|45:152|37:116,1,75,8|0,0:0|0:0,0:0:0:0:
113,68,89177,6,0,L|159:113,3,37.5,4|0|0|0,3:0|0:0|0:0|0:0,0:0:0:0:
172,125,89577,2,0,L|218:170,3,37.5,4|0|0|0,3:0|0:0|0:0|0:0,0:0:0:0:
229,183,89977,1,0,3:0:0:0:
156,236,90177,6,0,L|218:309,2,75,0|0|2,0:0|3:0|0:0,0:0:0:0:
78,285,90777,2,0,P|37:242|18:154,1,142.49999619484,4|8,3:0|0:0,0:0:0:0:
60,89,91377,1,0,0:0:0:0:
60,89,91577,2,0,L|145:77,1,71.2499980974198,0|0,3:0|0:0,0:0:0:0:
210,113,91977,1,8,0:0:0:0:
289,80,92177,5,0,0:0:0:0:
362,125,92377,2,0,L|385:286,1,142.49999619484,4|8,3:0|0:0,0:0:0:0:
315,319,92977,1,0,0:0:0:0:
244,272,93177,1,0,3:0:0:0:
176,324,93377,6,0,L|93:330,1,71.2499980974198,0|8,0:0|0:0,0:0:0:0:
30,290,93777,1,2,0:0:0:0:
101,241,93977,2,0,P|117:195|97:95,1,142.49999619484,4|8,3:0|0:0,0:0:0:0:
176,61,94577,1,0,0:0:0:0:
176,61,94777,2,0,L|172:16,2,35.6249990487099,0|2|2,3:0|0:0|0:0,0:0:0:0:
258,85,95177,6,0,L|348:74,1,71.2499980974198,8|0,0:0|0:0,0:0:0:0:
407,109,95577,2,0,P|412:159|405:262,1,142.49999619484,4|8,3:0|0:0,0:0:0:0:
365,326,96177,1,0,0:0:0:0:
285,295,96377,2,0,P|230:311|189:311,1,71.2499980974198,0|0,3:0|0:0,0:0:0:0:
133,289,96777,2,0,L|99:204,1,71.2499980974198,8|2,0:0|0:0,0:0:0:0:
46,161,97177,6,0,L|68:86,1,71.2499980974198,4|0,3:0|0:0,0:0:0:0:
132,38,97577,2,0,P|175:32|215:40,1,71.2499980974198,8|0,0:0|0:0,0:0:0:0:
276,79,97977,2,0,L|257:233,1,142.49999619484,0|8,3:0|0:0,0:0:0:0:
313,286,98577,1,0,0:0:0:0:
254,348,98777,6,0,P|201:369|170:363,1,71.2499980974198,4|0,3:0|0:0,0:0:0:0:
127,306,99177,2,0,L|43:280,1,71.2499980974198,8|0,0:0|0:0,0:0:0:0:
19,209,99577,2,0,L|87:188,1,71.2499980974198,0|0,3:0|0:0,0:0:0:0:
104,104,99977,2,0,L|172:121,1,71.2499980974198,8|2,0:0|0:0,0:0:0:0:
243,167,100377,6,0,L|257:98,1,71.2499980974198,4|0,3:0|0:0,0:0:0:0:
311,31,100777,2,0,P|366:10|397:18,1,71.2499980974198,8|0,0:0|0:0,0:0:0:0:
429,79,101177,2,0,L|467:81,2,35.6249990487099,0|2|2,3:0|0:0|0:0,0:0:0:0:
450,162,101577,2,0,L|363:155,1,71.2499980974198,8|0,0:0|0:0,0:0:0:0:
299,123,101977,6,0,P|340:181|334:249,1,142.49999619484,4|8,3:0|0:0,0:0:0:0:
247,248,102577,1,0,0:0:0:0:
187,309,102777,2,0,L|61:328,1,106.87499714613,0|8,3:0|0:0,0:0:0:0:
39,332,103177,1,8,0:0:0:0:
76,254,103377,1,2,0:0:0:0:
29,191,103577,6,0,P|40:141|66:63,1,127.50000243187,0|2,3:0|0:0,0:0:0:0:
135,41,104177,1,0,0:0:0:0:
135,41,104377,2,0,L|218:55,1,63.7500012159348,2|0,0:0|0:0,0:0:0:0:
273,65,104777,2,0,P|316:115|303:189,1,127.50000243187,0|0,0:0|3:0,0:0:0:0:
221,297,105577,5,2,0:0:0:0:
221,297,105777,2,0,L|77:313,1,127.50000243187,0|0,0:0|0:0,0:0:0:0:
83,235,106377,2,0,L|97:160,1,63.7500012159348,0|2,0:0|0:0,0:0:0:0:
55,106,106777,6,0,P|111:134|192:111,1,127.50000243187,0|2,3:0|0:0,0:0:0:0:
247,79,107377,1,0,0:0:0:0:
247,79,107577,2,0,L|262:151,1,63.7500012159348,2|0,0:0|0:0,0:0:0:0:
316,193,107977,2,0,P|358:208|388:213,1,63.7500012159348,0|2,0:0|0:0,0:0:0:0:
428,154,108377,6,0,L|417:295,1,127.50000243187,0|2,3:0|0:0,0:0:0:0:
359,343,108977,1,0,0:0:0:0:
290,296,109177,2,0,P|229:283|156:289,1,127.50000243187,2|0,0:0|0:0,0:0:0:0:
24,223,109977,6,0,P|67:167|138:143,1,127.50000243187,4|2,3:0|0:0,0:0:0:0:
176,96,110577,1,0,0:0:0:0:
245,128,110777,2,0,L|324:119,1,63.7500012159348,2|0,0:0|0:0,0:0:0:0:
353,183,111177,2,0,L|432:192,1,63.7500012159348,0|2,0:0|0:0,0:0:0:0:
487,161,111577,6,0,P|460:215|445:280,1,127.50000243187,0|2,3:0|0:0,0:0:0:0:
378,318,112177,1,0,0:0:0:0:
311,280,112377,2,0,P|252:294|179:342,1,127.50000243187,2|0,0:0|0:0,0:0:0:0:
134,374,112977,1,2,0:0:0:0:
76,323,113177,6,0,P|55:263|58:188,1,127.50000243187,0|2,3:0|0:0,0:0:0:0:
131,185,113777,1,0,0:0:0:0:
176,123,113977,2,0,L|258:121,1,63.7500012159348,2|0,0:0|0:0,0:0:0:0:
257,195,114377,2,0,L|339:197,1,63.7500012159348,0|2,0:0|0:0,0:0:0:0:
402,158,114777,6,0,L|399:218,2,37.5,0|0|0,3:0|0:0|0:0,0:0:0:0:
462,91,115177,1,8,0:0:0:0:
374,72,115377,1,8,0:0:0:0:
285,52,115577,2,0,L|162:26,2,112.5,4|0|0,3:0|3:0|3:0,0:0:0:0:
310,139,116377,1,4,1:0:0:0:
310,139,117977,6,0,L|300:204,3,37.5,4|0|0|0,3:0|0:0|0:0|0:0,0:0:0:0:
297,217,118377,2,0,L|291:254,3,37.5,4|0|0|0,3:0|0:0|0:0|0:0,0:0:0:0:
284,298,118777,2,0,L|277:345,3,37.5,0|0|0|0,3:0|0:0|0:0|0:0,0:0:0:0:
273,379,119177,1,4,3:0:0:0:
284,298,119577,6,0,P|235:280|184:248,1,82.5000025177003,4|0,3:2|0:0,0:0:0:0:
110,280,119977,2,0,P|128:209|123:112,1,165.000005035401,8|0,0:0|3:0,0:0:0:0:
202,56,120577,1,2,0:0:0:0:
274,123,120777,2,0,P|322:152|353:160,1,82.5000025177003,8|2,0:0|0:0,0:0:0:0:
434,112,121177,6,0,P|428:192|391:300,2,165.000005035401,4|10|0,3:0|0:0|3:0,0:0:0:0:
343,69,122177,1,0,0:0:0:0:
250,104,122377,2,0,P|183:103|138:88,1,82.5000025177003,8|0,0:0|0:0,0:0:0:0:
78,142,122777,6,0,P|101:191|105:231,1,82.5000025177003,4|2,3:0|0:0,0:0:0:0:
85,315,123177,2,0,P|156:299|195:207,1,165.000005035401,8|0,0:0|3:0,0:0:0:0:
284,177,123777,1,2,0:0:0:0:
353,247,123977,2,0,P|379:294|394:345,1,82.5000025177003,8|2,0:0|0:0,0:0:0:0:
450,243,124377,6,0,L|500:83,2,165.000005035401,4|10|0,3:0|0:0|3:0,0:0:0:0:
353,247,125377,1,0,0:0:0:0:
284,177,125577,2,0,P|241:154|206:142,1,82.5000025177003,8|0,0:0|0:0,0:0:0:0:
151,61,125977,6,0,P|165:133|163:246,1,165.000005035401,4|8,3:2|0:0,0:0:0:0:
94,293,126577,1,2,0:0:0:0:
186,328,126777,2,0,L|196:388,2,41.2500012588501,0|2|2,3:0|0:0|0:0,0:0:0:0:
264,267,127177,1,8,0:0:0:0:
348,319,127377,1,2,0:0:0:0:
428,261,127577,6,0,P|428:192|388:87,1,165.000005035401,4|8,3:0|0:0,0:0:0:0:
318,162,128177,1,0,0:0:0:0:
253,87,128377,2,0,P|225:126|211:162,1,82.5000025177003,0|0,3:0|0:0,0:0:0:0:
135,219,128777,2,0,P|118:181|94:148,1,82.5000025177003,8|0,0:0|0:0,0:0:0:0:
7,196,129177,6,0,P|51:123|104:50,1,165.000005035401,4|8,3:0|0:0,0:0:0:0:
193,33,129777,1,2,0:0:0:0:
233,123,129977,2,0,L|332:135,1,82.5000025177003,0|2,3:0|0:0,0:0:0:0:
330,34,130377,2,0,L|411:24,1,82.5000025177003,8|2,0:0|0:0,0:0:0:0:
501,66,130777,6,0,L|488:124,3,41.2500012588501,8|0|0|0,0:0|0:0|0:0|0:0,0:0:0:0:
480,154,131177,2,0,L|467:212,3,41.2500012588501,8|0|8|0,0:0|0:0|0:0|0:0,0:0:0:0:
461,243,131577,2,0,L|448:301,3,41.2500012588501,8|0|8|0,0:0|0:0|0:0|0:0,0:0:0:0:
441,332,131977,2,0,L|428:390,3,41.2500012588501,8|0|8|8,0:0|0:0|0:0|0:0,0:0:0:0:
383,359,132377,6,0,P|318:348|189:366,1,165.000005035401,4|8,3:2|0:0,0:0:0:0:
165,274,132977,1,0,0:0:0:0:
97,346,133177,2,0,P|44:330|6:311,1,82.5000025177003,0|2,3:0|0:0,0:0:0:0:
3,220,133577,2,0,P|56:204|94:185,1,82.5000025177003,8|2,0:0|0:0,0:0:0:0:
122,102,133977,6,0,P|203:76|290:90,2,165.000005035401,4|10|0,3:0|0:0|3:0,0:0:0:0:
80,192,134977,1,0,0:0:0:0:
178,183,135177,2,0,P|181:243|190:289,1,82.5000025177003,8|0,0:0|0:0,0:0:0:0:
279,295,135577,6,0,P|297:258|319:223,1,82.5000025177003,4|2,3:0|0:0,0:0:0:0:
397,162,135977,1,8,0:0:0:0:
330,88,136177,1,0,0:0:0:0:
399,17,136377,2,0,L|457:15,2,41.2500012588501,0|2|2,3:0|0:0|0:0,0:0:0:0:
299,8,136777,2,0,P|260:40|235:87,1,82.5000025177003,8|2,0:0|0:0,0:0:0:0:
145,45,137177,6,0,P|219:95|293:158,2,165.000005035401,4|10|0,3:0|0:0|3:0,0:0:0:0:
68,108,138177,1,0,0:0:0:0:
77,206,138377,2,0,P|129:182|164:157,1,82.5000025177003,8|0,0:0|0:0,0:0:0:0:
148,267,138777,6,0,P|226:287|311:332,1,165.000005035401,4|8,3:2|0:0,0:0:0:0:
385,273,139377,1,2,0:0:0:0:
458,339,139577,2,0,L|453:388,2,41.2500012588501,0|2|2,3:0|0:0|0:0,0:0:0:0:
482,242,139977,2,0,L|490:143,1,82.5000025177003,8|2,0:0|0:0,0:0:0:0:
489,60,140377,6,0,P|450:134|369:167,1,165.000005035401,4|8,3:0|0:0,0:0:0:0:
297,223,140977,1,0,0:0:0:0:
288,124,141177,2,0,L|192:124,1,82.5000025177003,0|0,3:0|0:0,0:0:0:0:
200,223,141577,2,0,L|117:223,1,82.5000025177003,8|0,0:0|0:0,0:0:0:0:
72,311,141977,6,0,P|86:245|86:138,1,165.000005035401,4|8,3:0|0:0,0:0:0:0:
157,78,142577,1,2,0:0:0:0:
220,154,142777,2,0,L|246:105,2,41.2500012588501,0|2|2,3:0|0:0|0:0,0:0:0:0:
319,160,143177,1,8,0:0:0:0:
380,237,143377,1,2,0:0:0:0:
281,249,143577,6,0,P|277:318|263:374,2,123.75000377655,8|4|0,0:0|3:0|3:0,0:0:0:0:
182,261,144377,1,0,3:0:0:0:
83,272,144577,1,0,3:0:0:0:
83,272,144777,2,0,P|96:194|128:120,1,150,2|0,0:0|0:0,0:0:0:0:
263,187,156377,6,0,P|291:252|367:287,2,150,2|2|2,0:0|0:0|0:0,0:0:0:0:
380,169,157577,2,0,L|380:206,3,37.5
380,169,157977,6,0,P|346:108|301:74,1,127.50000243187,0|2,3:0|0:0,0:0:0:0:
227,96,158577,1,0,0:0:0:0:
158,61,158777,2,0,L|144:213,1,127.50000243187,2|0,0:0|0:0,0:0:0:0:
74,214,159377,1,2,0:0:0:0:
132,342,159577,6,0,P|193:336|252:295,1,127.50000243187,0|2,3:0|0:0,0:0:0:0:
269,228,160177,1,0,0:0:0:0:
344,213,160377,2,0,L|333:345,1,127.50000243187,2|0,0:0|0:0,0:0:0:0:
405,366,160977,1,2,0:0:0:0:
480,266,161177,6,0,P|499:210|491:134,1,127.50000243187,0|2,3:0|0:0,0:0:0:0:
424,109,161777,1,0,0:0:0:0:
348,123,161977,2,0,P|353:186|334:246,1,127.50000243187,2|0,0:0|0:0,0:0:0:0:
275,196,162577,1,2,0:0:0:0:
182,259,162777,6,0,L|26:235,1,127.50000243187,0|2,3:0|0:0,0:0:0:0:
86,169,163377,1,0,0:0:0:0:
153,133,163577,2,2,L|192:139,3,21.2500004053116
248,153,163977,1,2,0:0:0:0:
228,79,164177,1,2,0:0:0:0:
352,52,164377,6,0,P|368:132|350:197,1,127.50000243187,4|2,3:0|0:0,0:0:0:0:
265,262,165177,2,0,P|331:266|403:307,1,127.50000243187,2|0,0:0|0:0,0:0:0:0:
244,351,165977,2,0,P|178:292|205:191,1,191.250003647804,0|0,3:0|0:0,0:0:0:0:
253,146,166777,2,0,B|221:109|168:111|168:111|109:115|78:79,1,191.250003647804,2|2,0:0|0:0,0:0:0:0:
35,19,167577,1,8,0:0:0:0:
256,192,167677,12,0,169177,0:0:0:0:
81,96,170777,6,0,P|64:166|86:244,1,123.75000377655,4|0,3:2|0:0,0:0:0:0:
51,260,171177,2,0,P|101:250|145:252,1,82.5000025177003,8|2,0:0|0:0,0:0:0:0:
229,270,171577,2,0,L|219:328,2,41.2500012588501,0|2|2,3:0|0:0|0:0,0:0:0:0:
324,294,171977,2,0,L|311:388,1,82.5000025177003,8|2,0:0|0:0,0:0:0:0:
401,330,172377,6,0,P|400:249|316:207,2,165.000005035401,4|8|0,3:0|0:0|3:0,0:0:0:0:
488,283,173377,1,0,0:0:0:0:
486,184,173577,2,0,P|491:128|504:94,1,82.5000025177003,8|0,0:0|0:0,0:0:0:0:
423,39,173977,6,0,P|371:71|327:128,1,123.75000377655,4|0,3:0|0:0,0:0:0:0:
297,166,174377,2,0,P|236:158|191:141,1,82.5000025177003,8|0,0:0|0:0,0:0:0:0:
127,107,174777,2,0,L|126:157,2,41.2500012588501,0|2|2,3:0|0:0|0:0,0:0:0:0:
36,67,175177,2,0,L|34:180,1,82.5000025177003,8|2,0:0|0:0,0:0:0:0:
34,248,175577,6,0,P|114:254|199:313,2,165.000005035401,4|10|0,3:0|0:0|3:0,0:0:0:0:
34,149,176577,1,0,0:0:0:0:
132,151,176777,2,0,P|200:152|264:142,1,123.75000377655,8|0,0:0|0:0,0:0:0:0:
275,98,177177,6,0,P|289:147|386:216,1,165.000005035401,4|8,3:2|0:0,0:0:0:0:
458,159,177777,1,2,0:0:0:0:
494,250,177977,2,0,L|481:302,2,41.2500012588501,0|2|2,3:0|0:0|0:0,0:0:0:0:
399,282,178377,2,0,L|372:369,1,82.5000025177003,8|2,0:0|0:0,0:0:0:0:
290,307,178777,6,0,P|227:356|126:354,1,165.000005035401,4|8,3:0|0:0,0:0:0:0:
106,268,179377,1,0,0:0:0:0:
25,325,179577,2,0,P|11:274|15:226,1,82.5000025177003,0|0,3:0|0:0,0:0:0:0:
78,171,179977,2,0,P|92:120|88:72,1,82.5000025177003,8|0,0:0|0:0,0:0:0:0:
172,34,180377,6,0,P|194:98|289:153,1,165.000005035401,4|8,3:0|0:0,0:0:0:0:
371,162,180977,1,2,0:0:0:0:
312,242,181177,2,0,L|256:318,1,82.5000025177003,0|2,3:0|0:0,0:0:0:0:
209,224,181577,1,8,0:0:0:0:
153,305,181777,1,2,0:0:0:0:
56,282,181977,6,0,L|80:248,3,41.2500012588501,8|0|0|0,0:0|0:0|0:0|0:0,0:0:0:0:
110,209,182377,2,0,L|134:175,3,41.2500012588501,8|0|8|0,0:0|0:0|0:0|0:0,0:0:0:0:
162,134,182777,2,0,L|186:100,3,41.2500012588501,8|0|8|0,0:0|0:0|0:0|0:0,0:0:0:0:
216,61,183177,2,0,L|240:27,3,41.2500012588501,8|0|8|8,0:0|0:0|0:0|0:0,0:0:0:0:
289,26,183577,6,0,P|333:30|414:84,1,123.75000377655,4|0,3:2|0:0,0:0:0:0:
447,85,183977,2,0,P|393:99|365:127,1,82.5000025177003,8|2,0:0|0:0,0:0:0:0:
320,199,184377,2,0,L|302:161,2,41.2500012588501,0|2|2,3:0|0:0|0:0,0:0:0:0:
270,284,184777,2,0,L|233:209,1,82.5000025177003,8|2,0:0|0:0,0:0:0:0:
155,149,185177,6,0,P|84:161|-12:204,2,165.000005035401,4|10|0,3:0|0:0|3:0,0:0:0:0:
233,209,186177,1,0,0:0:0:0:
145,254,186377,2,0,P|131:307|131:344,1,82.5000025177003,8|2,0:0|0:0,0:0:0:0:
227,313,186777,6,0,P|295:303|361:259,1,123.75000377655,4|0,3:0|0:0,0:0:0:0:
390,288,187177,2,0,P|371:250|365:202,1,82.5000025177003,8|2,0:0|0:0,0:0:0:0:
363,111,187577,2,0,L|411:126,2,41.2500012588501,0|2|2,3:0|0:0|0:0,0:0:0:0:
444,53,187977,2,0,L|331:17,1,82.5000025177003,8|2,0:0|0:0,0:0:0:0:
267,44,188377,6,0,P|245:125|288:208,2,165.000005035401,4|10|0,3:0|0:0|3:0,0:0:0:0:
167,41,189377,1,0,0:0:0:0:
98,112,189577,2,0,P|138:140|171:180,1,82.5000025177003,8|0,0:0|0:0,0:0:0:0:
65,193,189977,6,0,P|73:252|132:348,1,165.000005035401,4|8,3:2|0:0,0:0:0:0:
201,278,190577,1,2,0:0:0:0:
240,368,190777,2,0,L|310:368,2,41.2500012588501,0|2|2,3:0|0:0|0:0,0:0:0:0:
305,292,191177,2,0,L|407:292,1,82.5000025177003,8|2,0:0|0:0,0:0:0:0:
466,231,191577,6,0,B|439:198|394:194|394:194|349:190|320:162,1,165.000005035401,4|8,3:0|0:0,0:0:0:0:
394,96,192177,1,0,0:0:0:0:
297,73,192377,2,0,P|256:97|231:138,1,82.5000025177003,0|0,3:0|0:0,0:0:0:0:
158,187,192777,2,0,P|199:211|224:252,1,82.5000025177003,8|0,0:0|0:0,0:0:0:0:
215,337,193177,6,0,P|233:284|315:199,1,165.000005035401,4|8,3:0|0:0,0:0:0:0:
398,171,193777,1,2,0:0:0:0:
477,229,193977,2,0,L|466:297,2,41.2500012588501,0|2|2,3:0|0:0|0:0,0:0:0:0:
493,130,194377,2,0,L|507:46,1,82.5000025177003,8|2,0:0|0:0,0:0:0:0:
408,59,194777,6,0,P|365:81|318:121,1,82.5000025177003,4|0,3:0|0:0,0:0:0:0:
239,119,195177,2,0,P|252:80|272:43,1,82.5000025177003,0|0,3:0|0:0,0:0:0:0:
174,57,195577,2,0,L|111:64,2,41.2500012588501,0|2|2,3:0|0:0|0:0,0:0:0:0:
118,139,195977,1,8,0:0:0:0:
60,218,196177,1,2,0:0:0:0:
60,218,196277,1,10,0:0:0:0:
60,218,196377,6,0,P|61:273|131:368,1,165.000005035401,4|8,3:0|0:0,0:0:0:0:
219,362,196977,1,2,0:0:0:0:
172,274,197177,2,0,L|172:224,2,41.2500012588501,0|2|2,3:0|0:0|0:0,0:0:0:0:
271,276,197577,2,0,L|271:165,1,82.5000025177003,8|2,0:0|0:0,0:0:0:0:
367,171,197977,6,0,L|369:338,1,165.000005035401,4|8,3:0|0:0,0:0:0:0:
459,295,198577,1,0,0:0:0:0:
460,196,198777,2,0,L|460:104,1,82.5000025177003,0|0,3:0|0:0,0:0:0:0:
369,71,199177,2,0,P|326:99|268:120,1,82.5000025177003,8|0,0:0|0:0,0:0:0:0:
250,199,199577,6,0,P|249:137|238:76,2,123.75000377655,4|2|2,3:0|0:0|0:0,0:0:0:0:
152,217,200377,2,0,P|141:277|140:339,2,123.75000377655,0|2|2,3:0|0:0|0:0,0:0:0:0:
81,147,201177,2,0,L|66:208,3,41.2500012588501,8|0|0|0,0:0|0:0|0:0|0:0,0:0:0:0:
58,235,201577,2,0,L|43:296,3,41.2500012588501,8|0|4|0,0:0|0:0|0:0|0:0,0:0:0:0:
34,323,201977,1,4,3:0:0:0:
129,296,202177,1,0,3:0:0:0:
197,354,202377,1,4,0:0:0:0:
256,192,202477,12,0,206777,0:0:0:0:
