osu file format v14

[General]
AudioFilename: audio.mp3
AudioLeadIn: 0
PreviewTime: 55114
Countdown: 0
SampleSet: Soft
StackLeniency: 0.5
Mode: 0
LetterboxInBreaks: 0
WidescreenStoryboard: 0

[Editor]
DistanceSpacing: 0.6
BeatDivisor: 8
GridSize: 32
TimelineZoom: 1.6

[Metadata]
Title:Mellow (TV Size)
TitleUnicode:メロウ (TV Size)
Artist:Suda Keina
ArtistUnicode:須田景凪
Creator:Pepekcz
Version:Extra
Source:スキップとローファー
Tags:crissa [-evil-] skip and loafer anime opening op 1 romance spring 2023 pop jpop j-pop japanese 岩倉 美津未 iwakura mitsumi 志摩 聡介 shima sousuke 江頭 ミカ egashira mika 村重 結月 murashige yuzuki 久留米 誠 kurume makoto male vocal vocalist
BeatmapID:4129563
BeatmapSetID:1987991

[Difficulty]
HPDrainRate:5
CircleSize:4.2
OverallDifficulty:9
ApproachRate:9.2
SliderMultiplier:2.48
SliderTickRate:1

[Events]
//Background and Video events
Video,-76,"video.mp4"
0,0,"bg.png",0,0
//Break Periods
//Storyboard Layer 0 (Background)
//Storyboard Layer 1 (Fail)
//Storyboard Layer 2 (Pass)
//Storyboard Layer 3 (Foreground)
//Storyboard Layer 4 (Overlay)
//Storyboard Sound Samples

[TimingPoints]
386,413.793103448276,4,2,1,30,1,0
1627,413.793103448276,4,2,1,40,1,0
1627,-200,4,2,1,40,0,0
8247,-142.857142857143,4,2,1,50,0,0
11558,-142.857142857143,4,2,1,60,0,0
13213,-142.857142857143,4,2,1,30,0,0
14040,-142.857142857143,4,2,1,40,0,0
14558,-142.857142857143,4,2,1,50,0,0
14661,-142.857142857143,4,2,1,60,0,0
14764,-142.857142857143,4,2,1,70,0,0
14868,-83.3333333333333,4,2,1,80,0,0
28109,-125,4,2,1,60,0,0
41351,-142.857142857143,4,2,1,50,0,0
47971,-111.111111111111,4,2,1,60,0,0
52937,-99.9999999999999,4,2,1,70,0,0
56247,-71.4285714285714,4,2,1,90,0,1
82730,-100,4,2,1,60,0,0
87695,-222.222222222222,4,2,1,50,0,0
92661,-222.222222222222,4,2,1,5,0,0

[Colours]
Combo1 : 124,191,213
Combo2 : 204,241,188
Combo3 : 146,100,97
Combo4 : 239,216,167

[HitObjects]
48,86,1627,5,0,0:0:0:0:
48,86,1833,1,0,0:0:0:0:
48,86,2040,1,0,0:0:0:0:
110,133,2247,1,2,0:0:0:0:
238,35,2454,5,2,0:0:0:0:
238,35,2660,1,0,0:0:0:0:
238,35,2867,1,2,0:0:0:0:
166,75,3074,1,2,0:0:0:0:
301,202,3282,5,0,0:0:0:0:
301,202,3488,1,0,0:0:0:0:
301,202,3695,1,0,0:0:0:0:
240,142,3902,1,2,0:0:0:0:
242,129,4006,1,0,0:0:0:0:
244,116,4109,1,2,0:0:0:0:
122,160,4316,5,2,0:0:0:0:
122,160,4523,1,0,0:0:0:0:
181,230,4730,1,2,0:0:0:0:
86,321,4937,2,0,P|54:313|10:303,1,62,2|0,0:0|0:0,0:0:0:0:
194,297,5351,2,0,P|184:265|171:222,1,62,2|0,0:0|0:0,0:0:0:0:
263,344,5764,2,0,P|285:320|316:287,1,62,2|0,0:0|0:0,0:0:0:0:
252,208,6178,1,2,0:0:0:0:
181,230,6385,1,2,0:0:0:0:
259,116,6592,5,2,0:0:0:0:
340,142,6799,1,0,0:0:0:0:
314,290,7006,1,2,0:0:0:0:
252,208,7213,1,0,0:0:0:0:
412,97,7420,1,2,0:0:0:0:
329,214,7627,1,2,0:0:0:0:
395,270,7833,1,2,0:0:0:0:
372,339,8040,1,2,0:0:0:0:
512,174,8247,5,2,1:2:0:0:
412,97,8454,2,0,P|328:119|231:163,1,173.599994702149,2|2,0:0|0:0,0:0:0:0:
140,226,9075,5,2,1:2:0:0:
97,167,9282,1,2,0:0:0:0:
171,103,9489,1,2,1:2:0:0:
62,233,9695,1,2,0:0:0:0:
200,379,9902,5,0,1:2:0:0:
262,330,10109,2,0,P|270:290|286:234,1,86.7999973510743,2|0,0:0|1:2,0:0:0:0:
140,226,10523,2,0,P|151:267|160:310,1,86.7999973510743,2|0,0:0|1:2,0:0:0:0:
300,149,10937,5,2,0:0:0:0:
214,199,11144,1,2,1:2:0:0:
156,152,11351,1,2,0:0:0:0:
361,248,11558,5,0,1:2:0:0:
498,162,11764,1,2,0:0:0:0:
405,121,11971,1,2,1:2:0:0:
354,171,12178,1,2,0:0:0:0:
495,341,12385,5,0,1:2:0:0:
370,250,12592,1,2,0:0:0:0:
211,364,12799,1,0,1:2:0:0:
245,364,12902,1,0,0:0:0:0:
267,337,13006,1,2,0:0:0:0:
257,303,13109,1,0,0:0:0:0:
146,206,13316,5,2,0:0:0:0:
143,214,13420,2,0,L|154:268,1,43.3999986755371,2|0,0:0|0:0,0:0:0:0:
211,150,13627,2,0,P|220:192|228:234,1,86.7999973510743,2|2,0:0|0:0,0:0:0:0:
317,170,13937,5,2,0:0:0:0:
314,178,14040,2,0,L|331:263,1,86.7999973510743,6|2,1:3|0:0,0:0:0:0:
462,349,14351,5,6,1:3:0:0:
462,349,14454,1,2,1:2:0:0:
412,332,14558,1,2,1:2:0:0:
402,281,14661,1,6,1:3:0:0:
440,246,14764,1,6,1:3:0:0:
489,261,14868,6,0,P|493:199|513:108,1,148.799995458985,6|0,1:2|0:0,0:0:0:0:
368,69,15178,1,8,0:2:0:0:
295,87,15282,2,0,P|251:156|344:136,1,223.199993188477,2|0,1:2|0:0,0:0:0:0:
512,15,15695,6,0,P|429:29|366:65,1,148.799995458985,2|0,1:2|0:0,0:0:0:0:
185,208,16006,1,10,0:2:0:0:
116,175,16109,2,0,P|99:145|101:105,1,74.3999977294923,2|0,1:2|0:0,0:0:0:0:
236,146,16316,2,0,P|238:109|221:76,1,74.3999977294923,8|0,0:2|0:0,0:0:0:0:
192,362,16523,6,0,B|215:329|208:291|208:291|215:329|251:350,1,148.799995458985,2|0,1:2|0:0,0:0:0:0:
185,208,16833,1,10,0:2:0:0:
116,175,16937,2,0,P|84:185|29:214,1,74.3999977294923,2|0,1:2|0:0,0:0:0:0:
264,234,17144,2,0,P|296:244|351:273,1,74.3999977294923,10|0,0:2|0:0,0:0:0:0:
62,277,17351,2,0,P|41:248|51:197,1,74.3999977294923,2|0,1:2|0:0,0:0:0:0:
128,41,17558,5,0,0:0:0:0:
157,36,17661,1,8,0:2:0:0:
181,52,17764,1,2,1:2:0:0:
215,118,17868,1,8,1:3:0:0:
162,169,17971,1,8,0:2:0:0:
89,150,18075,1,4,0:3:0:0:
65,79,18178,6,0,P|121:43|205:48,1,148.799995458985,6|0,1:2|0:0,0:0:0:0:
338,129,18489,1,8,0:2:0:0:
418,146,18592,2,0,P|483:86|392:79,1,223.199993188477,2|0,1:2|0:0,0:0:0:0:
204,237,19006,6,0,P|276:252|343:284,1,148.799995458985,2|0,1:2|0:0,0:0:0:0:
473,345,19316,1,10,0:2:0:0:
428,276,19420,2,0,B|429:238|429:238|453:266,1,74.3999977294923,2|0,1:2|0:0,0:0:0:0:
260,337,19627,2,0,B|261:374|261:374|285:346,1,74.3999977294923,8|0,0:2|0:0,0:0:0:0:
417,146,19833,6,0,P|344:153|272:173,1,148.799995458985,2|0,1:2|0:0,0:0:0:0:
102,256,20144,1,10,0:2:0:0:
38,204,20247,2,0,P|57:174|96:163,1,74.3999977294923,2|0,1:2|0:0,0:0:0:0:
94,77,20454,2,0,P|129:78|158:106,1,74.3999977294923,10|0,0:2|0:0,0:0:0:0:
221,223,20661,5,2,1:2:0:0:
217,244,20764,1,8,0:2:0:0:
213,266,20868,1,0,0:0:0:0:
209,287,20971,1,8,0:2:0:0:
205,309,21075,5,2,1:2:0:0:
259,359,21178,1,0,1:2:0:0:
328,331,21282,1,8,1:3:0:0:
324,257,21385,1,8,1:3:0:0:
252,236,21489,6,0,B|170:265|170:265|152:310|152:310|64:344,1,223.199993188477,6|8,1:2|0:2,0:0:0:0:
3,123,21902,2,0,P|37:132|66:167,1,74.3999977294923,0|0,1:2|0:0,0:0:0:0:
166,115,22109,2,0,P|175:148|159:191,1,74.3999977294923,8|0,0:2|0:0,0:0:0:0:
2,304,22316,6,0,B|30:314|30:314|41:327|41:327|66:336,1,74.3999977294923,2|0,1:2|0:0,0:0:0:0:
252,236,22523,1,0,0:0:0:0:
248,221,22627,1,8,0:2:0:0:
244,206,22730,2,0,P|252:165|263:124,1,74.3999977294923,0|0,1:2|0:0,0:0:0:0:
79,16,22937,2,0,P|87:52|95:88,1,74.3999977294923,8|0,0:2|0:0,0:0:0:0:
214,306,23144,6,0,P|258:249|334:268,1,148.799995458985,6|0,1:2|0:0,0:0:0:0:
438,371,23454,1,8,0:2:0:0:
423,369,23558,2,0,P|390:344|386:304,1,74.3999977294923,0|0,1:2|0:0,0:0:0:0:
370,166,23764,2,0,P|403:190|406:230,1,74.3999977294923,8|0,0:2|0:0,0:0:0:0:
210,314,23971,6,0,P|196:232|174:158,1,148.799995458985,2|0,1:2|0:0,0:0:0:0:
331,249,24282,1,8,0:2:0:0:
335,234,24385,2,0,P|343:198|354:162,1,74.3999977294923,2|0,1:2|0:0,0:0:0:0:
170,161,24592,2,0,P|162:125|150:89,1,74.3999977294923,8|0,0:2|0:0,0:0:0:0:
412,39,24799,6,0,B|439:13|439:13|433:49,1,74.3999977294923,6|0,1:2|0:0,0:0:0:0:
177,169,25006,2,0,B|204:195|204:195|198:158,1,74.3999977294923,0|0,1:2|0:0,0:0:0:0:
278,15,25213,5,2,1:2:0:0:
315,13,25316,1,8,1:3:0:0:
337,42,25420,1,0,0:0:0:0:
329,78,25523,1,0,0:0:0:0:
296,97,25627,2,0,P|260:85|225:77,1,74.3999977294923,6|0,1:2|0:0,0:0:0:0:
19,33,25833,5,0,0:0:0:0:
36,47,25937,1,8,0:2:0:0:
42,68,26040,1,2,1:2:0:0:
11,128,26144,1,8,1:3:0:0:
33,190,26247,1,8,0:2:0:0:
98,204,26351,1,4,1:3:0:0:
148,160,26454,6,0,P|128:114|132:83,1,74.3999977294923,6|0,1:2|0:0,0:0:0:0:
337,42,26661,1,8,0:2:0:0:
397,84,26764,1,10,0:2:0:0:
395,158,26868,1,8,0:2:0:0:
329,192,26971,2,0,P|283:174|254:169,1,74.3999977294923,10|2,0:2|0:0,0:0:0:0:
68,282,27178,5,2,1:2:0:0:
119,337,27282,2,0,P|165:319|194:314,1,74.3999977294923,10|2,0:2|0:0,0:0:0:0:
377,249,27489,5,2,0:0:0:0:
329,192,27592,1,2,0:0:0:0:
261,221,27695,1,2,1:2:0:0:
242,261,27799,1,2,0:0:0:0:
256,302,27902,1,2,0:0:0:0:
282,315,28006,1,2,0:0:0:0:
296,311,28109,6,0,P|342:324|394:349,1,99.2,2|0,1:2|0:0,0:0:0:0:
449,301,28420,1,8,0:2:0:0:
458,298,28523,1,2,1:2:0:0:
398,178,28730,1,2,1:2:0:0:
508,66,28937,1,2,1:2:0:0:
473,135,29144,1,10,1:3:0:0:
402,91,29351,1,0,1:2:0:0:
255,156,29558,5,2,1:2:0:0:
257,165,29661,1,0,0:0:0:0:
260,174,29764,2,0,L|273:119,1,49.6,0|0,1:2|0:0,0:0:0:0:
179,127,29971,5,2,0:0:0:0:
181,136,30074,1,8,0:2:0:0:
184,145,30177,2,0,L|197:90,1,49.6,0|0,1:2|0:0,0:0:0:0:
85,195,30385,5,10,0:2:0:0:
85,195,30592,1,0,1:2:0:0:
175,306,30799,1,10,1:3:0:0:
184,303,30902,1,0,1:2:0:0:
193,300,31006,2,0,L|241:312,1,49.6,2|8,1:2|0:2,0:0:0:0:
211,228,31213,2,0,L|259:240,1,49.6,2|0,1:2|0:0,0:0:0:0:
108,371,31420,6,0,P|96:318|81:260,1,99.2,0|0,1:2|0:0,0:0:0:0:
11,232,31730,1,8,0:2:0:0:
13,222,31833,1,0,1:2:0:0:
143,213,32040,6,0,P|155:160|170:102,1,99.2,0|0,1:2|1:2,0:0:0:0:
9,123,32454,1,8,1:3:0:0:
85,75,32661,1,2,1:2:0:0:
147,221,32868,6,0,P|209:236|260:255,1,99.2,2|0,1:2|1:2,0:0:0:0:
356,141,33282,1,2,0:0:0:0:
346,143,33385,1,0,0:0:0:0:
335,145,33489,2,0,P|310:150|286:157,1,49.6,0|0,1:2|0:0,0:0:0:0:
417,265,33695,2,0,P|422:240|428:216,1,49.6,10|0,0:2|0:0,0:0:0:0:
282,165,33902,2,0,P|257:159|233:152,1,49.6,0|0,1:2|0:0,0:0:0:0:
376,20,34109,5,8,0:2:0:0:
390,20,34213,1,0,0:0:0:0:
402,28,34316,1,0,1:2:0:0:
413,76,34420,1,8,1:2:0:0:
444,113,34523,1,0,1:2:0:0:
492,100,34627,1,0,0:0:0:0:
499,51,34730,5,2,1:2:0:0:
374,142,34937,1,2,0:0:0:0:
304,31,35144,1,2,1:2:0:0:
445,188,35351,1,10,0:2:0:0:
342,299,35558,1,2,1:2:0:0:
276,245,35764,1,10,1:3:0:0:
379,228,35971,1,2,1:2:0:0:
461,301,36178,1,2,0:0:0:0:
286,165,36385,6,0,P|214:186|147:217,1,148.8,2|8,1:2|0:2,0:0:0:0:
76,190,36799,1,2,1:2:0:0:
179,369,37006,2,0,P|188:320|201:272,1,99.2,10|0,0:2|1:2,0:0:0:0:
69,184,37420,1,8,1:2:0:0:
168,45,37627,5,2,1:2:0:0:
207,40,37730,1,8,1:2:0:0:
235,67,37833,1,2,0:0:0:0:
229,106,37937,1,0,0:0:0:0:
196,129,38040,2,0,B|257:142|257:142|279:168|279:168|333:179,1,148.8,0|0,1:2|0:0,0:0:0:0:
408,137,38454,1,2,1:2:0:0:
261,253,38661,6,0,P|212:262|159:282,1,99.2,10|0,0:2|1:2,0:0:0:0:
49,206,39075,1,10,1:3:0:0:
231,334,39282,1,0,1:2:0:0:
249,340,39385,1,8,0:2:0:0:
267,348,39489,1,2,0:0:0:0:
285,354,39592,1,0,0:0:0:0:
302,363,39695,6,0,P|330:352|359:346,1,49.6,4|0,1:2|0:0,0:0:0:0:
473,253,39902,1,0,0:0:0:0:
467,261,40006,1,8,0:2:0:0:
461,269,40109,2,0,L|475:325,1,49.6,0|0,1:2|0:0,0:0:0:0:
357,224,40316,1,0,1:2:0:0:
430,129,40523,1,8,1:2:0:0:
311,34,40730,5,8,1:3:0:0:
296,34,40833,1,0,0:0:0:0:
285,44,40937,1,10,0:2:0:0:
269,90,41040,1,8,0:2:0:0:
230,121,41144,1,8,1:3:0:0:
185,99,41247,1,4,1:3:0:0:
188,49,41351,6,0,P|212:132|226:217,1,173.599994702149,6|0,1:2|1:2,0:0:0:0:
149,317,41971,1,2,0:0:0:0:
302,166,42178,2,0,P|311:208|318:251,1,86.7999973510743,2|0,1:2|0:0,0:0:0:0:
321,264,42489,1,0,1:2:0:0:
323,276,42592,1,0,1:2:0:0:
226,217,42799,1,10,0:2:0:0:
420,365,43006,6,0,P|434:279|458:196,1,173.599994702149,2|0,1:2|1:2,0:0:0:0:
330,69,43627,1,2,0:0:0:0:
366,235,43833,1,2,1:2:0:0:
368,222,43937,1,0,0:0:0:0:
370,209,44040,1,0,0:0:0:0:
373,196,44144,1,0,1:2:0:0:
375,183,44247,2,0,L|366:129,1,43.3999986755371,0|0,1:2|0:0,0:0:0:0:
297,203,44454,2,0,L|288:149,1,43.3999986755371,10|0,0:2|0:0,0:0:0:0:
165,270,44661,6,0,P|244:256|278:329,1,173.599994702149,2|0,1:2|1:2,0:0:0:0:
139,358,45282,1,2,0:0:0:0:
58,231,45489,2,0,P|79:195|131:183,1,86.7999973510743,2|0,1:2|0:0,0:0:0:0:
132,186,45799,1,0,1:2:0:0:
142,194,45902,1,0,1:2:0:0:
30,311,46109,1,10,0:2:0:0:
201,143,46316,6,0,P|242:148|381:194,1,173.599994702149,2|0,1:2|1:2,0:0:0:0:
485,118,46937,1,2,0:0:0:0:
376,278,47144,1,2,1:2:0:0:
357,289,47247,1,0,0:0:0:0:
335,289,47351,1,0,0:0:0:0:
318,274,47454,1,0,1:2:0:0:
310,253,47558,5,0,1:2:0:0:
267,232,47661,1,8,1:2:0:0:
226,256,47764,1,10,1:3:0:0:
220,303,47868,1,0,0:0:0:0:
251,338,47972,6,0,P|276:342|314:353,1,55.7999982971192,6|0,1:2|0:0,0:0:0:0:
135,259,48178,1,2,0:0:0:0:
129,274,48282,1,8,0:2:0:0:
125,290,48385,2,0,L|142:361,1,55.7999982971192,0|0,1:2|0:0,0:0:0:0:
275,223,48592,6,0,P|210:212|230:129,1,167.399994891358,8|0,0:2|0:0,0:0:0:0:
311,142,49006,1,8,0:2:0:0:
193,30,49213,1,0,1:2:0:0:
287,229,49420,2,0,P|342:240|409:268,1,111.599996594238,8|0,0:2|1:2,0:0:0:0:
473,43,49833,1,0,0:0:0:0:
456,47,49937,1,8,0:2:0:0:
440,54,50040,2,0,P|427:87|429:117,1,55.7999982971192,0|0,1:2|0:0,0:0:0:0:
476,250,50247,6,0,B|422:265|422:265|396:303|396:303|329:324,1,167.399994891358,4|0,1:2|0:0,0:0:0:0:
267,270,50661,1,8,0:2:0:0:
118,308,50868,1,0,1:2:0:0:
120,318,50971,1,8,0:2:0:0:
122,328,51075,2,0,L|134:395,1,55.7999982971192,8|0,0:2|0:0,0:0:0:0:
236,202,51282,5,4,1:2:0:0:
155,133,51489,1,0,0:0:0:0:
153,143,51592,1,8,0:2:0:0:
151,153,51696,2,0,L|139:220,1,55.7999982971192,0|0,1:2|0:0,0:0:0:0:
326,298,51902,5,4,1:2:0:0:
260,345,52109,1,0,1:2:0:0:
74,246,52316,1,8,0:2:0:0:
72,234,52420,1,0,0:0:0:0:
69,223,52523,5,0,1:2:0:0:
33,195,52627,1,8,0:2:0:0:
37,150,52730,1,8,0:2:0:0:
77,131,52833,1,0,0:0:0:0:
120,156,52937,5,4,1:2:0:0:
170,191,53040,1,0,0:0:0:0:
229,172,53144,1,0,0:0:0:0:
237,110,53247,1,8,0:2:0:0:
189,69,53351,1,0,1:2:0:0:
11,372,53558,6,0,P|96:335|187:317,1,186,4|8,1:2|1:3,0:0:0:0:
319,342,53971,1,0,1:2:0:0:
369,305,54075,1,4,1:3:0:0:
369,243,54178,1,4,1:3:0:0:
314,212,54282,1,0,0:0:0:0:
262,245,54385,6,0,P|338:233|323:126,1,186,4|0,1:2|0:0,0:0:0:0:
183,44,54799,2,0,P|177:73|171:116,1,62,8|0,1:2|0:0,0:0:0:0:
423,121,55006,2,0,P|428:150|435:193,1,62,8|0,1:2|0:0,0:0:0:0:
433,182,56247,6,0,P|354:160|374:210,1,173.599994702149,4|0,1:2|0:0,0:0:0:0:
468,362,56558,1,8,0:2:0:0:
441,291,56661,2,0,P|424:264|428:295,1,86.7999973510743,0|0,1:2|0:0,0:0:0:0:
275,371,56868,2,0,P|282:325|293:279,1,86.7999973510743,10|0,0:2|0:0,0:0:0:0:
151,146,57075,6,0,P|72:124|92:174,1,173.599994702149,2|0,1:2|0:0,0:0:0:0:
186,327,57386,1,8,0:2:0:0:
159,256,57489,2,0,P|142:229|146:260,1,86.7999973510743,2|0,1:2|0:0,0:0:0:0:
27,358,57695,2,0,P|10:384|14:353,1,86.7999973510743,10|0,0:2|0:0,0:0:0:0:
225,139,57902,6,0,B|290:157|290:157|311:192|311:192|390:211,1,173.599994702149,0|0,1:2|0:0,0:0:0:0:
493,79,58213,1,8,0:2:0:0:
435,15,58316,2,0,P|412:52|412:95,1,86.7999973510743,0|0,1:2|0:0,0:0:0:0:
312,154,58523,2,0,P|332:191|369:213,1,86.7999973510743,10|0,0:2|0:0,0:0:0:0:
489,333,58730,6,0,P|441:342|387:360,1,86.7999973510743,2|0,1:2|0:0,0:0:0:0:
169,302,58937,1,2,0:0:0:0:
233,244,59040,1,8,0:2:0:0:
257,327,59144,2,0,P|218:331|178:305,1,86.7999973510743,0|0,1:2|0:0,0:0:0:0:
34,374,59351,2,0,P|11:342|13:294,1,86.7999973510743,10|0,0:2|0:0,0:0:0:0:
310,264,59558,6,0,P|321:182|338:92,1,173.599994702149,2|0,1:2|0:0,0:0:0:0:
198,19,59868,1,8,0:2:0:0:
132,75,59971,2,0,P|159:107|201:115,1,86.7999973510743,2|0,1:2|0:0,0:0:0:0:
404,43,60178,2,0,P|362:50|334:83,1,86.7999973510743,8|0,0:2|0:0,0:0:0:0:
439,215,60385,6,0,P|498:220|445:203,1,173.599994702149,2|0,1:2|0:0,0:0:0:0:
228,230,60695,1,8,0:2:0:0:
289,179,60799,2,0,P|300:219|311:272,1,86.7999973510743,2|0,1:2|0:0,0:0:0:0:
153,369,61006,2,0,P|143:326|132:284,1,86.7999973510743,10|0,0:2|0:0,0:0:0:0:
20,86,61213,6,0,B|51:93|51:93|68:109|68:109|102:121,1,86.7999973510743,2|0,1:2|0:0,0:0:0:0:
240,55,61420,2,0,B|271:48|271:48|288:32|288:32|322:20,1,86.7999973510743,2|8,0:0|0:2,0:0:0:0:
109,131,61627,6,0,B|140:138|140:138|157:154|157:154|191:166,1,86.7999973510743,2|0,1:2|0:0,0:0:0:0:
435,15,61833,2,0,P|406:141|384:270,1,260.399992053223,10|0,0:2|0:0,0:0:0:0:
215,372,62247,5,2,0:0:0:0:
156,307,62351,1,8,0:2:0:0:
211,240,62454,2,0,P|253:244|287:270,1,86.7999973510743,0|0,1:2|0:0,0:0:0:0:
428,371,62661,2,0,P|385:366|351:340,1,86.7999973510743,10|0,0:2|0:0,0:0:0:0:
494,132,62868,6,0,P|500:175|507:228,1,86.7999973510743,6|0,1:2|0:0,0:0:0:0:
277,104,63075,1,2,0:0:0:0:
339,43,63178,1,8,0:2:0:0:
415,84,63282,2,0,P|408:127|402:180,1,86.7999973510743,0|0,1:2|0:0,0:0:0:0:
256,14,63489,2,0,P|262:57|269:110,1,86.7999973510743,10|0,0:2|0:0,0:0:0:0:
142,264,63695,6,0,P|168:230|209:223,1,86.7999973510743,2|0,1:2|0:0,0:0:0:0:
353,349,63902,2,0,P|310:343|283:310,1,86.7999973510743,2|8,0:0|0:2,0:0:0:0:
344,135,64109,2,0,P|359:174|345:214,1,86.7999973510743,2|0,1:2|0:0,0:0:0:0:
155,72,64316,6,0,B|151:30|151:30|185:63,1,86.7999973510743,10|0,0:2|0:0,0:0:0:0:
216,214,64523,2,0,P|215:153|145:193,1,173.599994702149,4|2,1:2|0:0,0:0:0:0:
47,304,64833,1,8,0:2:0:0:
104,355,64937,2,0,P|143:337|186:328,1,86.7999973510743,0|0,1:2|0:0,0:0:0:0:
135,198,65144,2,0,P|177:207|217:224,1,86.7999973510743,10|0,0:2|0:0,0:0:0:0:
379,358,65351,6,0,P|420:352|442:316,1,86.7999973510743,0|0,1:2|0:0,0:0:0:0:
286,138,65558,1,2,0:0:0:0:
355,86,65661,1,8,0:2:0:0:
422,138,65764,2,0,P|411:180|404:222,1,86.7999973510743,2|0,1:2|0:0,0:0:0:0:
286,138,65971,2,0,P|296:180|303:222,1,86.7999973510743,10|0,0:2|0:0,0:0:0:0:
512,29,66178,6,0,P|501:71|494:113,1,86.7999973510743,4|0,1:2|0:0,0:0:0:0:
344,362,66385,1,2,0:0:0:0:
275,308,66489,1,8,0:2:0:0:
313,230,66592,2,0,P|353:212|403:223,1,86.7999973510743,2|0,1:2|0:0,0:0:0:0:
210,377,66799,2,0,P|182:345|188:295,1,86.7999973510743,10|0,0:2|0:0,0:0:0:0:
294,141,67006,6,0,P|322:109|316:59,1,86.7999973510743,0|0,1:2|0:0,0:0:0:0:
141,197,67213,2,0,P|181:215|231:204,1,86.7999973510743,2|8,0:0|0:2,0:0:0:0:
108,24,67420,2,0,P|80:56|86:106,1,86.7999973510743,0|0,1:2|0:0,0:0:0:0:
231,206,67627,2,0,P|259:238|253:288,1,86.7999973510743,10|0,0:2|0:0,0:0:0:0:
13,353,67833,6,0,P|88:315|181:306,1,173.599994702149,4|0,1:2|0:0,0:0:0:0:
413,367,68144,1,8,0:2:0:0:
352,321,68247,2,0,P|336:302|346:242,1,86.7999973510743,0|0,1:2|0:0,0:0:0:0:
481,105,68454,2,0,P|441:88|395:73,1,86.7999973510743,6|0,1:2|0:0,0:0:0:0:
198,216,68661,1,2,1:2:0:0:
130,176,68764,1,8,0:2:0:0:
130,97,68868,1,2,1:2:0:0:
200,64,68971,1,0,1:2:0:0:
268,102,69075,5,2,1:2:0:0:
324,167,69178,1,8,1:2:0:0:
408,143,69282,1,10,1:3:0:0:
428,59,69385,1,4,1:3:0:0:
356,9,69489,6,0,P|301:18|362:78,1,173.599994702149,4|0,1:2|0:0,0:0:0:0:
512,182,69799,1,8,0:2:0:0:
443,149,69902,2,0,P|411:147|438:161,1,86.7999973510743,0|0,1:2|0:0,0:0:0:0:
499,303,70109,2,0,P|530:301|503:315,1,86.7999973510743,10|0,0:2|0:0,0:0:0:0:
262,219,70316,6,0,P|269:174|281:128,1,86.7999973510743,2|0,1:2|0:0,0:0:0:0:
154,42,70523,1,2,0:0:0:0:
82,91,70627,1,8,0:2:0:0:
124,166,70730,2,0,B|138:187|138:206|138:206|140:187|161:167,1,86.7999973510743,2|0,1:2|0:0,0:0:0:0:
242,51,70937,2,0,B|256:30|256:11|256:11|258:30|279:50,1,86.7999973510743,10|0,0:2|0:0,0:0:0:0:
62,233,71144,6,0,B|124:242|124:242|157:271|157:271|228:287,1,173.599994702149,0|0,1:2|0:0,0:0:0:0:
387,358,71454,1,8,0:2:0:0:
447,310,71558,2,0,P|418:277|378:271,1,86.7999973510743,0|0,1:2|0:0,0:0:0:0:
325,140,71764,2,0,P|281:148|256:180,1,86.7999973510743,10|0,0:2|0:0,0:0:0:0:
76,326,71971,6,0,P|68:283|57:241,1,86.7999973510743,2|0,1:2|0:0,0:0:0:0:
153,136,72178,1,2,0:0:0:0:
126,53,72281,1,8,0:2:0:0:
66,117,72385,2,0,P|97:139|145:137,1,86.7999973510743,0|0,1:2|0:0,0:0:0:0:
303,28,72592,2,0,P|260:25|225:49,1,86.7999973510743,10|0,0:2|0:0,0:0:0:0:
406,195,72799,6,0,B|449:221|458:260|458:260|449:221|480:177,1,173.599994702149,2|0,1:2|0:0,0:0:0:0:
402,12,73109,1,8,0:2:0:0:
424,87,73213,2,0,P|426:118|410:90,1,86.7999973510743,2|0,1:2|0:0,0:0:0:0:
225,49,73420,2,0,P|227:17|211:45,1,86.7999973510743,8|0,0:2|0:0,0:0:0:0:
86,210,73627,6,0,B|42:236|33:275|33:275|42:236|11:192,1,173.599994702149,2|0,1:2|0:0,0:0:0:0:
90,27,73937,1,8,0:2:0:0:
68,102,74041,2,0,P|65:133|81:105,1,86.7999973510743,2|0,1:2|0:0,0:0:0:0:
234,45,74247,2,0,P|231:13|247:41,1,86.7999973510743,10|0,0:2|0:0,0:0:0:0:
364,218,74454,6,0,P|325:230|278:255,1,86.7999973510743,2|0,1:2|0:0,0:0:0:0:
172,137,74661,2,0,P|133:117|92:104,1,86.7999973510743,2|8,0:0|0:2,0:0:0:0:
281,263,74868,2,0,P|242:275|195:300,1,86.7999973510743,2|0,1:2|0:0,0:0:0:0:
81,105,75075,2,0,P|42:85|1:72,1,86.7999973510743,10|0,0:2|0:0,0:0:0:0:
190,304,75282,6,0,P|187:335|203:307,1,86.7999973510743,2|0,1:2|0:0,0:0:0:0:
371,150,75489,1,0,0:0:0:0:
312,86,75592,1,8,0:2:0:0:
242,137,75695,2,0,P|239:168|255:140,1,86.7999973510743,2|0,1:2|0:0,0:0:0:0:
387,274,75902,2,0,P|374:315|365:357,1,86.7999973510743,10|0,0:2|0:0,0:0:0:0:
133,220,76109,6,0,P|174:207|216:198,1,86.7999973510743,6|0,1:2|0:0,0:0:0:0:
383,23,76316,1,2,0:0:0:0:
435,92,76420,1,8,0:2:0:0:
371,150,76523,2,0,P|329:137|287:128,1,86.7999973510743,0|0,1:2|0:0,0:0:0:0:
152,19,76730,2,0,P|109:28|68:40,1,86.7999973510743,10|0,0:2|0:0,0:0:0:0:
155,253,76937,6,0,P|187:225|192:183,1,86.7999973510743,2|0,1:2|0:0,0:0:0:0:
59,46,77144,2,0,P|67:88|101:113,1,86.7999973510743,2|8,0:0|0:2,0:0:0:0:
313,53,77351,2,0,P|273:40|234:56,1,86.7999973510743,2|0,1:2|0:0,0:0:0:0:
16,225,77558,6,0,B|114:248|114:248|155:293|155:293|250:316,1,260.399992053223,10|0,0:2|0:0,0:0:0:0:
448,262,77971,1,2,0:0:0:0:
390,196,78075,1,8,0:2:0:0:
317,242,78178,2,0,B|325:276|325:276|325:293|325:293|333:330,1,86.7999973510743,0|0,1:2|0:0,0:0:0:0:
382,109,78385,6,0,B|446:68|461:8|461:8|446:68|490:130,1,260.399992053223,10|0,0:2|0:0,0:0:0:0:
446,275,78799,1,0,0:0:0:0:
369,314,78903,1,8,0:2:0:0:
317,242,79006,2,0,P|281:219|232:222,1,86.7999973510743,2|0,1:2|0:0,0:0:0:0:
106,352,79213,2,0,P|148:352|184:329,1,86.7999973510743,10|0,0:2|0:0,0:0:0:0:
73,130,79420,6,0,P|52:214|38:299,1,173.599994702149,4|0,1:2|0:0,0:0:0:0:
238,219,79730,1,8,0:2:0:0:
172,173,79833,2,0,P|163:215|157:258,1,86.7999973510743,2|0,1:2|0:0,0:0:0:0:
296,338,80040,2,0,P|302:295|310:252,1,86.7999973510743,10|0,0:2|0:0,0:0:0:0:
461,11,80247,6,0,P|482:95|496:180,1,173.599994702149,0|0,1:2|0:0,0:0:0:0:
296,100,80557,1,8,0:2:0:0:
362,54,80660,2,0,P|370:96|376:139,1,86.7999973510743,2|0,1:2|0:0,0:0:0:0:
238,219,80867,2,0,P|231:176|223:133,1,86.7999973510743,10|0,0:2|0:0,0:0:0:0:
18,64,81075,6,0,P|84:21|73:94,1,173.599994702149,4|0,1:2|0:0,0:0:0:0:
32,213,81385,1,8,0:2:0:0:
93,266,81489,2,0,P|135:270|172:248,1,86.7999973510743,0|0,1:2|0:0,0:0:0:0:
357,47,81695,6,0,P|433:39|485:117,1,173.599994702149,4|0,1:2|0:0,0:0:0:0:
415,254,82006,1,8,0:2:0:0:
343,212,82109,2,0,P|337:169|327:126,1,86.7999973510743,2|0,1:2|0:0,0:0:0:0:
179,252,82316,2,0,P|184:209|194:166,1,86.7999973510743,2|0,1:2|0:0,0:0:0:0:
281,301,82523,2,0,P|275:258|265:215,1,86.7999973510743,10|0,1:3|0:0,0:0:0:0:
226,357,82730,5,2,1:2:0:0:
276,294,82937,1,2,0:0:0:0:
184,246,83144,5,0,1:2:0:0:
258,216,83351,1,2,0:0:0:0:
211,123,83558,5,2,1:2:0:0:
290,134,83765,1,2,0:0:0:0:
303,46,83971,5,2,1:2:0:0:
365,95,84178,1,2,0:0:0:0:
290,141,84385,5,0,1:2:0:0:
211,130,84592,1,2,0:0:0:0:
261,225,84799,5,0,1:2:0:0:
187,255,85006,1,2,0:0:0:0:
283,300,85213,5,0,1:2:0:0:
233,363,85420,1,0,0:0:0:0:
225,359,85523,1,8,1:2:0:0:
216,355,85627,1,2,1:2:0:0:
287,309,85833,1,2,0:0:0:0:
187,255,86040,5,0,1:2:0:0:
109,268,86247,1,0,0:0:0:0:
237,183,86454,5,2,1:2:0:0:
302,231,86661,1,2,0:0:0:0:
160,160,86868,5,0,1:2:0:0:
192,234,87075,5,2,0:0:0:0:
203,206,87282,1,2,1:2:0:0:
172,210,87489,1,2,0:0:0:0:
190,219,87695,6,0,B|234:155|162:103|94:134|113:211|113:211|74:137|26:150|-55:216|20:288|83:297|84:294|86:293|140:297|160:376|160:376|283:334|338:241|416:141|405:72|369:8|272:3|264:104|264:104|254:13|153:19|142:99|194:142,1,1339.19995913086,4|0,1:2|0:0,0:0:0:0:
