osu file format v14

[General]
AudioFilename: audio.mp3
AudioLeadIn: 0
PreviewTime: 55114
Countdown: 0
SampleSet: Soft
StackLeniency: 0.5
Mode: 0
LetterboxInBreaks: 0
WidescreenStoryboard: 1

[Editor]
Bookmarks: 82735
DistanceSpacing: 0.9
BeatDivisor: 4
GridSize: 32
TimelineZoom: 1.6

[Metadata]
Title:Mellow (TV Size)
TitleUnicode:メロウ (TV Size)
Artist:Suda Keina
ArtistUnicode:須田景凪
Creator:Pepekcz
Version:Evil's Hard
Source:スキップとローファー
Tags:crissa [-evil-] skip and loafer anime opening op 1 romance spring 2023 pop jpop j-pop japanese 岩倉 美津未 iwakura mitsumi 志摩 聡介 shima sousuke 江頭 ミカ egashira mika 村重 結月 murashige yuzuki 久留米 誠 kurume makoto male vocal vocalist
BeatmapID:4129562
BeatmapSetID:1987991

[Difficulty]
HPDrainRate:4.5
CircleSize:4
OverallDifficulty:7
ApproachRate:8
SliderMultiplier:1.78
SliderTickRate:1

[Events]
//Background and Video events
Video,-76,"video.mp4"
0,0,"bg.png",0,0
//Break Periods
//Storyboard Layer 0 (Background)
//Storyboard Layer 1 (Fail)
//Storyboard Layer 2 (Pass)
//Storyboard Layer 3 (Foreground)
//Storyboard Layer 4 (Overlay)
//Storyboard Sound Samples

[TimingPoints]
386,413.793103448276,4,2,1,30,1,0
1627,413.793103448276,4,2,1,40,1,0
1627,-100,4,2,1,40,0,0
8247,-86.9565217391304,4,2,1,50,0,0
11558,-86.9565217391304,4,2,1,60,0,0
13213,-86.9565217391304,4,2,1,30,0,0
14040,-86.9565217391304,4,2,1,40,0,0
14558,-86.9565217391304,4,2,1,50,0,0
14661,-86.9565217391304,4,2,1,60,0,0
14764,-86.9565217391304,4,2,1,70,0,0
14868,-80,4,2,1,80,0,0
26454,-86.9565217391304,4,2,1,80,0,0
28109,-95.2380952380952,4,2,1,60,0,0
41351,-100,4,2,1,50,0,0
47971,-86.9565217391304,4,2,1,60,0,0
52937,-86.9565217391304,4,2,1,70,0,0
56247,-76.9230769230769,4,2,1,90,0,1
82730,-100,4,2,1,60,0,0
87695,-100,4,2,1,50,0,0
92661,-100,4,2,1,5,0,0

[Colours]
Combo1 : 124,191,213
Combo2 : 204,241,188
Combo3 : 146,100,97
Combo4 : 239,216,167

[HitObjects]
480,312,1627,6,0,P|428:332|363:232,1,178
303,199,2247,1,2,0:0:0:0:
303,199,2454,2,0,P|355:219|420:119,1,178,2|2,0:0|0:0,0:0:0:0:
477,77,3075,1,2,0:0:0:0:
477,77,3282,6,0,L|271:25,1,178
233,70,3902,2,0,L|220:18,2,44.5,2|0|2,0:0|0:0|0:0,0:0:0:0:
299,115,4316,2,0,L|273:214,1,89,2|0,0:0|0:0,0:0:0:0:
317,271,4730,1,2,0:0:0:0:
240,343,4937,6,0,P|162:363|103:277,1,178,2|2,0:0|0:0,0:0:0:0:
9,166,5764,2,0,P|89:165|124:66,1,178,2|2,0:0|0:0,0:0:0:0:
88,15,6385,1,2,0:0:0:0:
88,15,6592,6,0,L|213:-3,1,89,2|0,0:0|0:0,0:0:0:0:
224,66,7006,2,0,L|341:112,1,89,2|0,0:0|0:0,0:0:0:0:
388,158,7420,2,0,L|305:191,1,89,2|2,0:0|0:0,0:0:0:0:
296,270,7834,2,0,L|240:339,1,89,2|2,0:0|0:0,0:0:0:0:
166,373,8247,5,2,1:2:0:0:
166,373,8454,2,0,P|107:363|92:299,1,102.350001952171,2|0,0:0|1:2,0:0:0:0:
37,264,8868,1,2,0:0:0:0:
105,219,9075,2,0,P|161:198|165:133,1,102.350001952171,2|2,1:2|0:0,0:0:0:0:
115,103,9489,1,2,1:2:0:0:
204,33,9695,6,0,B|294:47|294:47|302:52|302:52|428:70,2,204.700003904343,2|2|2,0:0|0:0|0:0,0:0:0:0:
342,146,10937,6,0,B|207:123,2,102.350001952171,2|2|2,0:0|1:2|0:0,0:0:0:0:
415,108,11558,1,0,1:2:0:0:
467,170,11764,2,0,B|414:295,1,102.350001952171,2|2,0:0|1:2,0:0:0:0:
378,330,12178,6,0,P|343:285|271:289,1,102.350001952171,2|0,0:0|1:2,0:0:0:0:
260,205,12592,2,0,P|203:212|170:277,1,102.350001952171,2|0,0:0|1:2,0:0:0:0:
224,312,13006,1,2,0:0:0:0:
59,97,14454,6,0,L|45:43,3,51.1750009760857,2|2|6|6,1:2|1:2|1:3|1:3,0:0:0:0:
76,15,14868,6,0,L|254:59,1,166.875,6|8,1:2|0:2,0:0:0:0:
264,22,15282,2,0,L|295:131,1,111.25,2|8,1:2|0:2,0:0:0:0:
383,130,15695,2,0,L|330:311,1,166.875,2|10,1:2|0:2,0:0:0:0:
334,335,16109,1,2,1:2:0:0:
256,290,16316,1,8,0:2:0:0:
172,352,16523,6,0,P|132:292|33:316,1,166.875,2|10,1:2|0:2,0:0:0:0:
5,320,16937,1,2,1:2:0:0:
16,231,17144,1,10,0:2:0:0:
28,142,17351,6,0,B|103:155|103:155|110:151|110:151|199:168,1,166.875,2|8,1:2|0:2,0:0:0:0:
219,200,17764,2,0,L|189:67,1,111.25,2|8,1:2|0:2,0:0:0:0:
269,12,18178,6,0,P|303:63|420:33,1,166.875,6|8,1:2|0:2,0:0:0:0:
427,93,18592,2,0,P|470:90|493:7,1,111.25,2|8,1:2|0:2,0:0:0:0:
375,152,19006,6,0,L|413:356,1,166.875,2|10,1:2|0:2,0:0:0:0:
414,359,19420,1,2,1:2:0:0:
329,332,19627,1,8,0:2:0:0:
234,374,19833,6,0,L|270:179,1,166.875,2|10,1:2|0:2,0:0:0:0:
277,167,20247,1,2,1:2:0:0:
190,186,20454,1,10,0:2:0:0:
102,203,20661,6,0,L|119:118,1,55.625,2|8,1:2|0:2,0:0:0:0:
186,97,20971,1,8,0:2:0:0:
186,97,21075,2,0,L|169:12,3,55.625,2|0|8|8,1:2|1:2|1:3|1:3,0:0:0:0:
205,9,21489,6,0,L|41:61,1,166.875,6|8,1:2|0:2,0:0:0:0:
2,49,21902,2,0,P|-11:103|41:136,1,111.25,0|8,1:2|0:2,0:0:0:0:
87,201,22316,2,0,L|33:215,2,55.625,2|0|0,1:2|0:0|0:0,0:0:0:0:
125,175,22627,1,8,0:2:0:0:
125,175,22730,2,0,P|163:215|134:269,1,111.25,0|8,1:2|0:2,0:0:0:0:
113,364,23144,6,0,B|192:339|192:339|196:330|196:330|283:304,1,166.875,6|8,1:2|0:2,0:0:0:0:
307,327,23558,2,0,P|338:273|298:232,1,111.25,0|8,1:2|0:2,0:0:0:0:
249,176,23971,2,0,P|210:139|226:89,1,111.25,2|0,1:2|0:0,0:0:0:0:
230,44,24282,1,8,0:2:0:0:
230,44,24385,2,0,L|417:81,1,166.875,2|0,1:2|0:0,0:0:0:0:
428,48,24799,6,0,L|387:163,1,111.25,6|0,1:2|1:2,0:0:0:0:
439,227,25213,1,2,1:2:0:0:
439,227,25316,1,8,1:3:0:0:
439,227,25420,1,0,0:0:0:0:
458,327,25627,6,0,L|255:271,1,166.875,6|8,1:2|0:2,0:0:0:0:
263,254,26040,2,0,L|202:270,2,55.625,2|8|8,1:2|1:3|0:2,0:0:0:0:
333,172,26454,6,0,B|426:116|389:-36|225:-35|188:79|188:79|130:34|38:65|49:212|174:186,1,614.100011713028,6|2,1:2|1:2,0:0:0:0:
26,364,28109,6,0,L|51:268,1,93.4499971481324,2|0,1:2|0:0,0:0:0:0:
77,242,28420,1,8,0:2:0:0:
77,242,28523,2,0,L|52:146,1,93.4499971481324,2|2,1:2|1:2,0:0:0:0:
68,72,28937,1,2,1:2:0:0:
141,106,29144,2,0,L|254:72,1,93.4499971481324,10|0,1:3|1:2,0:0:0:0:
317,80,29558,6,0,L|294:19,2,46.7249985740662,2|0|0,1:2|0:0|1:2,0:0:0:0:
384,126,29971,2,0,L|308:180,1,93.4499971481324,2|0,0:0|1:2,0:0:0:0:
283,256,30385,1,10,0:2:0:0:
430,211,30799,5,10,1:3:0:0:
444,207,30902,1,0,1:2:0:0:
456,204,31006,1,2,1:2:0:0:
510,263,31213,2,0,L|495:331,1,46.7249985740662,2|0,1:2|0:0,0:0:0:0:
510,344,31420,6,0,L|330:295,1,186.899994296265,0|0,1:2|1:2,0:0:0:0:
266,343,32040,1,0,1:2:0:0:
57,259,32661,5,2,1:2:0:0:
77,181,32868,1,2,1:2:0:0:
59,92,33075,6,0,L|186:132,1,93.4499971481324,0|2,1:2|0:0,0:0:0:0:
174,153,33385,1,0,0:0:0:0:
174,153,33489,1,0,1:2:0:0:
226,93,33695,2,0,P|204:47|225:2,1,93.4499971481324,10|0,0:2|1:2,0:0:0:0:
295,32,34109,1,8,0:2:0:0:
371,55,34316,2,0,L|386:4,2,46.7249985740662,0|8|0,1:2|1:2|1:2,0:0:0:0:
315,139,34730,6,0,L|356:263,1,93.4499971481324,2|2,1:2|0:0,0:0:0:0:
341,308,35144,2,0,L|465:267,1,93.4499971481324,2|10,1:2|0:2,0:0:0:0:
512,275,35558,2,0,L|471:151,1,93.4499971481324,2|10,1:2|1:3,0:0:0:0:
482,105,35971,2,0,L|358:146,1,93.4499971481324,2|2,1:2|0:0,0:0:0:0:
294,107,36385,6,0,P|237:111|211:156,1,93.4499971481324,2|0,1:2|0:0,0:0:0:0:
184,126,36695,1,8,0:2:0:0:
184,126,36799,2,0,P|158:177|184:222,1,93.4499971481324,2|10,1:2|0:2,0:0:0:0:
229,262,37213,1,0,1:2:0:0:
286,318,37420,1,8,1:2:0:0:
224,370,37627,2,0,L|160:349,1,46.7249985740662,2|8,1:2|1:2,0:0:0:0:
144,342,37833,1,2,0:0:0:0:
30,369,38040,6,0,L|73:202,1,140.174995722199,0|0,1:2|0:0,0:0:0:0:
100,220,38454,1,2,1:2:0:0:
39,151,38661,2,0,P|94:142|113:99,1,93.4499971481324,10|0,0:2|1:2,0:0:0:0:
192,104,39075,2,0,P|211:51|183:13,1,93.4499971481324,10|0,1:3|1:2,0:0:0:0:
167,4,39385,1,8,0:2:0:0:
167,4,39489,1,2,0:0:0:0:
287,29,39695,6,0,L|456:-1,1,140.174995722199,4|8,1:2|0:2,0:0:0:0:
456,25,40109,1,0,1:2:0:0:
499,93,40316,2,0,B|483:179|483:179|488:189|488:189|468:283,1,186.899994296265,0|8,1:2|1:3,0:0:0:0:
462,312,40833,1,0,0:0:0:0:
462,312,40937,2,0,L|451:372,2,46.7249985740662,10|8|8,0:2|0:2|1:3,0:0:0:0:
373,266,41351,6,0,P|297:249|231:335,2,178,6|0|2,1:2|1:2|1:2,0:0:0:0:
439,221,42385,2,0,L|454:272,2,44.5,0|0|0,0:0|1:2|1:2,0:0:0:0:
418,143,42799,1,10,0:2:0:0:
361,86,43006,6,0,P|308:152|223:142,2,178,2|0|2,1:2|1:2|1:2,0:0:0:0:
293,42,44040,2,0,L|305:-1,2,44.5,0|0|0,0:0|1:2|1:2,0:0:0:0:
214,62,44454,1,10,0:2:0:0:
123,35,44661,6,0,L|162:243,2,178,2|0|2,1:2|1:2|1:2,0:0:0:0:
43,44,45695,2,0,L|51:-9,2,44.5,0|0|0,0:0|1:2|1:2,0:0:0:0:
31,123,46109,1,10,0:2:0:0:
18,202,46316,6,0,L|75:378,1,178,2|0,1:2|1:2,0:0:0:0:
116,377,46833,1,0,0:0:0:0:
116,377,46937,1,2,0:0:0:0:
170,318,47144,2,0,P|251:316|281:367,1,133.5,2|0,1:2|1:2,0:0:0:0:
312,373,47558,2,0,L|382:357,1,44.5,0|8,1:2|1:2,0:0:0:0:
386,337,47764,1,10,1:3:0:0:
433,270,47971,6,0,L|400:155,1,102.350001952171,6|2,1:2|0:0,0:0:0:0:
469,120,48385,1,0,1:2:0:0:
397,80,48592,2,0,L|196:142,1,204.700003904343,8|8,0:2|0:2,0:0:0:0:
170,216,49213,1,0,1:2:0:0:
133,289,49420,6,0,L|77:108,1,153.525002928257,8|0,0:2|0:0,0:0:0:0:
47,137,49833,2,0,L|78:34,1,102.350001952171,0|0,0:0|1:2,0:0:0:0:
153,70,50247,1,4,1:2:0:0:
301,1,50661,6,0,L|425:39,1,102.350001952171,8|0,0:2|1:2,0:0:0:0:
439,17,50971,1,8,0:2:0:0:
439,17,51075,1,8,0:2:0:0:
497,74,51282,1,4,1:2:0:0:
497,74,51489,2,0,L|459:185,1,102.350001952171,0|0,0:0|1:2,0:0:0:0:
414,236,51902,6,0,P|361:188|306:207,1,102.350001952171,4|0,1:2|1:2,0:0:0:0:
279,128,52316,2,0,P|210:149|199:207,1,102.350001952171,8|0,0:2|1:2,0:0:0:0:
117,181,52730,1,8,0:2:0:0:
117,181,52937,6,0,B|191:227|214:290|199:382|32:370|90:236,1,307.050005856514,4|4,1:2|1:2,0:0:0:0:
14,118,53971,1,0,1:2:0:0:
69,57,54178,1,4,1:3:0:0:
143,90,54385,5,4,1:2:0:0:
285,9,54799,1,8,1:2:0:0:
339,70,55006,1,8,1:2:0:0:
157,359,56247,6,0,L|190:172,1,173.549992055512,4|8,1:2|0:2,0:0:0:0:
156,152,56661,1,0,1:2:0:0:
202,71,56868,1,10,0:2:0:0:
289,100,57075,2,0,P|342:41|437:78,1,173.549992055512,2|8,1:2|0:2,0:0:0:0:
471,55,57489,1,2,1:2:0:0:
425,135,57695,1,10,0:2:0:0:
507,176,57902,6,0,L|473:353,1,173.549992055512,0|8,1:2|0:2,0:0:0:0:
434,371,58316,1,0,1:2:0:0:
380,295,58523,1,10,0:2:0:0:
380,295,58730,2,0,P|328:340|280:320,1,115.699994703675,2|2,1:2|0:0,0:0:0:0:
256,361,59040,2,0,P|226:356|214:307,1,57.8499973518373,8|0,0:2|1:2,0:0:0:0:
230,243,59351,1,10,0:2:0:0:
121,284,59558,6,0,P|24:301|-4:230,1,173.549992055512,2|8,1:2|0:2,0:0:0:0:
17,206,59971,2,0,P|52:155|114:157,1,115.699994703675,2|8,1:2|0:2,0:0:0:0:
194,162,60385,2,0,B|274:139|274:139|281:131|281:131|370:107,1,173.549992055512,2|8,1:2|0:2,0:0:0:0:
393,139,60799,1,2,1:2:0:0:
471,90,61006,1,10,0:2:0:0:
406,5,61213,6,0,B|326:28|326:28|319:36|319:36|230:60,1,173.549992055512,2|8,1:2|0:2,0:0:0:0:
199,75,61627,2,0,L|53:39,1,115.699994703675,2|10,1:2|0:2,0:0:0:0:
10,99,62040,1,0,1:2:0:0:
10,99,62144,1,0,0:0:0:0:
10,99,62247,2,0,L|24:171,2,57.8499973518373,2|8|0,0:0|0:2|1:2,0:0:0:0:
97,130,62661,1,10,0:2:0:0:
52,234,62868,5,6,1:2:0:0:
52,234,63075,2,0,L|235:179,1,173.549992055512,2|0,0:0|0:0,0:0:0:0:
242,223,63489,1,10,0:2:0:0:
292,146,63695,1,2,1:2:0:0:
349,218,63902,1,2,0:0:0:0:
361,210,64006,1,8,0:2:0:0:
374,201,64109,1,2,1:2:0:0:
409,115,64316,6,0,L|528:179,1,115.699994703675,10|4,0:2|1:2,0:0:0:0:
472,254,64730,2,0,L|495:343,2,57.8499973518373,2|8|0,0:0|0:2|1:2,0:0:0:0:
391,299,65144,2,0,L|272:363,1,115.699994703675,10|0,0:2|1:2,0:0:0:0:
203,316,65558,5,2,0:0:0:0:
206,300,65661,1,8,0:2:0:0:
210,286,65764,1,2,1:2:0:0:
148,216,65971,1,10,0:2:0:0:
192,134,66178,5,4,1:2:0:0:
113,84,66385,2,0,L|126:27,2,57.8499973518373,2|8|2,0:0|0:2|1:2,0:0:0:0:
36,135,66799,1,10,0:2:0:0:
36,135,67006,2,0,L|72:255,1,115.699994703675,0|2,1:2|0:0,0:0:0:0:
57,290,67316,2,0,L|117:304,1,57.8499973518373,8|0,0:2|1:2,0:0:0:0:
181,240,67627,1,10,0:2:0:0:
266,323,67833,6,0,P|317:265|419:306,1,173.549992055512,4|8,1:2|0:2,0:0:0:0:
430,321,68247,1,0,1:2:0:0:
500,260,68454,1,6,1:2:0:0:
500,260,68661,2,0,L|469:131,1,115.699994703675,2|2,1:2|1:2,0:0:0:0:
417,72,69075,2,0,L|436:-7,2,57.8499973518373,2|8|10,1:2|1:2|1:3,0:0:0:0:
350,158,69489,6,0,P|290:93|196:138,1,173.549992055512,4|8,1:2|0:2,0:0:0:0:
169,108,69902,1,0,1:2:0:0:
207,192,70109,1,10,0:2:0:0:
140,255,70316,2,0,L|7:217,1,115.699994703675,2|2,1:2|0:0,0:0:0:0:
4,313,70730,2,0,L|137:351,1,115.699994703675,2|10,1:2|0:2,0:0:0:0:
205,321,71144,6,0,P|265:256|359:301,1,173.549992055512,0|8,1:2|0:2,0:0:0:0:
386,271,71557,1,0,1:2:0:0:
428,353,71764,1,10,0:2:0:0:
502,297,71971,1,2,1:2:0:0:
502,297,72178,2,0,L|468:147,1,115.699994703675,2|0,0:0|1:2,0:0:0:0:
505,95,72592,1,10,0:2:0:0:
393,62,72799,6,0,P|339:126|253:96,1,173.549992055512,2|8,1:2|0:2,0:0:0:0:
246,149,73213,2,0,P|187:138|168:77,1,115.699994703675,2|8,1:2|0:2,0:0:0:0:
217,13,73627,2,0,L|35:82,1,173.549992055512,2|8,1:2|0:2,0:0:0:0:
14,51,74040,1,2,1:2:0:0:
0,142,74247,1,10,0:2:0:0:
0,142,74454,6,0,B|26:223|26:223|34:227|34:227|66:326,1,173.549992055512,2|8,1:2|0:2,0:0:0:0:
50,348,74868,2,0,P|110:361|147:315,1,115.699994703675,2|10,1:2|0:2,0:0:0:0:
141,232,75282,6,0,B|146:181|104:198|71:155|130:87|172:133,1,173.549992055512,2|8,1:2|0:2,0:0:0:0:
215,145,75695,2,0,B|273:126|291:214|241:235|213:199|189:252,1,173.549992055512,2|0,1:2|0:0,0:0:0:0:
212,287,76109,5,6,1:2:0:0:
292,329,76316,2,0,L|283:400,2,57.8499973518373,2|8|0,0:0|0:2|1:2,0:0:0:0:
341,249,76730,1,10,0:2:0:0:
407,313,76937,1,2,1:2:0:0:
495,287,77144,2,0,L|457:161,1,115.699994703675,2|2,0:0|1:2,0:0:0:0:
511,83,77558,6,0,P|478:25|353:52,1,173.549992055512,10|0,0:2|0:0,0:0:0:0:
383,48,77971,2,0,P|316:47|277:169,1,173.549992055512,2|0,0:0|0:0,0:0:0:0:
238,134,78385,2,0,P|215:172|272:236,1,115.699994703675,10|0,0:2|1:2,0:0:0:0:
329,188,78799,5,0,0:0:0:0:
338,192,78903,1,8,0:2:0:0:
353,198,79006,1,2,1:2:0:0:
407,276,79213,1,10,0:2:0:0:
339,338,79420,6,0,L|161:257,1,173.549992055512,4|8,1:2|0:2,0:0:0:0:
172,220,79833,1,2,1:2:0:0:
101,279,80040,1,10,0:2:0:0:
38,217,80247,2,0,P|12:176|87:90,1,173.549992055512,0|8,1:2|0:2,0:0:0:0:
114,60,80661,1,2,1:2:0:0:
181,123,80868,1,10,0:2:0:0:
267,73,81075,6,0,L|388:101,1,115.699994703675,4|0,1:2|0:0,0:0:0:0:
414,130,81385,1,8,0:2:0:0:
414,130,81489,1,0,1:2:0:0:
444,217,81695,2,0,P|407:281|315:254,1,173.549992055512,4|8,1:2|0:2,0:0:0:0:
296,222,82109,1,2,1:2:0:0:
237,293,82316,1,2,1:2:0:0:
149,263,82523,2,0,L|79:278,1,57.8499973518373,10|0,1:3|0:0,0:0:0:0:
62,294,82730,5,2,1:2:0:0:
9,233,82937,2,0,L|29:137,1,89,2|0,0:0|1:2,0:0:0:0:
84,89,83351,1,2,0:0:0:0:
140,146,83558,1,2,1:2:0:0:
203,97,83764,2,0,L|183:1,1,89,2|2,0:0|1:2,0:0:0:0:
265,9,84178,2,0,L|305:204,2,178,2|2|2,0:0|0:0|0:0,0:0:0:0:
490,63,85627,5,2,1:2:0:0:
486,146,85833,2,0,L|293:186,1,178,2|0,0:0|0:0,0:0:0:0:
247,133,86454,1,2,1:2:0:0:
211,217,86661,6,0,P|319:232|340:307,1,178,2|2,0:0|0:0,0:0:0:0:
420,270,87282,2,0,P|435:318|413:348,1,89,2|2,1:2|0:0,0:0:0:0:
337,367,87695,1,4,1:2:0:0:
256,192,87902,12,0,92661,0:0:0:0:
