osu file format v14

[General]
AudioFilename: audio.mp3
AudioLeadIn: 0
PreviewTime: 55114
Countdown: 0
SampleSet: Soft
StackLeniency: 0.5
Mode: 0
LetterboxInBreaks: 0
WidescreenStoryboard: 1

[Editor]
DistanceSpacing: 0.4
BeatDivisor: 4
GridSize: 32
TimelineZoom: 1.9

[Metadata]
Title:Mellow (TV Size)
TitleUnicode:メロウ (TV Size)
Artist:Suda Keina
ArtistUnicode:須田景凪
Creator:Pepekcz
Version:Crissa's Insane
Source:スキップとローファー
Tags:crissa [-evil-] skip and loafer anime opening op 1 romance spring 2023 pop jpop j-pop japanese 岩倉 美津未 iwakura mitsumi 志摩 聡介 shima sousuke 江頭 ミカ egashira mika 村重 結月 murashige yuzuki 久留米 誠 kurume makoto male vocal vocalist
BeatmapID:4129561
BeatmapSetID:1987991

[Difficulty]
HPDrainRate:5
CircleSize:4
OverallDifficulty:8.4
ApproachRate:9
SliderMultiplier:2.48
SliderTickRate:1

[Events]
//Background and Video events
Video,-76,"video.mp4"
0,0,"bg.png",0,0
//Break Periods
//Storyboard Layer 0 (Background)
//Storyboard Layer 1 (Fail)
//Storyboard Layer 2 (Pass)
//Storyboard Layer 3 (Foreground)
//Storyboard Layer 4 (Overlay)
//Storyboard Sound Samples

[TimingPoints]
386,413.793103448276,4,2,1,30,1,0
592,-166.666666666667,4,2,1,30,0,0
1627,413.793103448276,4,2,1,40,1,0
1627,-142.857142857143,4,2,1,40,0,0
8247,-142.857142857143,4,2,1,50,0,0
11558,-142.857142857143,4,2,1,60,0,0
13213,-142.857142857143,4,2,1,30,0,0
14040,-142.857142857143,4,2,1,40,0,0
14558,-142.857142857143,4,2,1,50,0,0
14661,-142.857142857143,4,2,1,60,0,0
14764,-142.857142857143,4,2,1,70,0,0
14868,-83.3333333333333,4,2,1,80,0,0
27282,-125,4,2,1,80,0,0
28109,-100,4,2,1,60,0,0
41351,-125,4,2,1,50,0,0
47971,-125,4,2,1,60,0,0
52937,-125,4,2,1,70,0,0
54385,-90.9090909090909,4,2,1,70,0,0
55420,-142.857142857143,4,2,1,70,0,0
56247,-83.3333333333333,4,2,1,90,0,0
68661,-100,4,2,1,90,0,0
69489,-83.3333333333333,4,2,1,90,0,0
82730,-125,4,2,1,60,0,0
87695,-200,4,2,1,50,0,0
92661,-200,4,2,1,5,0,0

[Colours]
Combo1 : 124,191,213
Combo2 : 204,241,188
Combo3 : 146,100,97
Combo4 : 239,216,167

[HitObjects]
88,289,592,5,2,0:0:0:0:
155,234,799,2,0,B|186:211|173:152|153:170|138:128|169:91,1,148.799995458985,2|2,0:0|0:0,0:0:0:0:
88,289,1420,1,2,0:0:0:0:
250,172,1627,6,0,P|302:146|374:235,1,173.599994702149
384,316,2247,1,2,0:0:0:0:
376,216,2454,2,0,B|374:172|401:180|401:135,2,86.7999973510743,2|0|2,0:0|0:0|0:0,0:0:0:0:
466,371,3075,1,2,0:0:0:0:
384,316,3282,6,0,P|321:286|215:273,1,173.599994702149
133,327,3902,1,2,0:0:0:0:
142,355,4006,1,0,0:0:0:0:
171,363,4109,1,2,0:0:0:0:
218,272,4316,2,0,B|236:233|211:228|235:186,1,86.7999973510743,2|0,0:0|0:0,0:0:0:0:
400,110,4730,1,2,0:0:0:0:
313,145,4937,6,0,B|285:90|320:77|287:20,1,130.199996026611,2|0,0:0|0:0,0:0:0:0:
197,18,5351,2,0,B|164:75|199:88|171:143,1,130.199996026611,2|0,0:0|0:0,0:0:0:0:
107,183,5764,2,0,P|57:173|47:135,2,86.7999973510743,2|0|2,0:0|0:0|0:0,0:0:0:0:
290,305,6385,2,0,P|273:245|164:236,1,173.599994702149,2|0,0:0|0:0,0:0:0:0:
160,311,7006,1,0,0:0:0:0:
294,154,7213,1,0,0:0:0:0:
362,348,7420,5,2,0:0:0:0:
301,254,7627,1,0,0:0:0:0:
251,354,7833,1,0,0:0:0:0:
313,272,8040,1,2,0:0:0:0:
74,141,8247,5,2,1:2:0:0:
76,221,8454,2,0,B|121:224|115:196|163:203,1,86.7999973510743,2|0,0:0|1:2,0:0:0:0:
214,262,8868,1,2,0:0:0:0:
279,41,9075,1,2,1:2:0:0:
334,150,9282,1,2,0:0:0:0:
272,56,9489,1,2,1:2:0:0:
327,253,9695,6,0,P|372:252|408:224,1,86.7999973510743,2|0,0:0|1:2,0:0:0:0:
483,120,10109,2,0,P|447:95|405:95,1,86.7999973510743,2|0,0:0|1:2,0:0:0:0:
318,204,10523,2,0,P|357:225|402:219,1,86.7999973510743,2|0,0:0|1:2,0:0:0:0:
411,110,10937,1,2,0:0:0:0:
449,291,11144,1,2,1:2:0:0:
265,265,11351,6,0,P|235:221|238:184,1,86.7999973510743,2|0,0:0|1:2,0:0:0:0:
294,125,11764,1,2,0:0:0:0:
168,266,11971,1,2,1:2:0:0:
108,86,12178,2,0,P|125:44|167:31,1,86.7999973510743,2|0,0:0|1:2,0:0:0:0:
301,137,12592,2,0,P|284:179|242:192,1,86.7999973510743,2|0,0:0|1:2,0:0:0:0:
120,90,13006,1,2,0:0:0:0:
120,90,13420,5,2,0:0:0:0:
182,136,13627,1,2,0:0:0:0:
150,207,13833,1,2,0:0:0:0:
144,218,13937,1,2,0:0:0:0:
138,229,14040,1,6,0:3:0:0:
200,275,14247,1,2,0:0:0:0:
210,282,14351,1,6,0:3:0:0:
220,290,14454,5,10,1:3:0:0:
250,285,14558,1,2,1:2:0:0:
288,279,14661,1,6,1:3:0:0:
335,272,14764,1,6,1:3:0:0:
391,264,14868,6,0,P|398:185|331:156,1,148.799995458985,6|0,1:2|0:0,0:0:0:0:
263,198,15178,1,8,0:2:0:0:
344,154,15282,2,0,P|367:124|363:84,1,74.3999977294923,2|0,1:2|0:0,0:0:0:0:
213,90,15489,2,0,L|291:105,1,74.3999977294923,8|0,0:2|0:0,0:0:0:0:
499,209,15695,6,0,P|402:218|387:263,1,148.799995458985,2|0,1:2|0:0,0:0:0:0:
355,331,16006,1,10,0:2:0:0:
276,301,16109,2,0,P|317:243|387:255,1,148.799995458985,2|8,1:2|0:2,0:0:0:0:
202,261,16523,6,0,P|138:219|147:144,1,148.799995458985,2|0,1:2|0:0,0:0:0:0:
216,88,16833,1,10,0:2:0:0:
140,153,16937,2,0,P|97:151|68:123,1,74.3999977294923,2|0,1:2|0:0,0:0:0:0:
147,1,17144,2,0,L|130:73,1,74.3999977294923,10|0,0:2|0:0,0:0:0:0:
6,236,17351,6,0,P|78:231|128:283,1,148.799995458985,2|0,1:2|0:0,0:0:0:0:
146,370,17661,1,8,0:2:0:0:
197,380,17764,1,2,1:2:0:0:
215,366,17868,1,8,1:3:0:0:
214,344,17971,1,8,0:2:0:0:
279,74,18178,6,0,P|205:129|223:178,1,148.799995458985,6|0,1:2|0:0,0:0:0:0:
306,218,18489,1,8,0:2:0:0:
217,171,18592,2,0,P|182:171|144:208,1,74.3999977294923,2|0,1:2|0:0,0:0:0:0:
231,326,18799,2,0,L|212:253,1,74.3999977294923,8|0,0:2|0:0,0:0:0:0:
70,34,19006,6,0,P|136:100|182:87,1,148.799995458985,2|0,1:2|0:0,0:0:0:0:
264,58,19316,1,10,0:2:0:0:
290,142,19420,2,0,P|219:147|180:89,1,148.799995458985,2|8,1:2|0:2,0:0:0:0:
383,151,19833,6,0,P|422:209|391:273,1,148.799995458985,2|0,1:2|0:0,0:0:0:0:
309,274,20144,1,10,0:2:0:0:
391,273,20247,2,0,P|418:292|432:345,1,74.3999977294923,2|0,1:2|0:0,0:0:0:0:
284,379,20454,2,0,L|356:340,1,74.3999977294923,10|0,0:2|0:0,0:0:0:0:
493,262,20661,5,2,1:2:0:0:
439,204,20764,2,0,P|432:165|419:125,1,74.3999977294923,8|0,0:2|0:0,0:0:0:0:
351,24,20971,1,8,0:2:0:0:
291,76,21075,1,2,1:2:0:0:
239,65,21178,1,0,1:2:0:0:
223,76,21282,2,0,P|221:110|213:160,1,74.3999977294923,8|8,1:3|1:3,0:0:0:0:
74,300,21489,6,0,P|82:227|154:211,1,148.799995458985,6|0,1:2|0:0,0:0:0:0:
216,275,21799,1,8,0:2:0:0:
146,208,21903,2,0,L|58:170,1,74.3999977294923,0|0,1:2|0:0,0:0:0:0:
23,59,22109,1,8,0:2:0:0:
93,33,22213,1,0,0:0:0:0:
128,97,22316,6,0,P|198:127|244:78,1,148.799995458985,2|0,1:2|0:0,0:0:0:0:
235,0,22627,1,8,0:2:0:0:
243,81,22730,2,0,L|251:166,1,74.3999977294923,0|0,1:2|0:0,0:0:0:0:
311,286,22937,2,0,L|323:202,1,74.3999977294923,8|0,0:2|0:0,0:0:0:0:
440,76,23144,6,0,P|355:77|336:137,1,148.799995458985,6|0,1:2|0:0,0:0:0:0:
407,182,23454,1,8,0:2:0:0:
334,127,23558,2,0,L|243:109,1,74.3999977294923,0|0,1:2|0:0,0:0:0:0:
143,179,23764,1,8,0:2:0:0:
184,241,23868,1,0,0:0:0:0:
252,213,23971,6,0,P|326:215|341:289,1,148.799995458985,2|0,1:2|0:0,0:0:0:0:
307,357,24282,1,8,0:2:0:0:
345,277,24385,2,0,B|383:177|383:177|406:177|423:164,1,148.799995458985,2|8,1:2|0:2,0:0:0:0:
216,51,24799,6,0,P|239:123|309:121,1,148.799995458985,6|0,1:2|1:2,0:0:0:0:
445,28,25213,1,2,1:2:0:0:
400,28,25316,1,8,1:3:0:0:
385,70,25420,1,0,1:2:0:0:
508,238,25627,6,0,P|485:166|415:168,1,148.799995458985,6|0,1:2|0:0,0:0:0:0:
367,232,25937,1,8,0:2:0:0:
361,243,26040,2,0,L|379:332,1,74.3999977294923,2|8,1:2|1:3,0:0:0:0:
300,342,26247,2,0,L|285:269,1,74.3999977294923,8|4,0:2|1:3,0:0:0:0:
267,172,26454,1,6,1:2:0:0:
112,208,26661,5,8,0:2:0:0:
102,251,26764,1,10,0:2:0:0:
129,286,26868,1,8,0:2:0:0:
173,290,26971,1,10,0:2:0:0:
331,135,27178,1,2,1:2:0:0:
306,102,27282,2,0,B|243:84|202:142|235:162|206:213|156:244|69:197|72:114|137:73|182:98,1,347.2,10|2,0:2|0:0,0:0:0:0:
246,172,28109,6,0,P|269:219|271:296,1,124,2|0,1:2|0:0,0:0:0:0:
206,369,28420,1,8,0:2:0:0:
188,373,28523,2,0,P|159:349|164:322,1,62,2|0,1:2|0:0,0:0:0:0:
93,288,28730,2,0,P|79:252|97:231,1,62,2|0,1:2|0:0,0:0:0:0:
163,205,28937,5,2,1:2:0:0:
41,175,29144,2,0,L|32:102,1,62,10|0,1:3|0:0,0:0:0:0:
22,39,29351,1,0,1:2:0:0:
129,125,29558,1,2,1:2:0:0:
129,125,29661,1,0,0:0:0:0:
129,125,29764,6,0,P|176:92|241:87,1,124,0|2,1:2|0:0,0:0:0:0:
323,124,30075,1,8,0:2:0:0:
331,140,30178,2,0,P|329:171|292:188,1,62,0|0,1:2|0:0,0:0:0:0:
150,236,30385,2,0,L|229:251,1,62,10|0,0:2|0:0,0:0:0:0:
287,262,30592,1,0,1:2:0:0:
390,354,30799,5,10,1:3:0:0:
408,351,30902,1,0,1:2:0:0:
425,343,31006,2,0,P|436:316|424:274,1,62,2|8,1:2|0:2,0:0:0:0:
368,234,31213,2,0,P|362:203|373:175,1,62,2|0,1:2|0:0,0:0:0:0:
461,93,31420,6,0,B|455:103|439:107|439:107|324:83,1,124,0|0,1:2|0:0,0:0:0:0:
256,97,31730,1,8,0:2:0:0:
241,108,31833,2,0,P|247:133|252:181,1,62,0|0,1:2|0:0,0:0:0:0:
210,305,32040,2,0,P|192:275|180:242,1,62,0|0,1:2|0:0,0:0:0:0:
173,172,32247,1,0,1:2:0:0:
347,275,32454,5,8,1:3:0:0:
357,290,32558,1,0,0:0:0:0:
361,307,32661,2,0,P|351:336|313:360,1,62,2|0,1:2|0:0,0:0:0:0:
251,331,32868,2,0,P|219:329|186:313,1,62,2|0,1:2|0:0,0:0:0:0:
168,241,33075,5,0,1:2:0:0:
268,157,33282,1,2,0:0:0:0:
274,139,33385,1,0,0:0:0:0:
267,121,33489,1,0,1:2:0:0:
81,78,33695,2,0,L|157:67,1,62,10|0,0:2|0:0,0:0:0:0:
219,60,33902,1,0,1:2:0:0:
395,150,34109,6,0,P|388:184|365:222,1,62,8|0,0:2|0:0,0:0:0:0:
281,232,34316,1,0,1:2:0:0:
243,265,34420,1,8,1:2:0:0:
246,308,34523,1,0,1:2:0:0:
271,335,34627,1,0,0:0:0:0:
301,337,34730,5,2,1:2:0:0:
422,294,34937,1,2,0:0:0:0:
440,295,35040,1,8,0:2:0:0:
458,296,35144,1,2,1:2:0:0:
428,177,35351,2,0,P|414:144|405:107,1,62,10|0,0:2|0:0,0:0:0:0:
432,45,35558,5,2,1:2:0:0:
310,2,35764,1,10,1:3:0:0:
223,101,35971,1,2,1:2:0:0:
290,212,36178,1,2,0:0:0:0:
297,229,36282,1,0,0:0:0:0:
293,247,36385,6,0,P|231:255|166:277,1,124,2|0,1:2|0:0,0:0:0:0:
90,337,36695,1,8,0:2:0:0:
71,338,36799,2,0,P|51:316|51:280,1,62,2|0,1:2|0:0,0:0:0:0:
106,215,37006,2,0,P|125:146|101:95,2,124,10|0|8,0:2|1:2|1:2,0:0:0:0:
211,170,37627,1,2,1:2:0:0:
207,151,37730,2,0,P|261:117|327:135,1,124,8|0,1:2|0:0,0:0:0:0:
394,88,38040,6,0,P|450:121|449:186,1,124,0|0,1:2|0:0,0:0:0:0:
416,252,38351,1,0,0:0:0:0:
398,258,38454,1,2,1:2:0:0:
306,368,38661,2,0,L|295:290,1,62,10|0,0:2|0:0,0:0:0:0:
287,234,38868,5,0,1:2:0:0:
135,280,39075,1,10,1:3:0:0:
130,297,39178,1,0,0:0:0:0:
141,311,39282,1,0,1:2:0:0:
182,315,39385,2,0,P|206:262|170:197,1,124,8|0,0:2|0:0,0:0:0:0:
208,132,39695,6,0,P|181:76|209:17,1,124,4|0,1:2|0:0,0:0:0:0:
286,0,40006,1,8,0:2:0:0:
303,7,40109,1,0,1:2:0:0:
383,113,40316,6,0,P|380:140|370:187,1,62,0|0,1:2|0:0,0:0:0:0:
329,240,40523,2,0,P|364:252|407:255,1,62,8|0,1:2|0:0,0:0:0:0:
367,335,40730,2,0,P|332:323|289:320,1,62,8|0,1:3|0:0,0:0:0:0:
211,335,40937,1,10,0:2:0:0:
176,321,41040,1,8,0:2:0:0:
175,283,41144,1,8,1:3:0:0:
257,179,41351,6,0,P|260:114|184:81,1,148.8,6|0,1:2|0:0,0:0:0:0:
112,96,41764,2,0,P|48:72|44:37,1,99.2,0|2,1:2|0:0,0:0:0:0:
192,79,42178,2,0,P|176:149|173:241,1,148.8,2|0,1:2|1:2,0:0:0:0:
182,238,42592,1,0,1:2:0:0:
337,200,42799,1,10,0:2:0:0:
404,345,43006,6,0,P|345:312|253:292,1,148.8,2|0,1:2|0:0,0:0:0:0:
256,306,43420,1,0,1:2:0:0:
242,170,43627,1,2,0:0:0:0:
401,122,43833,2,0,P|452:94|427:9,1,148.8,2|0,1:2|1:2,0:0:0:0:
423,21,44247,1,0,1:2:0:0:
265,0,44454,1,10,0:2:0:0:
229,152,44661,6,0,P|298:167|383:215,1,148.8,2|0,1:2|0:0,0:0:0:0:
371,218,45075,1,0,1:2:0:0:
477,153,45282,1,2,0:0:0:0:
511,275,45489,2,0,P|423:301|372:334,1,148.8,2|0,1:2|1:2,0:0:0:0:
376,345,45902,1,0,1:2:0:0:
238,273,46109,1,10,0:2:0:0:
312,127,46316,6,0,P|316:65|240:31,1,148.8,2|0,1:2|0:0,0:0:0:0:
231,35,46730,1,0,1:2:0:0:
216,60,46833,1,0,0:0:0:0:
221,89,46937,1,2,0:0:0:0:
197,177,47144,6,0,P|248:208|252:252,1,99.2,2|0,1:2|0:0,0:0:0:0:
248,260,47454,1,0,1:2:0:0:
225,280,47558,1,0,1:2:0:0:
195,285,47661,1,8,1:2:0:0:
167,274,47764,1,10,1:3:0:0:
31,355,47971,6,0,B|54:283|54:283|54:263|38:243,1,99.2,6|2,1:2|0:0,0:0:0:0:
8,194,48282,1,8,0:2:0:0:
5,181,48385,1,2,1:2:0:0:
132,143,48592,2,0,P|190:126|187:36,1,148.8,10|0,0:2|0:0,0:0:0:0:
176,43,49006,1,10,0:2:0:0:
286,158,49213,1,0,1:2:0:0:
385,32,49420,6,0,P|455:32|486:110,1,148.8,10|0,0:2|0:0,0:0:0:0:
481,113,49833,1,2,0:0:0:0:
457,131,49937,1,8,0:2:0:0:
455,160,50040,1,2,1:2:0:0:
488,287,50247,2,0,P|467:273|436:266,1,49.6,4|0,1:2|0:0,0:0:0:0:
433,278,50454,1,0,1:2:0:0:
333,216,50661,6,0,P|327:183|324:151,1,49.6,10|0,0:2|0:0,0:0:0:0:
253,183,50868,2,0,P|259:216|262:248,1,49.6,2|8,1:2|0:2,0:0:0:0:
189,243,51075,2,0,P|183:210|180:178,1,49.6,10|0,0:2|0:0,0:0:0:0:
244,102,51282,6,0,P|256:42|220:14,1,99.2,4|0,1:2|0:0,0:0:0:0:
202,18,51592,1,8,0:2:0:0:
194,28,51695,1,2,1:2:0:0:
96,157,51902,2,0,P|161:164|191:183,1,99.2,4|0,1:2|1:2,0:0:0:0:
267,307,52316,2,0,L|258:247,1,49.6,10|0,0:2|0:0,0:0:0:0:
306,196,52523,1,0,1:2:0:0:
335,194,52627,1,8,0:2:0:0:
351,218,52730,1,10,0:2:0:0:
410,373,52937,6,0,P|416:321|441:246,1,99.2,4|0,1:2|0:0,0:0:0:0:
484,226,53247,1,8,0:2:0:0:
497,223,53351,1,0,1:2:0:0:
350,88,53558,2,0,P|356:148|450:150,1,148.8,4|8,1:2|1:3,0:0:0:0:
481,106,53971,1,0,1:2:0:0:
485,76,54075,1,4,1:3:0:0:
461,58,54178,1,4,1:3:0:0:
299,26,54385,6,0,B|170:58|170:58|257:73,1,204.600006243897,4|0,1:2|0:0,0:0:0:0:
308,105,54799,1,8,1:2:0:0:
52,142,55006,1,8,1:2:0:0:
191,207,55213,5,2,0:0:0:0:
191,207,55420,2,0,B|221:266|184:274|219:337,1,130.199996026611,2|0,0:0|0:0,0:0:0:0:
211,352,55833,1,2,0:0:0:0:
328,244,56040,1,2,0:0:0:0:
508,332,56247,6,0,P|435:344|413:278,1,148.799995458985,4|0,1:2|0:0,0:0:0:0:
448,211,56558,1,8,0:2:0:0:
410,285,56661,1,0,1:2:0:0:
194,196,56868,6,0,P|217:168|263:171,1,74.3999977294923,10|0,0:0|0:0,0:0:0:0:
337,234,57075,2,0,P|350:147|382:77,1,148.799995458985,2|0,1:2|0:0,0:0:0:0:
444,33,57385,1,8,0:2:0:0:
373,91,57489,2,0,P|344:111|297:104,1,74.3999977294923,2|0,1:2|0:0,0:0:0:0:
244,42,57695,1,10,0:2:0:0:
251,200,57902,6,0,P|188:155|102:138,1,148.799995458985,0|0,1:2|0:0,0:0:0:0:
42,181,58213,1,8,0:2:0:0:
119,138,58316,1,0,1:2:0:0:
194,358,58523,6,0,P|230:339|271:333,1,74.3999977294923,10|0,0:0|0:0,0:0:0:0:
319,252,58730,2,0,P|346:273|386:287,1,74.3999977294923,2|0,1:2|0:0,0:0:0:0:
493,274,58937,1,2,0:2:0:0:
492,325,59040,1,8,0:2:0:0:
446,350,59144,1,0,1:2:0:0:
238,259,59351,2,0,P|205:217|217:174,1,74.3999977294923,10|0,0:0|0:0,0:0:0:0:
381,68,59558,6,0,P|381:145|320:166,1,148.799995458985,2|0,1:2|0:0,0:0:0:0:
291,35,59868,1,8,0:2:0:0:
233,120,59971,2,0,P|232:42|293:21,1,148.799995458985,2|8,1:2|0:2,0:0:0:0:
504,216,60385,6,0,P|429:227|369:267,1,148.799995458985,2|0,1:2|0:0,0:0:0:0:
306,333,60695,1,8,0:2:0:0:
312,198,60799,2,0,P|284:237|277:274,1,74.3999977294923,2|0,1:2|0:0,0:0:0:0:
363,378,61006,2,0,P|329:370|296:348,1,74.3999977294923,10|0,0:0|0:0,0:0:0:0:
171,280,61213,6,0,P|115:203|140:149,1,148.799995458985,2|2,1:2|0:0,0:0:0:0:
203,109,61523,1,8,0:2:0:0:
130,160,61627,1,2,1:2:0:0:
365,236,61833,6,0,P|275:208|217:207,1,148.799995458985,10|0,0:2|1:2,0:0:0:0:
455,99,62247,1,2,0:0:0:0:
453,143,62351,1,8,0:2:0:0:
412,161,62454,1,0,1:2:0:0:
276,0,62661,2,0,P|266:34|251:77,1,74.3999977294923,10|0,0:0|0:0,0:0:0:0:
146,119,62868,6,0,P|168:201|234:199,1,148.799995458985,6|2,1:2|0:0,0:0:0:0:
291,160,63178,1,8,0:2:0:0:
220,205,63282,1,0,1:2:0:0:
147,21,63489,6,0,P|143:59|125:105,1,74.3999977294923,10|0,0:0|0:0,0:0:0:0:
42,143,63695,2,0,P|47:175|74:226,1,74.3999977294923,2|0,1:2|0:2,0:2:0:0:
228,264,63902,1,2,0:0:0:0:
259,295,64006,1,8,0:2:0:0:
229,328,64109,2,0,P|190:341|155:359,1,74.3999977294923,2|0,1:2|0:0,0:0:0:0:
71,381,64316,6,0,P|85:297|149:272,1,148.799995458985,10|4,0:2|1:2,0:0:0:0:
187,79,64730,2,0,P|173:163|109:188,1,148.799995458985,2|0,0:0|1:2,0:0:0:0:
7,54,65144,2,0,P|65:40|109:112,1,148.799995458985,10|0,0:2|1:2,0:0:0:0:
26,255,65558,5,2,0:0:0:0:
0,218,65661,1,8,0:0:0:0:
23,179,65764,2,0,P|63:182|93:215,1,74.3999977294923,2|0,1:2|0:0,0:0:0:0:
197,251,65971,2,0,L|215:168,1,74.3999977294923,10|0,0:0|0:0,0:0:0:0:
271,88,66178,6,0,P|350:73|420:47,1,148.799995458985,4|2,1:2|0:0,0:0:0:0:
499,14,66489,1,8,0:2:0:0:
414,49,66592,2,0,P|396:83|379:133,1,74.3999977294923,2|0,1:2|0:0,0:0:0:0:
298,165,66799,2,0,P|311:196|320:247,1,74.3999977294923,10|0,0:0|0:0,0:0:0:0:
377,315,67006,6,0,P|434:376|490:346,1,148.799995458985,0|2,1:2|0:0,0:0:0:0:
508,268,67316,1,8,0:2:0:0:
484,354,67420,1,0,1:2:0:0:
265,340,67627,2,0,P|261:302|253:255,1,74.3999977294923,10|0,0:0|0:0,0:0:0:0:
229,126,67833,6,0,P|305:126|322:190,1,148.799995458985,4|0,1:2|0:0,0:0:0:0:
233,252,68144,1,8,0:2:0:0:
233,252,68247,1,0,1:2:0:0:
21,174,68454,6,0,P|29:135|64:120,1,74.3999977294923,6|0,1:2|0:0,0:0:0:0:
142,159,68661,1,2,1:2:0:0:
166,208,68764,1,2,1:2:0:0:
131,244,68868,1,2,1:2:0:0:
87,246,68971,1,0,1:2:0:0:
64,275,69075,1,2,1:2:0:0:
64,312,69178,1,8,1:2:0:0:
104,340,69282,2,0,P|131:328|172:320,1,62,10|4,1:3|1:3,0:0:0:0:
266,256,69489,6,0,P|319:308|385:286,1,148.799995458985,4|0,1:2|0:0,0:0:0:0:
415,216,69799,1,8,0:2:0:0:
383,287,69902,1,0,1:2:0:0:
421,41,70109,6,0,P|436:73|473:116,1,74.3999977294923,10|0,0:0|0:0,0:0:0:0:
503,166,70316,2,0,P|430:125|365:113,1,148.799995458985,2|2,1:2|0:0,0:0:0:0:
277,137,70627,1,8,0:2:0:0:
366,113,70730,2,0,P|345:78|310:40,1,74.3999977294923,2|0,1:2|0:0,0:0:0:0:
184,0,70937,2,0,P|169:35|151:71,1,74.3999977294923,10|0,0:0|0:0,0:0:0:0:
46,144,71144,6,0,P|77:216|155:208,1,148.799995458985,0|0,1:2|0:0,0:0:0:0:
196,143,71454,1,8,0:2:0:0:
140,218,71558,1,0,1:2:0:0:
161,363,71764,6,0,P|199:349|228:319,1,74.3999977294923,10|0,0:0|0:0,0:0:0:0:
318,335,71971,2,0,P|337:303|337:249,1,74.3999977294923,2|0,1:2|0:0,0:0:0:0:
359,110,72178,1,2,0:0:0:0:
323,97,72282,1,8,0:2:0:0:
296,122,72385,1,0,1:2:0:0:
443,278,72592,6,0,P|435:240|402:188,1,74.3999977294923,10|0,0:0|0:0,0:0:0:0:
207,247,72799,2,0,P|284:233|339:192,1,148.799995458985,2|0,1:2|0:0,0:0:0:0:
368,58,73109,1,8,0:2:0:0:
295,121,73213,2,0,P|294:53|362:41,1,148.799995458985,2|8,1:2|0:2,0:0:0:0:
497,270,73627,6,0,P|498:338|430:350,1,148.799995458985,2|0,1:2|0:0,0:0:0:0:
372,292,73937,1,8,0:2:0:0:
345,378,74040,2,0,P|339:341|364:296,1,74.3999977294923,2|0,1:2|0:0,0:0:0:0:
421,208,74247,2,0,P|438:178|431:127,1,74.3999977294923,10|0,0:0|0:0,0:0:0:0:
268,70,74454,6,0,P|185:108|116:123,1,148.799995458985,2|2,1:2|0:0,0:0:0:0:
44,91,74764,1,8,0:2:0:0:
129,121,74868,2,0,P|165:127|200:162,1,74.3999977294923,2|0,1:2|0:0,0:0:0:0:
281,178,75075,2,0,P|287:214|265:261,1,74.3999977294923,10|0,0:0|0:0,0:0:0:0:
147,334,75282,6,0,B|49:312|49:312|39:281|20:269,1,148.799995458985,2|0,1:2|0:0,0:0:0:0:
1,181,75592,1,8,0:2:0:0:
23,271,75695,1,2,1:2:0:0:
251,365,75902,2,0,P|263:331|285:282,1,74.3999977294923,10|0,0:0|0:0,0:0:0:0:
386,216,76109,6,0,P|461:256|451:313,1,148.799995458985,6|2,1:2|0:0,0:0:0:0:
395,372,76420,1,8,0:2:0:0:
453,308,76523,1,0,1:2:0:0:
265,218,76730,6,0,P|269:173|294:143,1,74.3999977294923,10|0,0:0|0:0,0:0:0:0:
385,81,76937,2,0,L|303:62,1,74.3999977294923,2|0,1:2|0:0,0:0:0:0:
224,82,77144,1,2,0:0:0:0:
185,58,77247,1,8,0:2:0:0:
200,15,77351,1,2,1:2:0:0:
477,38,77558,6,0,P|404:136|393:240,1,223.199993188477,10|0,0:2|0:0,0:0:0:0:
373,358,77971,2,0,P|282:314|224:203,1,223.199993188477,2|0,0:0|0:0,0:0:0:0:
284,133,78385,2,0,P|289:66|210:66,1,148.799995458985,10|0,0:2|1:2,0:0:0:0:
7,181,78799,5,0,0:0:0:0:
35,215,78902,1,8,0:2:0:0:
79,213,79006,2,0,P|110:194|162:178,1,74.3999977294923,2|0,1:2|0:0,0:0:0:0:
225,210,79213,1,10,0:2:0:0:
293,384,79420,6,0,P|213:340|155:331,1,148.799995458985,4|0,1:2|0:0,0:0:0:0:
66,354,79730,1,8,0:2:0:0:
157,331,79833,2,0,P|134:301|137:253,1,74.3999977294923,2|0,1:2|0:0,0:0:0:0:
71,195,80040,2,0,P|89:164|132:148,1,74.3999977294923,10|0,0:0|0:0,0:0:0:0:
243,247,80247,6,0,P|309:206|309:136,1,148.799995458985,0|0,1:2|0:0,0:0:0:0:
253,74,80558,1,8,0:2:0:0:
242,83,80661,2,0,P|251:118|289:146,1,74.3999977294923,2|0,1:2|0:0,0:0:0:0:
330,248,80868,2,0,P|364:247|404:215,1,74.3999977294923,10|0,0:0|0:0,0:0:0:0:
496,106,81075,5,4,1:2:0:0:
411,25,81282,1,0,0:0:0:0:
366,26,81385,1,8,0:2:0:0:
357,69,81489,1,0,1:2:0:0:
482,295,81695,6,0,P|484:208|431:158,1,148.799995458985,4|0,1:2|0:0,0:0:0:0:
343,174,82006,1,8,0:2:0:0:
329,191,82109,1,2,1:2:0:0:
219,332,82316,1,2,1:2:0:0:
95,203,82523,1,10,1:3:0:0:
94,165,82627,1,0,0:0:0:0:
133,151,82730,5,2,1:2:0:0:
235,154,82937,2,0,P|267:124|268:59,1,99.2,2|0,0:0|1:2,0:0:0:0:
96,55,83351,2,0,P|153:66|201:92,1,99.2,2|2,0:0|1:2,0:0:0:0:
307,211,83764,1,2,0:0:0:0:
219,246,83971,1,2,1:2:0:0:
362,141,84178,6,0,P|398:197|391:237,1,99.2,2|0,0:0|1:2,0:0:0:0:
294,91,84592,2,0,P|324:31|362:17,1,99.2,2|0,0:0|1:2,0:0:0:0:
285,175,85006,2,0,P|218:178|187:152,1,99.2,2|0,0:0|1:2,0:0:0:0:
136,63,85420,1,0,0:0:0:0:
140,43,85523,1,8,1:2:0:0:
158,36,85627,1,2,1:2:0:0:
194,160,85833,1,2,0:0:0:0:
80,228,86040,6,0,P|40:271|24:331,1,99.2,0|0,1:2|0:0,0:0:0:0:
187,151,86454,1,2,1:2:0:0:
196,360,86661,2,0,P|148:354|126:313,1,99.2,2|0,0:0|1:2,0:0:0:0:
191,240,87075,1,2,0:0:0:0:
350,333,87282,1,2,1:2:0:0:
433,253,87489,1,2,0:0:0:0:
510,290,87695,6,0,P|473:275|420:266,1,82.6666666666667,4|0,1:2|0:0,0:0:0:0:
296,162,88213,2,0,P|351:177|361:211,2,93
289,151,88937,1,0,0:0:0:0:
