osu file format v14

[General]
AudioFilename: audio.mp3
AudioLeadIn: 0
PreviewTime: 96001
Countdown: 0
SampleSet: Soft
StackLeniency: 0.4
Mode: 0
LetterboxInBreaks: 0
WidescreenStoryboard: 1

[Editor]
Bookmarks: 1177,18019,29247,40475,51703,62931,74159,85387,96615,107843,119071,130299
DistanceSpacing: 1.3
BeatDivisor: 4
GridSize: 32
TimelineZoom: 0.8999997

[Metadata]
Title:Envy Baby
TitleUnicode:エンヴィーベイビー
Artist:Such
ArtistUnicode:Such
Creator:Petal
Version:Wanpachi's Hard
Source:
Tags:japanese pop j-pop jpop kanaria gumi cover wanpachi reform kujinn matha full vocaloid pngtuber
BeatmapID:2941531
BeatmapSetID:1428781

[Difficulty]
HPDrainRate:5
CircleSize:3.6
OverallDifficulty:6
ApproachRate:7.5
SliderMultiplier:1.4
SliderTickRate:1

[Events]
//Background and Video events
0,0,"BG.jpg",0,0
//Break Periods
//Storyboard Layer 0 (Background)
//Storyboard Layer 1 (Fail)
//Storyboard Layer 2 (Pass)
//Storyboard Layer 3 (Foreground)
//Storyboard Layer 4 (Overlay)
//Storyboard Sound Samples

[TimingPoints]
1177,350.877192982456,4,2,1,60,1,0
1177,-125,4,2,1,40,0,0
6791,-100,4,2,1,60,0,0
18019,-111.111111111111,4,2,1,50,0,0
29247,-125,4,2,1,40,0,0
34861,-111.111111111111,4,2,1,50,0,0
40475,-90.9090909090909,4,2,1,70,0,1
62931,-100,4,2,1,60,0,0
74159,-111.111111111111,4,2,1,50,0,0
85387,-125,4,2,1,40,0,0
91001,-111.111111111111,4,2,1,50,0,0
96615,-90.9090909090909,4,2,1,70,0,1
119071,-100,4,2,1,60,0,0
130299,-100,4,2,1,40,0,0
133282,-100,4,2,1,10,0,0

[Colours]
Combo1 : 190,190,205
Combo2 : 255,26,0
Combo3 : 192,192,192
Combo4 : 101,218,218

[HitObjects]
33,54,1177,5,2,0:0:0:0:
160,237,1703,1,2,0:0:0:0:
160,237,1878,1,2,0:0:0:0:
179,22,2405,1,2,0:0:0:0:
179,22,2580,1,2,0:0:0:0:
35,187,3106,1,2,0:0:0:0:
35,187,3282,1,2,0:0:0:0:
249,132,3808,5,2,0:0:0:0:
249,132,3984,1,2,0:0:0:0:
220,351,4510,1,2,0:0:0:0:
220,351,4685,1,2,0:0:0:0:
362,184,5212,1,2,0:0:0:0:
362,184,5562,5,2,3:2:0:0:
377,255,5738,1,2,3:2:0:0:
347,321,5913,1,2,3:2:0:0:
278,345,6089,1,2,3:2:0:0:
278,345,6440,1,2,3:2:0:0:
244,137,6791,6,0,P|252:104|261:55,1,70,6|0,3:2|0:0,0:0:0:0:
172,42,7141,2,0,P|139:50|90:59,1,70,10|0,3:2|0:0,0:0:0:0:
28,109,7492,1,2,3:2:0:0:
72,189,7668,2,0,P|65:223|57:257,1,70,2|8,0:0|3:2,0:0:0:0:
28,343,8019,6,0,P|60:297|149:307,1,140,2|2,0:0|0:0,0:0:0:0:
220,337,8545,1,8,3:2:0:0:
303,295,8720,1,2,0:0:0:0:
303,295,8808,1,2,0:0:0:0:
303,295,8896,2,0,P|349:289|391:280,1,70,2|2,3:2|0:0,0:0:0:0:
447,336,9247,1,10,3:2:0:0:
493,258,9422,6,0,P|507:190|484:125,1,140,2|2,0:0|0:0,0:0:0:0:
408,75,9948,1,10,3:2:0:0:
336,131,10124,1,2,0:0:0:0:
259,81,10299,2,0,P|213:73|174:56,1,70,2|2,3:2|0:0,0:0:0:0:
108,26,10650,1,10,3:2:0:0:
42,89,10826,6,0,P|22:161|58:214,1,140,2|2,0:0|0:0,0:0:0:0:
128,266,11352,1,10,3:2:0:0:
101,352,11527,1,2,0:0:0:0:
188,376,11703,2,0,P|233:363|274:358,1,70,2|2,3:2|0:0,0:0:0:0:
319,293,12054,2,0,P|353:299|386:309,1,70,10|2,3:2|0:0,0:0:0:0:
468,352,12405,6,0,P|500:276|460:224,2,140,2|10|2,3:2|3:2|3:2,0:0:0:0:
386,309,13282,1,2,0:0:0:0:
225,223,13633,6,0,P|214:256|208:290,1,70,2|0,0:0|3:2,0:0:0:0:
139,351,13984,2,0,P|132:316|122:283,1,70,2|8,0:0|3:2,0:0:0:0:
55,242,14334,1,2,0:0:0:0:
55,242,14422,1,2,0:0:0:0:
55,242,14510,2,0,P|61:207|71:174,1,70,2|2,3:2|0:0,0:0:0:0:
37,89,14861,1,10,3:2:0:0:
117,47,15036,6,0,P|190:99|263:84,1,140,2|2,0:0|0:0,0:0:0:0:
311,44,15562,1,10,3:2:0:0:
376,107,15738,1,2,0:0:0:0:
461,76,15913,2,0,P|469:121|484:166,1,70,2|2,3:2|0:0,0:0:0:0:
506,230,16264,1,10,3:2:0:0:
448,301,16440,6,0,P|384:308|323:256,1,140,2|2,0:0|0:0,0:0:0:0:
238,240,16966,1,10,3:2:0:0:
165,294,17141,1,2,0:0:0:0:
81,259,17317,2,0,P|89:224|92:190,1,70,2|2,3:2|0:0,0:0:0:0:
20,133,17668,1,10,3:2:0:0:
183,36,18019,5,4,3:2:0:0:
183,36,18194,2,0,P|230:96|224:170,1,125.999996154785,2|2,0:0|0:0,0:0:0:0:
275,213,18720,2,0,P|280:255|297:345,1,125.999996154785,2|10,3:2|3:2,0:0:0:0:
458,315,19422,6,0,P|471:276|482:247,1,62.9999980773926,2|2,3:2|0:0,0:0:0:0:
428,190,19773,2,0,P|415:151|404:122,1,62.9999980773926,10|2,3:2|0:0,0:0:0:0:
456,64,20124,2,0,P|426:53|396:43,1,62.9999980773926,2|2,3:2|0:0,0:0:0:0:
317,20,20475,1,10,3:2:0:0:
170,88,20826,5,2,3:2:0:0:
170,88,21001,2,0,P|135:28|71:9,2,125.999996154785,2|2|2,0:0|0:0|0:0,0:0:0:0:
56,206,22054,1,2,0:0:0:0:
157,334,22405,6,0,P|204:325|240:321,1,62.9999980773926,2|8,0:0|3:2,0:0:0:0:
297,293,22755,1,2,0:0:0:0:
297,293,22931,2,0,P|388:341|417:328,1,125.999996154785,2|10,3:2|3:2,0:0:0:0:
504,210,23633,5,0,3:2:0:0:
504,210,23808,2,0,P|417:233|358:242,1,125.999996154785,2|2,0:0|0:0,0:0:0:0:
310,198,24334,2,0,P|257:184|222:178,1,62.9999980773926,2|2,3:2|0:0,0:0:0:0:
178,225,24685,1,10,3:2:0:0:
47,126,25036,6,0,P|70:85|78:59,1,62.9999980773926,2|2,3:2|0:0,0:0:0:0:
146,29,25387,2,0,P|175:40|201:57,1,62.9999980773926,10|2,3:2|0:0,0:0:0:0:
277,89,25738,2,0,P|303:72|332:60,1,62.9999980773926,2|2,3:2|0:0,0:0:0:0:
414,66,26089,1,10,3:2:0:0:
398,232,26440,5,2,3:2:0:0:
398,232,26615,2,0,P|480:269|526:304,2,125.999996154785,2|2|2,0:0|0:0|0:0,0:0:0:0:
255,313,27668,1,2,0:0:0:0:
107,242,28019,6,0,P|96:203|78:169,1,62.9999980773926,2|10,0:0|3:2,0:0:0:0:
13,158,28369,1,2,0:0:0:0:
13,158,28545,2,0,P|57:86|121:83,1,125.999996154785,2|10,3:2|3:2,0:0:0:0:
264,75,29247,5,4,3:2:0:0:
264,75,29422,2,0,P|251:157|246:205,1,112,2|2,0:0|3:2,0:0:0:0:
212,249,29948,2,0,P|233:309|296:304,1,112,2|2,3:2|0:0,0:0:0:0:
414,272,30650,5,2,3:2:0:0:
349,141,31001,2,0,P|362:97|370:64,1,56,2|0,0:0|3:2,0:0:0:0:
315,32,31352,1,2,3:2:0:0:
193,111,31703,1,2,0:0:0:0:
56,75,32054,5,0,3:2:0:0:
56,75,32229,2,0,P|72:147|77:198,1,112,2|2,0:0|3:2,0:0:0:0:
57,255,32755,2,0,P|120:295|140:344,1,112,2|2,3:2|0:0,0:0:0:0:
284,377,33457,6,0,P|311:364|340:353,1,56,6|0,3:2|0:0,0:0:0:0:
412,318,33808,2,0,P|413:287|418:257,1,56,6|0,3:2|0:0,0:0:0:0:
424,177,34159,2,0,P|398:159|375:140,1,56,6|0,3:2|0:0,0:0:0:0:
319,84,34510,1,6,3:2:0:0:
206,219,34861,6,0,P|223:293|225:334,1,94.499997116089,4|8,3:2|0:0,0:0:0:0:
220,352,35212,2,0,P|189:366|152:393,1,62.9999980773926,0|10,3:2|0:0,0:0:0:0:
86,360,35562,2,0,P|59:342|30:329,1,62.9999980773926,2|10,3:2|0:0,0:0:0:0:
26,247,35913,2,0,P|38:218|56:191,1,62.9999980773926,2|10,3:2|0:0,0:0:0:0:
38,111,36264,6,0,P|110:102|138:71,1,94.499997116089,2|8,3:2|0:0,0:0:0:0:
149,56,36615,2,0,P|206:45|232:35,1,62.9999980773926,2|8,3:2|0:0,0:0:0:0:
266,103,36966,2,0,P|323:114|349:124,1,62.9999980773926,2|8,3:2|0:0,0:0:0:0:
383,55,37317,2,0,P|440:44|466:34,1,62.9999980773926,2|8,3:2|0:0,0:0:0:0:
495,106,37668,5,2,3:2:0:0:
495,106,39247,5,2,3:2:0:0:
510,186,39422,1,2,3:2:0:0:
452,244,39598,1,2,3:2:0:0:
195,375,40475,6,0,P|218:329|227:291,1,77.0000023498536,6|0,3:2|0:0,0:0:0:0:
284,224,40826,2,0,P|261:178|252:140,1,77.0000023498536,10|0,3:2|0:0,0:0:0:0:
188,78,41176,1,2,3:2:0:0:
259,6,41352,2,0,P|313:26|340:34,1,77.0000023498536,2|8,0:0|3:2,0:0:0:0:
430,17,41703,6,0,P|455:107|396:168,1,154.000004699707,2|2,0:0|0:0,0:0:0:0:
364,233,42229,1,8,3:2:0:0:
383,330,42405,2,0,P|313:301|236:293,1,154.000004699707,2|2,0:0|0:0,0:0:0:0:
246,193,42931,2,0,P|207:196|172:211,1,77.0000023498536,10|2,3:2|0:0,0:0:0:0:
89,269,43282,5,0,3:2:0:0:
17,198,43457,2,0,P|31:155|42:113,2,77.0000023498536,2|10|2,0:0|3:2|0:0,0:0:0:0:
89,269,43984,1,2,3:2:0:0:
172,211,44159,2,0,P|161:173|149:137,1,77.0000023498536,2|8,0:0|3:2,0:0:0:0:
97,51,44510,6,0,P|189:91|252:64,1,154.000004699707,2|2,0:0|0:0,0:0:0:0:
329,40,45036,1,10,3:2:0:0:
406,103,45212,2,0,P|422:199|440:260,1,154.000004699707,2|2,0:0|0:0,0:0:0:0:
461,297,45650,1,2,0:0:0:0:
461,297,45738,1,10,3:2:0:0:
374,347,45913,1,2,0:0:0:0:
313,266,46089,6,0,P|272:255|216:251,1,77.0000023498536,2|0,3:2|0:0,0:0:0:0:
173,174,46440,2,0,P|214:163|270:159,1,77.0000023498536,10|0,3:2|0:0,0:0:0:0:
308,78,46791,1,2,3:2:0:0:
223,24,46966,2,0,P|164:38|143:66,1,77.0000023498536,2|10,0:0|3:2,0:0:0:0:
53,43,47317,6,0,P|95:135|104:214,1,154.000004699707,2|2,0:0|0:0,0:0:0:0:
44,267,47843,1,8,3:2:0:0:
128,320,48019,2,0,P|185:268|268:289,1,154.000004699707,2|2,0:0|0:0,0:0:0:0:
327,349,48545,2,0,P|383:358|414:367,1,77.0000023498536,10|2,3:2|0:0,0:0:0:0:
477,296,48896,5,0,3:2:0:0:
415,217,49071,2,0,P|377:226|339:231,2,77.0000023498536,2|10|2,0:0|3:2|0:0,0:0:0:0:
480,140,49598,1,2,3:2:0:0:
424,57,49773,2,0,P|334:87|325:120,1,115.50000352478,2|0,0:0|0:0,0:0:0:0:
344,145,50124,6,0,P|267:121|178:116,1,154.000004699707,2|2,3:2|3:2,0:0:0:0:
102,73,50650,1,2,3:2:0:0:
113,172,50826,1,2,3:2:0:0:
194,115,51001,1,2,3:2:0:0:
32,229,51352,1,2,3:2:0:0:
203,332,51703,5,2,3:2:0:0:
295,154,52054,1,2,3:2:0:0:
133,36,52405,1,2,3:2:0:0:
194,115,52580,1,2,3:2:0:0:
376,0,52931,6,0,P|452:29|479:100,1,154.000004699707,6|2,3:2|0:0,0:0:0:0:
410,164,53457,2,0,P|425:199|436:236,1,77.0000023498536,10|2,3:2|0:0,0:0:0:0:
465,333,53808,2,0,P|428:344|392:359,1,77.0000023498536,2|2,3:2|0:0,0:0:0:0:
301,317,54159,1,10,3:2:0:0:
213,366,54334,1,2,0:0:0:0:
134,302,54510,6,0,P|121:250|99:202,1,77.0000023498536,2|0,3:2|0:0,0:0:0:0:
177,152,54861,2,0,P|190:100|212:52,1,77.0000023498536,10|0,3:2|0:0,0:0:0:0:
282,23,55212,1,2,3:2:0:0:
350,95,55387,2,0,P|386:81|423:73,1,77.0000023498536,2|8,0:0|3:2,0:0:0:0:
502,135,55738,6,0,P|460:222|458:298,1,154.000004699707,2|2,0:0|0:0,0:0:0:0:
368,327,56264,1,10,3:2:0:0:
277,282,56440,1,2,0:0:0:0:
192,334,56615,2,0,P|156:312|94:302,1,77.0000023498536,2|2,3:2|0:0,0:0:0:0:
60,223,56966,2,0,P|70:186|91:153,1,77.0000023498536,10|2,3:2|0:0,0:0:0:0:
185,118,57317,5,2,3:2:0:0:
369,195,57668,1,2,3:2:0:0:
292,380,58019,1,2,3:2:0:0:
277,282,58194,1,2,3:2:0:0:
488,376,58545,6,0,P|512:292|479:214,1,154.000004699707,6|2,3:2|0:0,0:0:0:0:
461,135,59071,2,0,P|406:150|364:157,1,77.0000023498536,10|2,3:2|0:0,0:0:0:0:
286,160,59422,1,2,3:2:0:0:
245,67,59598,1,2,0:0:0:0:
147,87,59773,2,0,P|132:142|125:184,1,77.0000023498536,10|2,3:2|0:0,0:0:0:0:
48,222,60124,5,0,3:2:0:0:
116,294,60299,2,0,P|204:295|252:364,1,154.000004699707,2|2,0:0|0:0,0:0:0:0:
343,365,60826,2,0,P|386:353|430:345,1,77.0000023498536,2|2,3:2|0:0,0:0:0:0:
477,266,61176,1,10,3:2:0:0:
411,190,61352,1,2,3:2:0:0:
411,190,61703,5,10,3:2:0:0:
479,117,61878,1,10,3:2:0:0:
435,26,62054,1,10,3:2:0:0:
335,15,62229,1,10,3:2:0:0:
335,15,62580,1,10,3:2:0:0:
187,164,62931,6,0,P|212:216|223:250,1,70,6|0,3:2|0:0,0:0:0:0:
299,265,63282,2,0,P|274:317|263:351,1,70,10|0,3:2|0:0,0:0:0:0:
189,372,63633,1,2,3:2:0:0:
111,324,63808,2,0,P|71:309|30:300,1,70,2|8,0:0|3:2,0:0:0:0:
13,216,64159,6,0,P|61:150|63:87,1,140,2|2,0:0|0:0,0:0:0:0:
128,28,64685,1,8,3:2:0:0:
219,71,64861,1,2,0:0:0:0:
219,71,64948,1,2,0:0:0:0:
219,71,65036,2,0,P|261:61|319:55,1,70,2|2,3:2|0:0,0:0:0:0:
371,22,65387,1,10,3:2:0:0:
437,84,65562,6,0,P|410:161|414:231,1,140,2|2,0:0|0:0,0:0:0:0:
355,291,66089,1,10,3:2:0:0:
269,259,66264,1,2,0:0:0:0:
207,326,66440,2,0,P|162:321|114:319,1,70,2|2,3:2|0:0,0:0:0:0:
56,362,66791,1,10,3:2:0:0:
18,279,66966,6,0,P|62:213|65:131,1,140,2|2,0:0|0:0,0:0:0:0:
107,71,67492,1,10,3:2:0:0:
192,103,67668,1,2,0:0:0:0:
271,59,67843,2,0,P|315:50|345:40,1,70,2|2,3:2|0:0,0:0:0:0:
411,98,68194,2,0,P|396:140|390:171,1,70,10|2,3:2|0:0,0:0:0:0:
400,255,68545,6,0,P|449:312|529:300,2,140,2|10|2,3:2|3:2|3:2,0:0:0:0:
316,216,69422,1,2,0:0:0:0:
285,38,69773,6,0,P|247:52|210:59,1,70,2|0,0:0|3:2,0:0:0:0:
143,110,70124,2,0,P|105:96|68:89,1,70,2|8,0:0|3:2,0:0:0:0:
14,157,70475,1,2,0:0:0:0:
14,157,70562,1,2,0:0:0:0:
14,157,70650,2,0,P|28:209|30:240,1,70,2|2,3:2|0:0,0:0:0:0:
6,313,71001,1,10,3:2:0:0:
90,345,71176,6,0,P|159:358|222:292,1,140,2|2,0:0|0:0,0:0:0:0:
293,277,71703,1,10,3:2:0:0:
378,307,71878,1,2,0:0:0:0:
442,242,72054,2,0,P|454:198|476:166,1,70,2|2,3:2|0:0,0:0:0:0:
509,96,72405,1,10,3:2:0:0:
439,38,72580,5,2,3:2:0:0:
271,109,72931,1,2,3:2:0:0:
271,109,73106,1,2,3:2:0:0:
107,28,73457,1,2,3:2:0:0:
66,353,74159,6,0,P|86:274|110:220,1,125.999996154785,2|2,3:2|0:0,0:0:0:0:
49,77,74861,2,0,P|132:73|175:27,1,125.999996154785,2|2,0:0|3:2,0:0:0:0:
239,18,75387,1,2,0:0:0:0:
239,18,75562,6,0,P|278:31|314:40,1,62.9999980773926,2|2,3:2|0:0,0:0:0:0:
363,88,75913,2,0,P|402:75|438:66,1,62.9999980773926,2|2,0:0|3:2,0:0:0:0:
480,128,76264,2,0,P|444:198|444:262,1,125.999996154785,2|2,0:0|3:2,0:0:0:0:
307,339,76966,6,0,P|234:342|216:282,1,125.999996154785,2|2,3:2|0:0,0:0:0:0:
98,184,77668,2,0,P|120:133|137:84,1,94.499997116089,2|2,0:0|0:0,0:0:0:0:
126,56,78019,2,0,P|157:51|186:40,1,62.9999980773926,0|2,3:2|0:0,0:0:0:0:
267,29,78369,6,0,P|272:75|287:120,2,94.499997116089,2|2|2,3:2|0:0|3:2,0:0:0:0:
347,44,79071,2,0,P|397:30|431:23,1,62.9999980773926,2|8,0:0|0:0,0:0:0:0:
481,64,79422,1,8,3:2:0:0:
358,172,79773,6,0,P|348:232|384:283,1,125.999996154785,2|2,3:2|0:0,0:0:0:0:
246,372,80475,2,0,P|232:310|209:248,1,125.999996154785,2|2,0:0|3:2,0:0:0:0:
254,181,81001,1,2,0:0:0:0:
254,181,81176,6,0,P|262:139|270:110,1,62.9999980773926,2|2,0:0|3:2,0:0:0:0:
221,51,81527,2,0,P|179:59|150:67,1,62.9999980773926,2|2,0:0|3:2,0:0:0:0:
88,23,81878,2,0,P|40:83|38:138,1,125.999996154785,2|2,3:2|3:2,0:0:0:0:
82,287,82580,6,0,P|165:298|224:315,1,125.999996154785,2|2,3:2|0:0,0:0:0:0:
277,348,83106,1,8,3:2:0:0:
277,348,83282,2,0,P|312:286|375:284,1,125.999996154785,2|2,0:0|3:2,0:0:0:0:
458,53,84159,5,10,3:2:0:0:
378,32,84334,1,10,3:2:0:0:
302,64,84510,1,10,3:2:0:0:
280,142,84685,2,0,P|290:186|296:223,1,62.9999980773926,10|2,3:2|0:0,0:0:0:0:
323,238,84948,1,0,3:2:0:0:
323,238,85036,2,0,P|313:282|307:319,1,62.9999980773926,10|10,3:2|3:2,0:0:0:0:
240,343,85387,5,4,3:2:0:0:
240,343,85562,2,0,P|181:303|129:307,1,112,2|2,0:0|3:2,0:0:0:0:
74,331,86089,2,0,P|52:240|39:209,1,112,2|2,3:2|0:0,0:0:0:0:
85,83,86790,5,2,3:2:0:0:
225,120,87141,2,0,P|272:105|302:99,1,56,2|0,0:0|3:2,0:0:0:0:
339,62,87492,1,2,3:2:0:0:
428,176,87843,1,2,0:0:0:0:
348,298,88194,5,0,3:2:0:0:
348,298,88369,2,0,P|272:286|241:238,1,112,2|2,0:0|3:2,0:0:0:0:
214,198,88896,2,0,P|201:266|186:315,1,112,2|2,3:2|0:0,0:0:0:0:
46,222,89597,6,0,P|43:191|37:161,1,56,6|0,3:2|0:0,0:0:0:0:
34,81,89948,2,0,P|59:63|82:43,1,56,6|0,3:2|0:0,0:0:0:0:
150,0,90299,2,0,P|177:12|206:23,1,56,6|0,3:2|0:0,0:0:0:0:
285,44,90650,1,6,3:2:0:0:
393,172,91001,6,0,P|458:168|479:139,1,94.499997116089,4|8,3:2|0:0,0:0:0:0:
501,127,91352,2,0,P|486:82|482:49,1,62.9999980773926,0|10,3:2|0:0,0:0:0:0:
430,4,91703,2,0,P|399:10|369:21,1,62.9999980773926,2|10,3:2|0:0,0:0:0:0:
293,52,92054,2,0,P|263:40|232:34,1,62.9999980773926,2|10,3:2|0:0,0:0:0:0:
157,68,92405,6,0,P|172:147|179:188,1,94.499997116089,2|8,3:2|0:0,0:0:0:0:
171,201,92755,2,0,P|151:239|149:283,1,62.9999980773926,2|8,3:2|0:0,0:0:0:0:
205,316,93106,2,0,P|243:296|287:294,1,62.9999980773926,2|8,3:2|0:0,0:0:0:0:
335,256,93457,2,0,P|373:276|417:278,1,62.9999980773926,2|8,3:2|0:0,0:0:0:0:
470,254,93808,5,2,3:2:0:0:
470,254,95387,5,2,3:2:0:0:
444,176,95562,1,2,3:2:0:0:
493,111,95738,1,2,3:2:0:0:
220,36,96615,6,0,P|238:84|248:132,1,77.0000023498536,6|0,3:2|0:0,0:0:0:0:
322,171,96966,2,0,P|304:219|294:267,1,77.0000023498536,10|0,3:2|0:0,0:0:0:0:
259,336,97317,1,2,3:2:0:0:
171,287,97492,2,0,P|132:291|95:299,1,77.0000023498536,2|8,0:0|3:2,0:0:0:0:
13,358,97843,6,0,P|57:272|24:210,1,154.000004699707,2|2,0:0|0:0,0:0:0:0:
4,129,98369,1,8,3:2:0:0:
88,75,98545,2,0,P|183:104|266:107,1,154.000004699707,2|2,0:0|0:0,0:0:0:0:
308,179,99071,2,0,P|346:174|382:162,1,77.0000023498536,10|2,3:2|0:0,0:0:0:0:
473,119,99422,5,0,3:2:0:0:
411,39,99598,2,0,P|373:29|337:17,2,77.0000023498536,2|10|2,0:0|3:2|0:0,0:0:0:0:
473,119,100124,2,0,P|460:155|451:192,1,77.0000023498536,2|2,3:2|0:0,0:0:0:0:
376,260,100475,1,8,3:2:0:0:
432,342,100650,6,0,P|342:300|270:324,1,154.000004699707,2|2,0:0|0:0,0:0:0:0:
208,366,101176,1,10,3:2:0:0:
136,295,101352,2,0,P|166:197|161:131,1,154.000004699707,2|2,0:0|0:0,0:0:0:0:
133,105,101791,1,2,0:0:0:0:
133,105,101878,1,10,3:2:0:0:
212,44,102054,1,0,0:0:0:0:
286,110,102229,6,0,P|295:147|308:183,1,77.0000023498536,2|0,3:2|0:0,0:0:0:0:
359,269,102580,2,0,P|345:304|336:342,1,77.0000023498536,10|0,3:2|0:0,0:0:0:0:
430,375,102931,1,2,3:2:0:0:
498,302,103106,2,0,P|484:266|475:228,1,77.0000023498536,2|10,0:0|3:2,0:0:0:0:
401,160,103457,6,0,P|451:93|448:10,1,154.000004699707,2|2,0:0|0:0,0:0:0:0:
353,6,103984,1,8,3:2:0:0:
260,43,104159,2,0,P|187:26|91:23,1,154.000004699707,2|2,0:0|0:0,0:0:0:0:
28,82,104685,2,0,P|57:129|63:180,1,77.0000023498536,10|2,3:2|0:0,0:0:0:0:
134,219,105036,5,0,3:2:0:0:
79,303,105212,2,0,P|37:317|-7:334,2,77.0000023498536,2|10|2,0:0|3:2|0:0,0:0:0:0:
154,368,105738,1,2,3:2:0:0:
233,307,105913,2,0,P|280:317|355:349,1,115.50000352478,2|0,0:0|0:0,0:0:0:0:
389,359,106264,6,0,P|451:314|431:241,1,154.000004699707,2|2,3:2|3:2,0:0:0:0:
344,205,106791,1,2,3:2:0:0:
425,147,106966,1,2,3:2:0:0:
436,246,107141,1,2,3:2:0:0:
252,164,107492,1,10,3:2:0:0:
377,7,107843,5,10,3:2:0:0:
344,205,108194,1,10,3:2:0:0:
170,104,108545,1,10,3:2:0:0:
268,85,108720,1,10,3:2:0:0:
276,316,109071,6,0,P|199:313|112:369,1,154.000004699707,14|2,3:2|0:0,0:0:0:0:
51,286,109598,2,0,P|66:237|72:202,1,77.0000023498536,10|2,3:2|0:0,0:0:0:0:
148,148,109948,2,0,P|133:99|127:64,1,77.0000023498536,2|2,3:2|0:0,0:0:0:0:
209,14,110299,1,10,3:2:0:0:
292,69,110475,1,2,0:0:0:0:
385,32,110650,6,0,P|430:58|480:70,1,77.0000023498536,2|0,3:2|0:0,0:0:0:0:
498,155,111001,2,0,P|461:168|429:188,1,77.0000023498536,10|0,3:2|0:0,0:0:0:0:
385,278,111352,1,2,3:2:0:0:
296,232,111527,2,0,P|285:294|274:336,1,77.0000023498536,2|8,0:0|3:2,0:0:0:0:
202,369,111878,6,0,P|134:322|62:347,1,154.000004699707,2|2,0:0|0:0,0:0:0:0:
17,253,112405,1,10,3:2:0:0:
92,188,112580,1,2,0:0:0:0:
51,96,112755,2,0,P|69:49|82:7,1,77.0000023498536,2|2,3:2|0:0,0:0:0:0:
175,3,113106,2,0,P|193:50|206:92,1,77.0000023498536,10|2,3:2|0:0,0:0:0:0:
196,175,113457,5,10,3:2:0:0:
379,253,113808,1,10,3:2:0:0:
223,377,114159,1,10,3:2:0:0:
259,283,114334,1,10,3:2:0:0:
488,312,114685,6,0,P|465:234|463:146,1,154.000004699707,14|2,3:2|0:0,0:0:0:0:
493,65,115212,2,0,P|437:49|407:21,1,77.0000023498536,10|2,3:2|0:0,0:0:0:0:
345,101,115562,2,0,P|289:117|259:145,1,77.0000023498536,2|2,3:2|0:0,0:0:0:0:
205,54,115913,1,10,3:2:0:0:
130,121,116089,2,0,P|146:172|149:210,1,77.0000023498536,2|0,0:0|3:2,0:0:0:0:
77,266,116440,6,0,P|130:338|192:316,1,154.000004699707,2|2,0:0|0:0,0:0:0:0:
237,240,116966,2,0,P|274:249|313:256,1,77.0000023498536,2|2,3:2|0:0,0:0:0:0:
383,185,117317,1,10,3:2:0:0:
467,238,117492,1,2,3:2:0:0:
467,238,117843,5,10,3:2:0:0:
505,145,118019,1,10,3:2:0:0:
446,64,118194,1,10,3:2:0:0:
346,71,118369,1,10,3:2:0:0:
346,71,118720,1,10,3:2:0:0:
221,240,119071,6,0,P|236:283|244:320,1,70,6|0,3:2|0:0,0:0:0:0:
182,376,119422,2,0,P|139:361|102:353,1,70,10|0,3:2|0:0,0:0:0:0:
39,304,119773,1,2,3:2:0:0:
84,225,119948,2,0,P|68:179|57:150,1,70,2|8,0:0|3:2,0:0:0:0:
20,76,120299,6,0,P|101:120|153:99,1,140,2|2,0:0|0:0,0:0:0:0:
223,65,120826,1,8,3:2:0:0:
274,139,121001,2,0,P|372:119|430:114,1,140,2|2,0:0|0:0,0:0:0:0:
502,104,121527,2,0,P|494:138|490:172,1,70,10|2,3:2|0:0,0:0:0:0:
422,233,121878,6,0,P|429:267|433:301,1,70,2|2,3:2|0:0,0:0:0:0:
370,367,122229,2,0,P|328:315|264:329,1,140,10|2,3:2|3:2,0:0:0:0:
180,292,122755,1,2,0:0:0:0:
95,327,122931,1,10,3:2:0:0:
42,253,123106,6,0,P|84:192|74:111,1,140,2|2,0:0|0:0,0:0:0:0:
142,59,123633,1,8,3:2:0:0:
231,73,123808,2,0,P|309:60|392:55,1,140,2|2,0:0|0:0,0:0:0:0:
454,88,124334,1,10,3:2:0:0:
365,246,124685,6,0,P|327:229|283:223,1,70,2|0,3:2|0:0,0:0:0:0:
222,174,125036,2,0,P|184:191|140:197,1,70,10|0,3:2|0:0,0:0:0:0:
76,151,125387,1,2,3:2:0:0:
19,221,125562,2,0,P|27:276|29:310,1,70,2|8,0:0|3:2,0:0:0:0:
102,342,125913,6,0,P|166:363|226:331,1,140,2|2,0:0|0:0,0:0:0:0:
284,260,126440,1,8,3:2:0:0:
345,326,126615,2,0,P|428:308|490:297,1,140,2|2,0:0|0:0,0:0:0:0:
508,210,127141,1,10,3:2:0:0:
436,153,127317,6,0,P|475:84|458:20,1,140,2|2,0:0|0:0,0:0:0:0:
375,0,127843,2,0,P|333:13|284:22,1,70,10|0,3:2|0:0,0:0:0:0:
236,76,128194,2,0,P|194:63|145:54,1,70,2|2,3:2|0:0,0:0:0:0:
98,113,128545,1,10,3:2:0:0:
98,113,128633,1,2,0:0:0:0:
98,113,128720,5,2,3:2:0:0:
42,286,129071,1,2,3:2:0:0:
215,343,129422,1,2,3:2:0:0:
231,161,129773,1,2,3:2:0:0:
203,248,129948,1,10,3:2:0:0:
290,276,130124,1,2,3:2:0:0:
317,189,130299,5,2,0:0:0:0:
256,192,130387,12,0,133282,0:0:0:0:
