osu file format v14

[General]
AudioFilename: audio.mp3
AudioLeadIn: 0
PreviewTime: 96001
Countdown: 0
SampleSet: Soft
StackLeniency: 0.4
Mode: 0
LetterboxInBreaks: 0
WidescreenStoryboard: 1

[Editor]
Bookmarks: 1177,18019,29247,40475,51703,62931,74159,85387,96615,107843,119071,130299
DistanceSpacing: 1
BeatDivisor: 4
GridSize: 32
TimelineZoom: 1.6

[Metadata]
Title:Envy Baby
TitleUnicode:エンヴィーベイビー
Artist:Such
ArtistUnicode:Such
Creator:Petal
Version:Normal
Source:
Tags:japanese pop j-pop jpop kanaria gumi cover wanpachi reform kujinn matha full vocaloid pngtuber
BeatmapID:2941530
BeatmapSetID:1428781

[Difficulty]
HPDrainRate:4
CircleSize:3.3
OverallDifficulty:4
ApproachRate:5
SliderMultiplier:1
SliderTickRate:1

[Events]
//Background and Video events
0,0,"BG.jpg",0,0
//Break Periods
2,63131,72959
//Storyboard Layer 0 (Background)
//Storyboard Layer 1 (Fail)
//Storyboard Layer 2 (Pass)
//Storyboard Layer 3 (Foreground)
//Storyboard Layer 4 (Overlay)
//Storyboard Sound Samples

[TimingPoints]
1177,350.877192982456,4,2,1,40,1,0
5562,-100,4,2,1,70,0,0
6791,-100,4,2,1,65,0,0
18019,-100,4,2,1,55,0,0
29247,-111.111111111111,4,2,1,50,0,0
33457,-99.9999999999999,4,2,1,60,0,0
39948,-99.9999999999999,4,2,1,40,0,0
40475,-90.9090909090909,4,2,1,80,0,1
62931,-90.9090909090909,4,2,1,65,0,0
73808,-90.9090909090909,4,2,1,40,0,0
74159,-100,4,2,1,60,0,0
84159,-100,4,2,1,65,0,0
85387,-111.111111111111,4,2,1,55,0,0
89598,-111.111111111111,4,2,1,65,0,0
91001,-100,4,2,1,65,0,0
96089,-100,4,2,1,40,0,0
96615,-90.9090909090909,4,2,1,85,0,1
119071,-100,4,2,1,75,0,0
129773,-100,4,2,1,60,0,0
130387,-100,4,2,1,5,0,0
133282,-100,4,2,1,20,0,0

[Colours]
Combo1 : 190,190,205
Combo2 : 255,26,0
Combo3 : 192,192,192
Combo4 : 101,218,218

[HitObjects]
38,47,1177,5,2,0:0:0:0:
191,48,1703,1,2,0:0:0:0:
191,48,1878,1,2,0:0:0:0:
189,202,2405,1,2,0:0:0:0:
189,202,2580,1,2,0:0:0:0:
43,205,3106,1,2,0:0:0:0:
43,205,3282,1,2,0:0:0:0:
40,358,3808,5,2,0:0:0:0:
40,358,3984,1,2,0:0:0:0:
193,362,4510,1,2,0:0:0:0:
193,362,4686,1,2,0:0:0:0:
307,264,5212,1,2,0:0:0:0:
395,310,5562,6,0,L|469:295,1,50,10|10,3:2|3:2,0:0:0:0:
473,259,5913,2,0,L|458:185,1,50,10|10,3:2|3:2,0:0:0:0:
386,145,6440,1,10,3:2:0:0:
433,56,6791,5,6,3:2:0:0:
347,5,7141,1,10,0:0:0:0:
258,52,7492,1,2,3:2:0:0:
258,52,7668,2,0,L|189:62,1,50,2|8,0:0|0:0,0:0:0:0:
165,33,8019,2,0,P|104:39|76:93,1,100,2|2,0:0|0:0,0:0:0:0:
12,139,8720,1,2,0:0:0:0:
12,139,8896,2,0,L|26:199,1,50,2|2,3:2|0:0,0:0:0:0:
63,217,9247,2,0,L|126:201,1,50,10|2,0:0|0:0,0:0:0:0:
200,249,9773,6,0,L|218:314,2,50,2|10|2,0:0|0:0|0:0,0:0:0:0:
229,208,10299,2,0,L|361:230,1,100,2|10,3:2|0:0,0:0:0:0:
369,195,10826,1,2,0:0:0:0:
468,190,11176,2,0,L|480:132,2,50,2|10|2,0:0|0:0|0:0,0:0:0:0:
491,234,11703,1,2,3:2:0:0:
449,325,12054,1,10,0:0:0:0:
349,328,12405,6,0,L|221:344,1,100,6|10,3:2|0:0,0:0:0:0:
172,286,13106,1,2,3:2:0:0:
172,286,13282,2,0,L|183:210,1,50,2|8,0:0|0:0,0:0:0:0:
156,191,13633,2,0,P|106:164|51:190,1,100,2|2,0:0|0:0,0:0:0:0:
16,88,14334,1,2,0:0:0:0:
16,88,14510,2,0,L|36:14,1,50,2|2,3:2|0:0,0:0:0:0:
77,28,14861,2,0,L|151:48,1,50,10|2,0:0|0:0,0:0:0:0:
212,89,15387,6,0,L|272:71,2,50,2|10|2,0:0|0:0|0:0,0:0:0:0:
187,132,15913,2,0,L|217:251,1,100,2|10,3:2|0:0,0:0:0:0:
255,254,16440,1,2,0:0:0:0:
192,332,16791,2,0,L|124:319,2,50,2|10|2,0:0|0:0|0:0,0:0:0:0:
223,370,17317,1,2,3:2:0:0:
320,347,17668,1,10,0:0:0:0:
418,327,18019,5,6,3:2:0:0:
418,327,18194,2,0,P|434:273|464:216,1,100,2|2,0:0|0:0,0:0:0:0:
486,196,18720,1,2,3:2:0:0:
461,98,19071,1,10,0:0:0:0:
372,51,19422,2,0,L|306:63,1,50,2|2,3:2|0:0,0:0:0:0:
292,99,19773,2,0,L|222:112,1,50,10|2,0:0|0:0,0:0:0:0:
199,83,20124,1,2,3:2:0:0:
123,17,20475,1,10,0:0:0:0:
46,79,20826,5,2,3:2:0:0:
46,79,21001,2,0,P|63:133|70:185,1,100,2|2,0:0|0:0,0:0:0:0:
165,203,21703,2,0,P|148:257|141:309,1,100,2|2,0:0|0:0,0:0:0:0:
55,351,22405,2,0,L|-5:343,2,50,2|10|2,0:0|0:0|0:0,0:0:0:0:
94,381,22931,1,2,3:2:0:0:
193,371,23282,1,10,0:0:0:0:
250,289,23633,5,0,3:0:0:0:
250,289,23808,2,0,P|312:287|345:323,1,100,2|2,0:0|0:0,0:0:0:0:
381,336,24334,1,2,3:2:0:0:
472,296,24685,1,10,0:0:0:0:
422,209,25036,2,0,L|434:144,1,50,2|2,3:2|0:0,0:0:0:0:
409,114,25387,2,0,L|418:47,1,50,10|2,0:0|0:0,0:0:0:0:
441,21,25738,1,2,3:2:0:0:
341,7,26089,1,10,0:0:0:0:
274,82,26440,5,2,3:2:0:0:
274,82,26615,2,0,P|221:93|169:113,1,100,2|2,0:0|0:0,0:0:0:0:
219,200,27317,2,0,P|271:211|324:231,1,100,2|2,0:0|0:0,0:0:0:0:
376,305,28019,2,0,L|440:288,2,50,2|10|2,0:0|0:0|0:0,0:0:0:0:
354,350,28545,1,2,3:2:0:0:
256,327,28896,1,10,0:0:0:0:
166,371,29247,5,4,3:2:0:0:
166,371,29422,2,0,P|146:307|126:252,1,89.9999972534181,2|0,0:0|3:0,0:0:0:0:
106,253,29948,1,2,3:2:0:0:
160,181,30299,1,2,0:0:0:0:
99,114,30650,2,0,L|-6:131,2,89.9999972534181,2|2|2,3:2|0:0|3:2,0:0:0:0:
159,47,31703,2,0,L|216:61,1,44.999998626709,2|0,0:0|3:0,0:0:0:0:
246,72,32054,5,0,3:0:0:0:
246,72,32229,2,0,P|308:52|366:48,1,89.9999972534181,2|2,0:0|3:2,0:0:0:0:
371,70,32755,1,2,3:2:0:0:
319,143,33106,1,2,0:0:0:0:
378,223,33457,2,0,P|422:230|484:258,1,100,6|6,3:2|3:2,0:0:0:0:
421,337,34159,2,0,P|376:344|315:372,1,100,6|6,3:2|3:2,0:0:0:0:
245,306,34861,5,6,3:2:0:0:
245,306,35036,2,0,P|208:250|221:201,1,100,2|2,0:0|0:0,0:0:0:0:
240,179,35562,1,2,3:2:0:0:
164,112,35913,1,2,3:2:0:0:
91,181,36264,2,0,P|27:197|-10:222,1,100,2|2,3:2|3:2,0:0:0:0:
5,314,36966,1,2,3:2:0:0:
84,374,37317,1,2,3:2:0:0:
170,322,37668,5,10,0:0:0:0:
54,44,39247,5,2,3:2:0:0:
54,44,39422,1,2,3:2:0:0:
54,44,39598,1,2,3:2:0:0:
328,64,40475,5,6,3:2:0:0:
436,45,40826,1,10,0:0:0:0:
507,135,41176,1,2,3:2:0:0:
507,135,41352,2,0,P|493:176|485:224,1,55.0000016784668,2|8,0:0|0:0,0:0:0:0:
456,231,41703,2,0,P|408:207|335:234,1,110.000003356934,2|2,0:0|0:0,0:0:0:0:
298,312,42405,2,0,L|167:339,1,110.000003356934,2|2,0:0|0:0,0:0:0:0:
149,306,42931,1,10,0:0:0:0:
149,306,43106,1,2,0:0:0:0:
57,244,43457,6,0,L|-15:254,2,55.0000016784668,2|10|2,0:0|0:0|0:0,0:0:0:0:
95,204,43984,1,2,3:2:0:0:
95,204,44159,1,2,0:0:0:0:
174,127,44510,2,0,P|227:137|256:208,1,110.000003356934,2|2,0:0|0:0,0:0:0:0:
295,227,45036,1,10,0:0:0:0:
295,227,45212,2,0,P|348:217|377:146,1,110.000003356934,2|2,0:0|0:0,0:0:0:0:
372,117,45738,1,10,0:0:0:0:
467,62,46089,5,2,3:2:0:0:
509,163,46440,1,10,0:0:0:0:
449,256,46791,1,2,3:2:0:0:
449,256,46966,2,0,L|459:336,1,55.0000016784668,2|8,0:0|0:0,0:0:0:0:
419,352,47317,2,0,P|359:374|310:347,1,110.000003356934,2|2,0:0|0:0,0:0:0:0:
239,281,48019,2,0,L|257:161,1,110.000003356934,2|2,0:0|0:0,0:0:0:0:
298,137,48545,1,10,0:0:0:0:
298,137,48720,1,2,0:0:0:0:
232,48,49071,6,0,L|162:61,2,55.0000016784668,2|10|2,0:0|0:0|0:0,0:0:0:0:
272,10,49598,1,2,3:2:0:0:
272,10,49773,1,2,0:0:0:0:
382,10,50124,1,2,3:2:0:0:
472,72,50475,2,0,L|457:145,1,55.0000016784668,2|2,3:2|3:2,0:0:0:0:
414,155,50826,2,0,L|429:228,1,55.0000016784668,2|2,3:2|3:2,0:0:0:0:
494,294,51352,1,2,3:2:0:0:
407,361,51703,5,10,3:2:0:0:
321,291,52054,1,10,3:2:0:0:
242,368,52405,1,10,3:2:0:0:
242,368,52580,1,10,3:2:0:0:
163,290,52931,6,0,L|191:158,1,110.000003356934,14|2,3:2|0:0,0:0:0:0:
148,141,53457,2,0,L|58:155,1,55.0000016784668,10|2,0:0|0:0,0:0:0:0:
43,125,53808,1,2,3:2:0:0:
7,229,54159,1,10,0:0:0:0:
33,335,54510,2,0,P|77:341|141:388,1,110.000003356934,2|10,3:2|0:0,0:0:0:0:
235,339,55212,1,2,3:2:0:0:
235,339,55387,2,0,P|266:352|309:358,1,55.0000016784668,2|8,0:0|0:0,0:0:0:0:
341,365,55738,6,0,P|352:289|380:217,1,110.000003356934,2|2,0:0|0:0,0:0:0:0:
407,226,56264,1,10,0:0:0:0:
299,187,56615,2,0,P|291:151|301:111,1,55.0000016784668,2|2,3:2|0:0,0:0:0:0:
336,100,56966,2,0,L|403:113,1,55.0000016784668,10|2,0:0|0:0,0:0:0:0:
443,95,57317,5,2,3:2:0:0:
381,3,57668,1,2,3:2:0:0:
272,46,58019,1,2,3:2:0:0:
272,46,58194,1,2,3:2:0:0:
167,10,58545,6,0,P|102:19|37:45,1,110.000003356934,6|2,3:2|0:0,0:0:0:0:
22,74,59071,1,10,0:0:0:0:
22,184,59422,2,0,L|37:253,1,55.0000016784668,2|2,3:2|0:0,0:0:0:0:
66,282,59773,2,0,L|141:262,1,55.0000016784668,10|2,0:0|0:0,0:0:0:0:
197,191,60299,2,0,L|268:213,2,55.0000016784668,2|10|2,0:0|0:0|0:0,0:0:0:0:
181,137,60826,2,0,L|212:60,1,55.0000016784668,2|2,3:2|0:0,0:0:0:0:
250,60,61176,1,10,0:0:0:0:
250,60,61352,1,2,3:2:0:0:
321,143,61703,6,0,P|357:135|372:106,1,55.0000016784668,10|10,3:2|3:2,0:0:0:0:
419,103,62054,2,0,P|455:111|470:140,1,55.0000016784668,10|10,3:2|3:2,0:0:0:0:
487,231,62580,1,10,3:2:0:0:
390,284,62931,5,6,3:2:0:0:
54,59,74159,6,0,L|173:72,1,100,2|2,3:2|0:0,0:0:0:0:
226,138,74861,2,0,L|345:147,1,100,2|2,0:0|3:2,0:0:0:0:
394,73,75562,2,0,L|382:11,2,50,2|2|2,3:2|0:0|0:0,0:0:0:0:
439,105,76089,1,2,3:2:0:0:
439,105,76264,2,0,L|416:216,1,100,2|2,0:0|3:2,0:0:0:0:
354,279,76966,5,2,3:2:0:0:
262,239,77317,1,2,0:0:0:0:
185,303,77668,2,0,L|197:380,2,75,2|2|2,0:0|0:0|0:0,0:0:0:0:
144,274,78369,2,0,L|63:285,2,75,2|2|2,3:2|0:0|3:2,0:0:0:0:
167,229,79071,1,2,0:0:0:0:
115,143,79422,1,0,3:0:0:0:
156,51,79773,5,2,3:2:0:0:
255,47,80124,2,0,P|257:104|239:148,1,100,2|2,0:0|0:0,0:0:0:0:
321,203,80826,1,2,3:2:0:0:
367,116,81176,2,0,P|382:88|410:76,1,50,2|2,0:0|3:2,0:0:0:0:
429,41,81527,2,0,P|458:37|489:46,1,50,2|2,0:0|3:2,0:0:0:0:
506,82,81878,1,2,3:2:0:0:
482,179,82229,1,2,3:2:0:0:
454,275,82580,6,0,L|476:387,2,100,2|2|2,3:2|0:0|0:0,0:0:0:0:
382,204,83633,1,10,0:0:0:0:
262,294,84159,6,0,L|194:307,2,50,2|10|10,3:2|0:0|0:0,0:0:0:0:
283,249,84685,2,0,L|271:187,1,50,10|10,3:2|0:0,0:0:0:0:
238,163,85036,1,8,0:0:0:0:
265,66,85387,5,6,3:2:0:0:
265,66,85562,2,0,P|209:56|168:58,1,89.9999972534181,2|0,0:0|3:0,0:0:0:0:
138,82,86089,1,2,3:2:0:0:
52,52,86440,1,2,0:0:0:0:
12,132,86791,2,0,L|28:233,2,89.9999972534181,2|2|2,3:2|0:0|3:2,0:0:0:0:
52,52,87843,1,2,0:0:0:0:
138,82,88194,5,0,3:0:0:0:
138,82,88369,2,0,P|182:96|243:94,1,89.9999972534181,2|0,0:0|3:0,0:0:0:0:
265,76,88896,2,0,L|274:20,1,44.999998626709,2|2,3:2|0:0,0:0:0:0:
313,13,89247,1,2,0:0:0:0:
396,47,89598,5,6,3:2:0:0:
376,134,89948,1,6,3:2:0:0:
301,185,90299,1,6,3:2:0:0:
326,271,90650,1,6,3:2:0:0:
413,319,91001,6,0,L|436:210,1,100,6|2,3:2|3:2,0:0:0:0:
460,124,91703,2,0,L|391:110,1,50,2|2,3:2|0:0,0:0:0:0:
374,79,92054,2,0,L|384:21,1,50,2|2,3:2|0:0,0:0:0:0:
340,2,92405,1,2,3:2:0:0:
255,53,92755,1,2,3:2:0:0:
160,18,93106,1,2,3:2:0:0:
98,97,93457,1,2,3:2:0:0:
165,170,93808,5,10,0:0:0:0:
14,289,95387,5,2,3:2:0:0:
14,289,95562,1,2,3:2:0:0:
14,289,95738,1,2,3:2:0:0:
274,377,96615,5,6,3:2:0:0:
360,309,96966,1,10,0:0:0:0:
276,246,97317,1,2,3:2:0:0:
276,246,97492,2,0,L|261:165,1,55.0000016784668,2|8,0:0|0:0,0:0:0:0:
290,142,97843,2,0,P|352:145|403:199,1,110.000003356934,2|2,0:0|0:0,0:0:0:0:
473,243,98545,2,0,L|503:126,1,110.000003356934,2|2,0:0|0:0,0:0:0:0:
483,89,99071,1,10,0:0:0:0:
483,89,99247,1,2,0:0:0:0:
378,53,99598,6,0,L|367:-10,2,55.0000016784668,2|10|2,0:0|0:0|0:0,0:0:0:0:
349,101,100124,1,2,3:2:0:0:
349,101,100299,1,2,0:0:0:0:
249,54,100650,2,0,P|186:51|141:98,1,110.000003356934,2|2,0:0|0:0,0:0:0:0:
108,113,101176,1,10,0:0:0:0:
108,113,101352,2,0,L|132:231,1,110.000003356934,2|2,0:0|0:0,0:0:0:0:
176,250,101878,1,10,0:0:0:0:
105,334,102229,5,2,3:2:0:0:
203,382,102580,1,10,0:0:0:0:
285,309,102931,1,2,3:2:0:0:
285,309,103106,2,0,L|349:323,1,55.0000016784668,2|8,0:0|0:0,0:0:0:0:
380,284,103457,2,0,P|407:229|377:160,1,110.000003356934,2|2,0:0|0:0,0:0:0:0:
299,131,104159,2,0,L|171:151,1,110.000003356934,2|2,0:0|0:0,0:0:0:0:
142,131,104685,1,10,0:0:0:0:
142,131,104861,1,2,0:0:0:0:
80,39,105212,6,0,L|18:47,2,55.0000016784668,2|10|2,0:0|0:0|0:0,0:0:0:0:
126,7,105738,1,2,3:2:0:0:
126,7,105913,1,2,0:0:0:0:
221,61,106264,1,2,3:2:0:0:
314,3,106615,2,0,L|377:18,1,55.0000016784668,2|2,3:2|3:2,0:0:0:0:
411,49,106966,2,0,P|421:80|401:117,1,55.0000016784668,2|2,3:2|3:2,0:0:0:0:
328,168,107492,1,2,3:2:0:0:
385,261,107843,6,0,L|456:250,1,55.0000016784668,10|0,3:2|0:0,0:0:0:0:
485,282,108194,2,0,L|500:354,1,55.0000016784668,10|0,3:2|0:0,0:0:0:0:
465,382,108545,1,10,3:2:0:0:
465,382,108720,1,10,3:2:0:0:
355,369,109071,6,0,L|217:351,1,110.000003356934,14|2,3:2|0:0,0:0:0:0:
212,310,109598,1,10,0:0:0:0:
157,214,109948,2,0,P|161:178|182:151,1,55.0000016784668,2|2,3:2|0:0,0:0:0:0:
150,110,110299,2,0,L|75:95,1,55.0000016784668,10|2,0:0|0:0,0:0:0:0:
53,134,110650,1,2,3:2:0:0:
11,32,111001,1,10,0:0:0:0:
118,7,111352,1,2,3:2:0:0:
118,6,111527,2,0,L|199:23,1,55.0000016784668,2|8,0:0|0:0,0:0:0:0:
217,48,111878,6,0,L|343:26,1,110.000003356934,2|2,0:0|0:0,0:0:0:0:
372,0,112405,1,10,0:0:0:0:
432,91,112755,2,0,L|497:76,2,55.0000016784668,2|2|10,3:2|0:0|0:0,0:0:0:0:
356,171,113457,6,0,L|260:191,1,55.0000016784668,2|0,3:2|0:0,0:0:0:0:
259,217,113808,2,0,L|205:205,1,55.0000016784668,2|0,3:2|0:0,0:0:0:0:
160,183,114159,1,2,3:2:0:0:
160,183,114334,1,2,3:2:0:0:
69,246,114685,2,0,P|68:317|127:349,1,110.000003356934,6|2,3:2|0:0,0:0:0:0:
138,343,115212,1,10,0:0:0:0:
243,372,115562,2,0,L|252:308,1,55.0000016784668,2|2,3:2|0:0,0:0:0:0:
296,287,115913,2,0,L|360:296,1,55.0000016784668,10|2,0:0|0:0,0:0:0:0:
452,252,116440,6,0,P|477:199|442:127,1,110.000003356934,2|2,0:0|0:0,0:0:0:0:
417,123,116966,2,0,L|349:138,1,55.0000016784668,2|2,3:2|0:0,0:0:0:0:
316,118,117317,1,10,0:0:0:0:
316,118,117492,1,2,3:2:0:0:
270,17,117843,6,0,P|233:17|210:39,1,55.0000016784668,10|10,3:2|3:2,0:0:0:0:
179,64,118194,2,0,P|142:64|119:42,1,55.0000016784668,10|10,3:2|3:2,0:0:0:0:
31,2,118720,1,10,3:2:0:0:
8,109,119071,5,6,3:2:0:0:
93,160,119422,1,10,0:0:0:0:
33,241,119773,1,2,3:2:0:0:
33,241,119948,2,0,L|52:321,1,50,2|8,0:0|0:0,0:0:0:0:
86,317,120299,2,0,P|136:290|193:303,1,100,2|2,0:0|0:0,0:0:0:0:
252,361,121001,2,0,L|366:333,1,100,2|2,0:0|0:0,0:0:0:0:
378,296,121527,1,10,0:0:0:0:
478,295,121878,6,0,P|495:239|458:184,1,100,2|10,3:2|0:0,0:0:0:0:
383,197,122580,1,0,3:0:0:0:
383,197,122755,2,0,L|396:130,1,50,2|8,0:0|0:0,0:0:0:0:
365,105,123106,2,0,L|381:25,1,50,2|0,0:0|3:0,0:0:0:0:
411,22,123457,1,2,0:0:0:0:
312,5,123808,2,0,L|203:22,1,100,2|2,0:0|0:0,0:0:0:0:
180,58,124334,1,8,0:0:0:0:
239,138,124685,5,2,3:2:0:0:
166,207,125036,1,10,0:0:0:0:
248,263,125387,1,2,3:2:0:0:
248,263,125562,2,0,L|329:247,1,50,2|8,0:0|0:0,0:0:0:0:
343,272,125913,2,0,P|366:328|348:371,1,100,2|2,0:0|0:0,0:0:0:0:
254,377,126615,2,0,L|147:357,1,100,2|2,0:0|0:0,0:0:0:0:
126,317,127141,1,10,0:0:0:0:
52,248,127492,6,0,L|-7:259,2,50,0|2|10,3:0|0:0|0:0,0:0:0:0:
89,214,128019,1,2,0:0:0:0:
89,214,128194,2,0,L|79:146,1,50,2|2,3:2|0:0,0:0:0:0:
110,68,128720,5,2,3:2:0:0:
203,32,129071,1,2,3:2:0:0:
248,120,129422,1,2,3:2:0:0:
338,162,129773,2,0,L|405:148,1,50,10|10,0:0|0:0,0:0:0:0:
439,169,130124,1,10,0:0:0:0:
439,169,130299,1,2,0:0:0:0:
256,192,130475,12,0,133282,3:0:0:0:
