osu file format v14

[General]
AudioFilename: audio.mp3
AudioLeadIn: 0
PreviewTime: 96001
Countdown: 0
SampleSet: Soft
StackLeniency: 0.4
Mode: 0
LetterboxInBreaks: 0
WidescreenStoryboard: 1

[Editor]
DistanceSpacing: 0.5
BeatDivisor: 6
GridSize: 32
TimelineZoom: 1.8

[Metadata]
Title:Envy Baby
TitleUnicode:エンヴィーベイビー
Artist:Such
ArtistUnicode:Such
Creator:Petal
Version:Kujinn's Insane
Source:
Tags:japanese pop j-pop jpop kanaria gumi cover wanpachi reform kujinn matha full vocaloid pngtuber
BeatmapID:2942889
BeatmapSetID:1428781

[Difficulty]
HPDrainRate:5.3
CircleSize:4
OverallDifficulty:7.5
ApproachRate:9
SliderMultiplier:1.7
SliderTickRate:1

[Events]
//Background and Video events
0,0,"BG.jpg",0,0
//Break Periods
//Storyboard Layer 0 (Background)
//Storyboard Layer 1 (Fail)
//Storyboard Layer 2 (Pass)
//Storyboard Layer 3 (Foreground)
//Storyboard Layer 4 (Overlay)
//Storyboard Sound Samples

[TimingPoints]
1177,350.877192982456,4,2,1,40,1,0
1177,-142.857142857143,4,2,1,40,0,0
5562,-142.857142857143,4,2,1,70,0,0
6791,-100,4,2,1,65,0,0
18019,-111.111111111111,4,2,1,55,0,0
29247,-142.857142857143,4,2,1,50,0,0
33457,-76.923076923077,4,2,1,60,0,0
34861,-111.111111111111,4,2,1,60,0,0
39948,-111.111111111111,4,2,1,40,0,0
40475,-90.9090909090909,4,2,1,80,0,1
50124,-71.4285714285714,4,2,1,80,0,1
51264,-62.5,4,2,1,80,0,1
51703,-76.9230769230769,4,2,1,80,0,1
52405,-38.4615384615385,4,2,1,80,0,1
52755,-76.9230769230769,4,2,1,80,0,1
53457,-90.9090909090909,4,2,1,80,0,1
57317,-76.9230769230769,4,2,1,80,0,1
58019,-38.4615384615385,4,2,1,80,0,1
58545,-76.9230769230769,4,2,1,80,0,1
59071,-90.9090909090909,4,2,1,80,0,1
62931,-100,4,2,1,65,0,0
72580,-66.6666666666667,4,2,1,65,0,0
73808,-66.6666666666667,4,2,1,40,0,0
74159,-142.857142857143,4,2,1,60,0,0
83984,-90.909090909091,4,2,1,60,0,0
84159,-90.909090909091,4,2,1,65,0,0
85387,-142.857142857143,4,2,1,55,0,0
89598,-76.923076923077,4,2,1,65,0,0
91002,-111.111111111111,4,2,1,65,0,0
96089,-111.111111111111,4,2,1,40,0,0
96615,-90.9090909090909,4,2,1,85,0,1
106264,-71.4285714285714,4,2,1,85,0,1
107404,-62.5,4,2,1,85,0,1
107843,-76.9230769230769,4,2,1,85,0,1
108545,-38.4615384615385,4,2,1,85,0,1
108895,-76.9230769230769,4,2,1,85,0,1
109597,-90.9090909090909,4,2,1,85,0,1
113457,-76.9230769230769,4,2,1,85,0,1
114159,-38.4615384615385,4,2,1,85,0,1
114685,-76.9230769230769,4,2,1,85,0,1
115211,-90.9090909090909,4,2,1,85,0,1
119071,-100,4,2,1,75,0,0
128720,-76.9230769230769,4,2,1,75,0,0
129773,-76.9230769230769,4,2,1,60,0,0
130299,-399.999999999997,4,2,1,60,0,0
130387,-399.999999999997,4,2,1,5,0,0
133282,-100,4,2,1,20,0,0

[Colours]
Combo1 : 190,190,205
Combo2 : 255,0,0
Combo3 : 192,192,192
Combo4 : 0,255,255

[HitObjects]
128,24,1177,6,0,P|102:57|137:126,1,118.999996368408,2|8,0:0|0:0,0:0:0:0:
206,155,1703,1,2,0:0:0:0:
206,155,1878,2,0,P|232:188|197:257,1,118.999996368408,2|8,0:0|0:0,0:0:0:0:
128,314,2405,5,2,0:0:0:0:
128,314,2580,2,0,P|173:327|262:356,1,118.999996368408,2|8,0:0|0:0,0:0:0:0:
340,384,3106,1,2,0:0:0:0:
340,384,3282,2,0,P|385:371|481:342,1,118.999996368408,2|8,0:0|0:0,0:0:0:0:
497,279,3808,1,2,0:0:0:0:
497,279,3984,6,0,P|505:230|510:197,1,59.4999981842042,2|2,0:0|0:0,0:0:0:0:
411,107,4334,2,0,P|415:136|420:165,1,59.4999981842042,8|2,0:0|0:0,0:0:0:0:
292,272,4685,2,0,P|300:223|305:190,1,59.4999981842042,2|2,0:0|0:0,0:0:0:0:
180,107,5036,2,0,P|184:136|189:165,1,59.4999981842042,8|2,0:0|0:0,0:0:0:0:
189,165,5562,5,10,3:2:0:0:
246,31,5738,1,10,3:2:0:0:
137,245,5913,5,10,3:2:0:0:
82,109,6089,1,10,3:2:0:0:
82,109,6440,2,0,P|63:151|90:203,1,89.2499972763062,10|0,3:2|0:0,0:0:0:0:
137,245,6791,6,0,P|87:262|42:278,1,85,6|0,3:2|0:0,0:0:0:0:
194,344,7141,2,0,P|244:361|289:377,1,85,10|0,0:0|0:0,0:0:0:0:
382,260,7492,1,2,3:2:0:0:
279,187,7668,2,0,P|254:230|273:289,1,85,2|8,0:0|0:0,0:0:0:0:
439,155,8019,6,0,L|461:57,1,85,2|0,0:0|3:0,0:0:0:0:
433,290,8369,2,0,L|451:372,1,85,2|8,0:0|0:0,0:0:0:0:
279,187,8720,2,0,L|312:196,2,28.3333333333333,2|2|2,0:0|0:0|0:0,0:0:0:0:
268,195,8896,2,0,L|360:218,1,85,2|2,3:2|0:0,0:0:0:0:
209,64,9247,1,10,0:0:0:0:
119,170,9422,2,0,P|136:248|160:360,1,170,2|2,0:0|0:0,0:0:0:0:
292,279,9948,5,10,0:0:0:0:
362,372,10124,1,2,0:0:0:0:
462,255,10299,2,0,P|483:298|462:353,1,85,2|2,3:2|0:0,0:0:0:0:
355,217,10650,1,10,0:0:0:0:
487,136,10826,6,0,P|431:124|302:97,1,170,2|2,0:0|0:0,0:0:0:0:
135,206,11352,2,0,P|188:210|222:170,1,85,10|2,0:0|0:0,0:0:0:0:
257,16,11703,1,2,3:2:0:0:
135,88,11878,1,2,0:0:0:0:
273,146,12054,1,10,0:0:0:0:
273,146,12229,1,2,0:0:0:0:
30,26,12405,6,0,L|55:129,1,85,6|0,3:2|0:0,0:0:0:0:
143,265,12755,2,0,L|163:182,1,85,10|0,0:0|0:0,0:0:0:0:
42,247,13106,1,2,3:2:0:0:
169,358,13282,2,0,P|212:372|263:346,1,85,2|8,0:0|0:0,0:0:0:0:
365,208,13633,6,0,P|322:194|271:220,1,85,2|0,0:0|3:0,0:0:0:0:
429,374,13984,2,0,L|449:291,1,85,2|8,0:0|0:0,0:0:0:0:
351,133,14334,2,0,L|361:167,2,28.3333333333333,2|2|2,0:0|0:0|0:0,0:0:0:0:
338,127,14510,2,0,L|367:217,1,85,2|2,3:2|0:0,0:0:0:0:
404,27,14861,1,10,0:0:0:0:
256,126,15036,2,0,B|162:105|195:200|78:166,1,170,2|2,0:0|0:0,0:0:0:0:
43,318,15562,5,10,0:0:0:0:
153,241,15738,1,2,0:0:0:0:
31,125,15913,2,0,P|15:166|33:219,1,85,2|2,3:2|0:0,0:0:0:0:
149,109,16264,1,10,0:0:0:0:
21,11,16440,6,0,P|85:23|228:50,1,170,2|2,0:0|0:0,0:0:0:0:
325,186,16966,2,0,P|282:195|236:159,1,85,10|2,0:0|0:0,0:0:0:0:
327,42,17317,1,2,3:2:0:0:
407,137,17492,1,2,0:0:0:0:
512,13,17668,2,0,L|489:122,1,85,10|2,0:0|0:0,0:0:0:0:
428,296,18019,5,6,3:2:0:0:
325,186,18194,2,0,P|272:214|281:313,1,152.999995330811,2|2,0:0|0:0,0:0:0:0:
205,373,18720,2,0,P|147:357|41:331,1,152.999995330811,2|10,3:2|0:0,0:0:0:0:
3,256,19247,1,2,0:0:0:0:
98,188,19422,6,0,P|116:227|105:279,1,76.4999976654053,2|2,3:2|0:0,0:0:0:0:
0,150,19773,2,0,P|24:114|75:98,1,76.4999976654053,10|2,0:0|0:0,0:0:0:0:
229,137,20124,2,0,P|185:134|146:98,1,76.4999976654053,2|2,3:2|0:0,0:0:0:0:
105,0,20475,1,10,0:0:0:0:
105,0,20650,1,2,0:0:0:0:
68,174,20826,5,2,3:2:0:0:
68,174,21001,2,0,L|49:80,1,76.4999976654053,2|8,0:0|0:0,0:0:0:0:
153,232,21352,2,0,L|172:138,1,76.4999976654053,2|0,0:0|3:0,0:0:0:0:
260,296,21703,2,0,L|241:202,1,76.4999976654053,2|8,0:0|0:0,0:0:0:0:
343,356,22054,2,0,L|362:262,1,76.4999976654053,2|0,0:0|3:0,0:0:0:0:
512,198,22405,6,0,P|454:203|402:114,1,152.999995330811,2|2,0:0|0:0,0:0:0:0:
487,14,22931,2,0,P|449:20|412:28,1,76.4999976654053,2|0,3:2|0:0,0:0:0:0:
327,84,23282,2,0,P|289:75|252:69,1,76.4999976654053,10|0,0:0|0:0,0:0:0:0:
91,23,23633,5,0,3:0:0:0:
154,173,23808,2,0,P|168:97|182:22,1,152.999995330811,2|2,0:0|0:0,0:0:0:0:
80,174,24334,2,0,P|93:218|136:242,1,76.4999976654053,2|2,3:2|0:0,0:0:0:0:
275,236,24685,2,0,P|230:225|188:250,1,76.4999976654053,10|2,0:0|0:0,0:0:0:0:
127,373,25036,6,0,P|159:339|158:290,1,76.4999976654053,2|2,3:2|0:0,0:0:0:0:
80,174,25387,2,0,L|101:272,1,76.4999976654053,10|2,0:0|0:0,0:0:0:0:
200,140,25738,2,0,L|216:65,1,76.4999976654053,2|2,3:2|0:0,0:0:0:0:
286,242,26089,1,10,0:0:0:0:
286,242,26264,1,2,0:0:0:0:
401,146,26440,5,2,3:2:0:0:
401,146,26615,2,0,L|314:125,1,76.4999976654053,2|8,0:0|0:0,0:0:0:0:
286,206,26966,2,0,L|211:223,1,76.4999976654053,2|0,0:0|3:0,0:0:0:0:
188,307,27317,2,0,L|101:286,1,76.4999976654053,2|8,0:0|0:0,0:0:0:0:
84,367,27668,2,0,L|9:384,1,76.4999976654053,2|0,0:0|3:0,0:0:0:0:
236,373,28019,6,0,P|226:313|207:197,1,152.999995330811,2|2,0:0|0:0,0:0:0:0:
144,99,28545,2,0,P|134:139|170:181,1,76.4999976654053,2|0,3:2|0:0,0:0:0:0:
258,153,28896,2,0,P|267:112|231:70,1,76.4999976654053,10|0,0:0|0:0,0:0:0:0:
120,256,29247,5,4,3:2:0:0:
120,256,29422,2,0,P|176:274|256:302,1,118.999996368408,2|0,0:0|3:0,0:0:0:0:
311,361,29948,2,0,P|322:318|331:290,1,59.4999981842042,2|2,3:2|0:0,0:0:0:0:
322,154,30299,2,0,P|330:182|337:211,1,59.4999981842042,2|2,0:0|0:0,0:0:0:0:
247,129,30650,6,0,P|267:95|356:88,1,118.999996368408,2|2,3:2|0:0,0:0:0:0:
512,173,31176,1,0,3:0:0:0:
512,173,31352,2,0,P|454:169|418:123,1,118.999996368408,2|2,3:2|0:0,0:0:0:0:
490,96,31878,1,0,3:0:0:0:
348,271,32054,5,0,3:0:0:0:
348,271,32229,2,0,P|333:201|315:128,1,118.999996368408,2|2,0:0|3:2,0:0:0:0:
262,71,32755,2,0,P|254:105|245:142,1,59.4999981842042,2|2,3:2|0:0,0:0:0:0:
188,213,33106,2,0,P|180:178|171:141,1,59.4999981842042,2|2,0:0|0:0,0:0:0:0:
0,13,33457,6,0,B|44:0|72:32|66:41|60:52|91:110|170:73,1,165.749992412568,6|0,3:2|0:0,0:0:0:0:
70,200,33808,6,0,B|80:155|122:147|127:156|133:167|199:169|206:82,1,165.749992412568,6|0,3:2|0:0,0:0:0:0:
269,234,34159,6,0,B|235:202|249:162|260:162|272:162|304:107|235:56,1,165.749992412568,6|0,3:2|0:0,0:0:0:0:
393,80,34510,6,0,B|348:93|321:60|327:51|333:40|300:-13|222:19,1,165.749992412568,6|0,3:2|0:0,0:0:0:0:
186,40,34861,5,6,3:2:0:0:
72,151,35036,1,2,0:0:0:0:
72,151,35124,1,2,0:0:0:0:
72,151,35212,2,0,P|119:166|162:186,1,76.4999976654053,2|2,3:2|0:0,0:0:0:0:
297,275,35562,1,2,3:2:0:0:
243,131,35738,1,2,0:0:0:0:
135,291,35913,2,0,P|170:276|206:265,1,76.4999976654053,2|2,3:2|0:0,0:0:0:0:
374,191,36264,6,0,P|390:253|408:323,1,114.749996498108,2|2,3:2|0:0,0:0:0:0:
347,364,36615,2,0,P|323:328|326:284,1,76.4999976654053,2|0,3:2|0:0,0:0:0:0:
450,205,36966,1,2,3:2:0:0:
306,98,37141,1,0,0:0:0:0:
430,41,37317,1,2,3:2:0:0:
284,187,37492,1,0,0:0:0:0:
451,324,37668,5,10,0:0:0:0:
15,18,39246,6,0,L|23:72,1,38.2499988327027,2|0,3:2|0:0,0:0:0:0:
23,25,39422,2,0,L|31:79,1,38.2499988327027,2|0,3:2|0:0,0:0:0:0:
31,32,39597,2,0,L|39:86,1,38.2499988327027,2|0,3:2|0:0,0:0:0:0:
6,359,40475,6,0,P|23:307|117:327,1,140.25000428009,6|0,3:2|0:0,0:0:0:0:
165,347,40826,2,0,P|205:375|255:357,1,93.5000028533936,10|0,0:0|0:0,0:0:0:0:
358,265,41176,1,2,3:2:0:0:
227,173,41352,2,0,P|242:235|253:287,1,93.5000028533936,2|8,0:0|0:0,0:0:0:0:
328,104,41703,6,0,P|266:85|216:69,1,93.5000028533936,2|0,0:0|3:0,0:0:0:0:
347,213,42054,2,0,P|393:169|432:133,1,93.5000028533936,2|8,0:0|0:0,0:0:0:0:
121,39,42405,2,0,L|159:250,1,187.000005706787,2|2,0:0|0:0,0:0:0:0:
57,306,42931,1,10,0:0:0:0:
177,384,43106,2,0,P|209:348|273:354,1,93.5000028533936,2|0,0:0|3:0,0:0:0:0:
498,374,43457,5,2,0:0:0:0:
355,208,43633,2,0,P|368:266|381:319,1,93.5000028533936,10|2,0:0|0:0,0:0:0:0:
479,118,43984,1,2,3:2:0:0:
272,180,44159,2,0,P|292:131|342:119,1,93.5000028533936,2|8,0:0|0:0,0:0:0:0:
293,377,44510,6,0,P|214:361|106:340,1,187.000005706787,2|2,0:0|0:0,0:0:0:0:
240,245,45036,1,10,0:0:0:0:
57,184,45212,2,0,L|149:160,1,93.5000028533936,2|0,0:0|3:0,0:0:0:0:
294,59,45562,1,2,0:0:0:0:
294,59,45650,1,0,0:0:0:0:
294,59,45738,1,10,0:0:0:0:
162,0,45913,1,2,0:0:0:0:
209,198,46089,6,0,P|229:154|157:87,1,140.25000428009,2|0,3:2|0:0,0:0:0:0:
110,116,46440,2,0,P|77:147|12:126,1,93.5000028533936,10|0,0:0|0:0,0:0:0:0:
81,34,46791,1,2,3:2:0:0:
209,198,46966,2,0,P|264:211|342:228,1,93.5000028533936,2|8,0:0|0:0,0:0:0:0:
397,65,47317,6,0,P|384:120|367:198,1,93.5000028533936,2|0,0:0|3:0,0:0:0:0:
489,302,47668,2,0,P|478:256|467:210,1,93.5000028533936,2|8,0:0|0:0,0:0:0:0:
357,350,48019,2,0,P|270:365|223:290,1,187.000005706787,2|2,0:0|0:0,0:0:0:0:
221,133,48545,1,10,0:0:0:0:
122,224,48720,2,0,P|78:248|24:229,1,93.5000028533936,2|0,0:0|3:0,0:0:0:0:
93,74,49071,5,2,0:0:0:0:
204,237,49247,1,10,0:0:0:0:
229,47,49422,1,2,0:0:0:0:
68,166,49598,1,2,3:2:0:0:
278,134,49773,2,0,P|323:126|365:221,1,140.25000428009,2|0,0:0|0:0,0:0:0:0:
443,231,50124,6,0,B|394:211|358:256|367:264|366:276|336:325|272:294,1,178.499994552612,2|0,3:2|0:0,0:0:0:0:
214,300,50475,5,2,3:2:0:0:
134,139,50650,1,2,3:2:0:0:
198,30,50826,5,2,3:2:0:0:
97,212,51001,1,2,3:2:0:0:
23,106,51176,5,2,0:0:0:0:
23,106,51264,1,2,0:0:0:0:
23,106,51352,2,0,P|100:136|244:192,1,204,2|0,3:2|0:0,0:0:0:0:
285,131,51703,6,0,B|257:84|257:84|191:102,1,110.499994941712,10|0,3:2|0:0,0:0:0:0:
146,235,52054,2,0,B|174:282|174:282|227:267,1,110.499994941712,10|0,3:2|0:0,0:0:0:0:
285,131,52405,6,0,B|257:84|257:84|188:103,1,110.499994941712,10|0,3:2|0:0,0:0:0:0:
146,235,52580,2,0,B|174:282|174:282|227:267,1,110.499994941712,10|0,3:2|0:0,0:0:0:0:
227,267,52931,6,0,B|302:287|302:287|323:355|323:355|424:382,1,220.999989883423,14|2,3:2|0:0,0:0:0:0:
475,176,53457,1,10,0:0:0:0:
367,247,53633,1,2,0:0:0:0:
487,358,53808,2,0,P|498:298|508:249,1,93.5000028533936,2|2,3:2|0:0,0:0:0:0:
375,155,54159,1,10,0:0:0:0:
375,155,54334,1,2,0:0:0:0:
272,309,54510,6,0,P|222:328|164:352,1,93.5000028533936,2|0,3:2|0:0,0:0:0:0:
37,192,54861,2,0,P|87:211|145:235,1,93.5000028533936,10|0,0:0|0:0,0:0:0:0:
39,319,55212,1,2,3:2:0:0:
178,167,55387,2,0,P|203:215|188:269,1,93.5000028533936,2|8,0:0|0:0,0:0:0:0:
90,133,55738,2,0,P|119:87|173:73,1,93.5000028533936,2|0,0:0|3:0,0:0:0:0:
106,239,56089,5,2,0:0:0:0:
106,239,56264,2,0,L|14:214,1,93.5000028533936,10|2,0:0|0:0,0:0:0:0:
203,163,56615,1,2,3:2:0:0:
163,317,56791,1,2,0:0:0:0:
84,144,56966,1,10,0:0:0:0:
47,304,57141,1,2,0:0:0:0:
223,147,57317,6,0,B|261:191|261:191|318:162,1,110.499994941712,10|0,3:2|0:0,0:0:0:0:
483,128,57668,2,0,B|445:84|445:84|398:107,1,110.499994941712,10|0,3:2|0:0,0:0:0:0:
223,147,58019,6,0,B|261:191|261:191|318:162,1,110.499994941712,10|0,3:2|0:0,0:0:0:0:
483,128,58194,2,0,B|445:84|445:84|398:107,1,110.499994941712,10|0,3:2|0:0,0:0:0:0:
398,107,58545,6,0,B|379:186|379:186|408:224|408:224|382:329,1,220.999989883423,14|2,3:2|0:0,0:0:0:0:
224,332,59071,1,10,0:0:0:0:
308,229,59247,1,2,0:0:0:0:
412,381,59422,2,0,P|366:385|319:338,1,93.5000028533936,2|2,3:2|0:0,0:0:0:0:
492,275,59773,1,10,0:0:0:0:
492,275,59948,1,2,0:0:0:0:
390,91,60124,5,2,3:2:0:0:
314,182,60299,2,0,B|272:168|229:197|237:215|240:228|205:286|140:247,1,187.000005706787,2|2,0:0|0:0,0:0:0:0:
30,127,60826,1,2,3:2:0:0:
194,43,61001,1,2,0:0:0:0:
103,211,61176,1,10,0:0:0:0:
36,26,61352,1,2,3:2:0:0:
36,26,61703,6,0,L|56:100,1,46.7500014266968,10|0,3:2|0:0,0:0:0:0:
131,96,61878,2,0,L|111:170,1,46.7500014266968,10|0,3:2|0:0,0:0:0:0:
211,169,62054,2,0,L|231:243,1,46.7500014266968,10|0,3:2|0:0,0:0:0:0:
313,251,62229,2,0,L|293:325,1,46.7500014266968,10|0,3:2|0:0,0:0:0:0:
300,296,62580,6,0,P|337:260|302:167,1,140.25000428009,10|0,3:2|0:0,0:0:0:0:
255,140,62931,6,0,P|281:107|322:99,1,85,6|0,3:2|0:0,0:0:0:0:
407,23,63282,2,0,P|448:30|475:61,1,85,10|0,0:0|0:0,0:0:0:0:
431,203,63633,1,2,3:2:0:0:
322,99,63808,2,0,L|306:2,1,85,2|8,0:0|0:0,0:0:0:0:
209,206,64159,6,0,P|268:223|312:236,1,85,2|0,0:0|3:0,0:0:0:0:
144,99,64510,2,0,P|85:116|41:129,1,85,2|8,0:0|0:0,0:0:0:0:
119,320,64861,2,0,L|112:276,2,28.3333333333333,2|2|2,0:0|0:0|0:0,0:0:0:0:
130,328,65036,2,0,L|108:214,1,85,2|2,3:2|0:0,0:0:0:0:
226,146,65387,1,10,0:0:0:0:
292,305,65562,2,0,P|325:360|448:337,1,170,2|2,0:0|0:0,0:0:0:0:
327,233,66089,5,10,0:0:0:0:
396,137,66264,1,2,0:0:0:0:
484,261,66440,2,0,P|442:270|401:282,1,85,2|2,3:2|0:0,0:0:0:0:
288,164,66791,1,10,0:0:0:0:
392,46,66966,6,0,P|441:44|506:163,1,170,2|2,0:0|0:0,0:0:0:0:
295,85,67492,2,0,P|282:49|300:1,1,85,10|2,0:0|0:0,0:0:0:0:
397,159,67843,1,2,3:2:0:0:
293,226,68019,1,2,0:0:0:0:
399,305,68194,1,10,0:0:0:0:
399,305,68369,1,2,0:0:0:0:
272,361,68545,6,0,P|217:377|159:394,1,85,6|0,3:2|0:0,0:0:0:0:
40,252,68896,2,0,P|95:268|153:285,1,85,10|0,0:0|0:0,0:0:0:0:
47,382,69247,1,2,3:2:0:0:
224,230,69422,2,0,P|207:284|194:331,1,85,2|8,0:0|0:0,0:0:0:0:
89,181,69773,6,0,P|77:140|64:99,1,85,2|0,0:0|3:0,0:0:0:0:
152,4,70124,2,0,P|193:14|234:23,1,85,2|8,0:0|0:0,0:0:0:0:
253,112,70475,2,0,L|223:144,2,28.3333333333333,2|2|2,0:0|0:0|0:0,0:0:0:0:
259,127,70650,2,0,P|229:157|200:189,1,85,2|2,3:2|0:0,0:0:0:0:
277,280,71001,1,10,0:0:0:0:
82,339,71176,2,0,P|149:323|223:394,1,170,2|2,0:0|0:0,0:0:0:0:
348,269,71703,5,10,0:0:0:0:
483,373,71878,1,2,0:0:0:0:
433,232,72054,1,2,3:2:0:0:
440,220,72229,1,2,0:0:0:0:
356,368,72405,1,8,0:0:0:0:
213,260,72580,6,0,B|229:198|180:168|174:175|170:179|112:144|150:63,1,191.250007295609,2|0,3:2|0:0,0:0:0:0:
192,39,72931,2,0,P|194:26|199:47,1,63.7500024318696,2|0,3:2|0:0,0:0:0:0:
88,188,73106,2,0,P|181:146|315:111,1,191.250007295609,2|0,3:2|0:0,0:0:0:0:
343,104,73457,5,2,3:2:0:0:
451,355,73808,5,8,0:0:0:0:
451,355,74159,6,0,P|390:339|357:392,1,118.999996368408,2|2,3:2|0:0,0:0:0:0:
186,338,74685,2,0,P|239:356|278:316,1,118.999996368408,0|0,3:0|0:0,0:0:0:0:
330,199,75212,2,0,L|350:275,1,59.4999981842042,2|2,3:2|0:0,0:0:0:0:
416,192,75562,6,0,L|396:116,1,59.4999981842042,2|2,3:2|0:0,0:0:0:0:
256,130,75913,2,0,L|332:110,1,59.4999981842042,2|2,0:0|3:2,0:0:0:0:
403,10,76264,2,0,L|262:45,1,118.999996368408,2|2,0:0|3:2,0:0:0:0:
196,65,76791,1,2,0:0:0:0:
103,142,76966,6,0,L|91:72,1,59.4999981842042,2|0,3:2|0:0,0:0:0:0:
215,221,77317,2,0,L|227:151,1,59.4999981842042,2|0,0:0|3:0,0:0:0:0:
148,304,77668,6,0,P|185:331|253:322,2,89.2499972763062,2|2|2,0:0|0:0|0:0,0:0:0:0:
79,231,78369,2,0,P|35:233|0:260,2,89.2499972763062,2|2|2,3:2|0:0|3:2,0:0:0:0:
156,168,79071,2,0,P|186:192|220:193,1,59.4999981842042,2|8,0:0|0:0,0:0:0:0:
309,130,79422,1,0,3:0:0:0:
309,130,79773,6,0,L|320:205,1,59.4999981842042,2|0,3:2|0:0,0:0:0:0:
420,256,80124,2,0,L|431:181,1,59.4999981842042,2|0,0:0|3:0,0:0:0:0:
400,379,80475,2,0,P|444:342|500:352,1,118.999996368408,2|2,0:0|3:2,0:0:0:0:
361,297,81001,1,2,0:0:0:0:
361,297,81176,6,0,L|284:280,1,59.4999981842042,2|2,0:0|3:2,0:0:0:0:
445,206,81527,2,0,L|522:189,1,59.4999981842042,2|2,0:0|3:2,0:0:0:0:
368,55,81878,2,0,B|325:97|325:97|362:152,1,118.999996368408,2|2,3:2|3:2,0:0:0:0:
357,145,82580,6,0,P|302:131|225:113,1,118.999996368408,2|2,3:2|0:0,0:0:0:0:
97,164,83106,1,8,0:0:0:0:
97,164,83282,2,0,P|154:177|212:192,1,118.999996368408,2|10,0:0|0:0,0:0:0:0:
212,192,84159,6,0,L|200:262,1,46.7500014266968,2|0,3:2|0:0,0:0:0:0:
182,330,84334,2,0,L|248:305,1,46.7500014266968,10|0,0:0|0:0,0:0:0:0:
316,280,84510,2,0,L|261:234,1,46.7500014266968,10|0,0:0|0:0,0:0:0:0:
235,92,84685,6,0,L|289:137,1,46.7500014266968,10|0,3:2|0:0,0:0:0:0:
369,48,84861,1,10,0:0:0:0:
369,48,84948,1,10,0:0:0:0:
369,48,85036,2,0,L|302:72,1,46.7500014266968,8|0,0:0|0:0,0:0:0:0:
350,187,85212,2,0,L|362:117,1,46.7500014266968,10|0,0:0|0:0,0:0:0:0:
496,72,85387,5,6,3:2:0:0:
496,72,85562,2,0,L|478:199,1,118.999996368408,2|0,0:0|3:0,0:0:0:0:
434,253,86089,2,0,P|465:268|500:266,1,59.4999981842042,2|2,3:2|0:0,0:0:0:0:
353,244,86440,2,0,P|355:278|374:307,1,59.4999981842042,2|2,0:0|0:0,0:0:0:0:
359,154,86791,6,0,P|317:157|272:226,1,118.999996368408,2|2,3:2|0:0,0:0:0:0:
237,330,87317,1,0,3:0:0:0:
237,330,87492,2,0,P|255:292|218:218,1,118.999996368408,2|2,3:2|0:0,0:0:0:0:
147,150,88019,1,0,3:0:0:0:
58,256,88194,5,0,3:0:0:0:
58,256,88369,2,0,P|125:272|190:288,1,118.999996368408,2|0,0:0|3:0,0:0:0:0:
235,204,88896,2,0,P|226:161|218:121,1,59.4999981842042,2|2,3:2|0:0,0:0:0:0:
314,263,89247,2,0,P|308:292|301:321,1,59.4999981842042,2|2,0:0|0:0,0:0:0:0:
512,157,89598,6,0,B|468:144|440:176|446:185|452:196|421:254|342:217,1,165.749992412568,6|0,3:2|0:0,0:0:0:0:
441,345,89949,6,0,B|431:300|389:292|384:301|378:312|312:314|305:227,1,165.749992412568,6|0,3:2|0:0,0:0:0:0:
242,375,90300,6,0,B|276:343|262:303|251:303|239:303|207:248|276:197,1,165.749992412568,6|0,3:2|0:0,0:0:0:0:
120,219,90651,6,0,B|165:232|192:199|186:190|180:179|213:126|291:158,1,165.749992412568,6|0,3:2|0:0,0:0:0:0:
324,94,91001,5,6,3:2:0:0:
208,0,91176,1,2,0:0:0:0:
208,0,91264,1,2,0:0:0:0:
208,0,91352,2,0,P|216:49|221:102,1,76.4999976654053,2|2,3:2|0:0,0:0:0:0:
133,264,91703,1,2,3:2:0:0:
251,182,91878,1,2,0:0:0:0:
113,73,92054,2,0,P|105:122|100:175,1,76.4999976654053,2|2,3:2|0:0,0:0:0:0:
214,353,92405,6,0,P|251:317|328:346,1,114.749996498108,2|2,3:2|0:0,0:0:0:0:
384,324,92755,2,0,P|416:347|469:331,1,76.4999976654053,2|0,3:2|0:0,0:0:0:0:
383,173,93106,1,2,3:2:0:0:
309,325,93282,1,0,0:0:0:0:
257,157,93457,1,2,3:2:0:0:
148,333,93633,1,0,0:0:0:0:
74,142,93808,5,10,0:0:0:0:
493,365,95387,6,0,L|485:311,1,38.2499988327027,2|0,3:2|0:0,0:0:0:0:
485,358,95563,2,0,L|477:304,1,38.2499988327027,2|0,3:2|0:0,0:0:0:0:
477,351,95738,2,0,L|469:297,1,38.2499988327027,2|0,3:2|0:0,0:0:0:0:
81,48,96615,6,0,P|123:33|177:107,1,140.25000428009,6|0,3:2|0:0,0:0:0:0:
168,173,96966,2,0,P|192:223|247:220,1,93.5000028533936,10|0,0:0|0:0,0:0:0:0:
341,189,97317,1,2,3:2:0:0:
286,330,97492,2,0,P|241:343|185:361,1,93.5000028533936,2|8,0:0|0:0,0:0:0:0:
394,298,97843,6,0,L|419:399,1,93.5000028533936,2|0,0:0|3:0,0:0:0:0:
488,219,98194,2,0,L|510:128,1,93.5000028533936,2|8,0:0|0:0,0:0:0:0:
333,155,98545,2,0,B|285:134|250:186|258:196|264:205|238:259|172:237,1,187.000005706787,2|2,0:0|0:0,0:0:0:0:
81,135,99071,1,10,0:0:0:0:
181,20,99247,2,0,P|200:63|173:109,1,93.5000028533936,2|0,0:0|3:0,0:0:0:0:
28,210,99598,5,2,0:0:0:0:
154,347,99773,2,0,P|209:333|272:322,1,93.5000028533936,10|2,0:0|0:0,0:0:0:0:
151,189,100124,1,2,3:2:0:0:
27,378,100299,2,0,P|7:329|31:277,1,93.5000028533936,2|8,0:0|0:0,0:0:0:0:
245,147,100650,6,0,P|257:228|273:342,1,187.000005706787,2|2,0:0|0:0,0:0:0:0:
365,200,101176,1,10,0:0:0:0:
428,365,101352,2,0,L|444:266,1,93.5000028533936,2|0,0:0|3:0,0:0:0:0:
403,88,101703,1,2,0:0:0:0:
403,88,101791,1,0,0:0:0:0:
403,88,101878,1,10,0:0:0:0:
487,189,102054,1,2,0:0:0:0:
324,16,102229,6,0,P|278:18|256:106,1,140.25000428009,2|0,3:2|0:0,0:0:0:0:
288,168,102580,2,0,P|306:206|276:263,1,93.5000028533936,10|0,0:0|0:0,0:0:0:0:
203,356,102931,1,2,3:2:0:0:
111,226,103106,2,0,P|163:211|220:196,1,93.5000028533936,2|8,0:0|0:0,0:0:0:0:
32,117,103457,6,0,P|18:169|3:226,1,93.5000028533936,2|0,0:0|3:0,0:0:0:0:
194,104,103808,2,0,P|181:58|170:13,1,93.5000028533936,2|8,0:0|0:0,0:0:0:0:
130,239,104159,2,0,B|178:218|213:270|205:280|199:289|225:343|291:321,1,187.000005706787,2|2,0:0|0:0,0:0:0:0:
368,228,104685,1,10,0:0:0:0:
467,370,104861,2,0,P|494:330|478:278,1,93.5000028533936,2|0,0:0|3:0,0:0:0:0:
439,106,105212,5,2,0:0:0:0:
376,296,105387,1,10,0:0:0:0:
339,38,105562,1,2,0:0:0:0:
402,216,105737,1,2,3:2:0:0:
464,8,105913,2,0,P|476:86|489:163,1,140.25000428009,2|0,0:0|0:0,0:0:0:0:
402,216,106264,6,0,P|339:206|318:331,1,178.499994552612,2|0,3:2|0:0,0:0:0:0:
298,370,106615,5,2,3:2:0:0:
173,294,106791,1,2,3:2:0:0:
54,248,106966,5,2,3:2:0:0:
189,180,107142,1,2,3:2:0:0:
126,51,107317,5,2,0:0:0:0:
126,51,107405,1,2,0:0:0:0:
126,51,107492,2,0,P|141:146|164:298,1,204,2|0,3:2|0:0,0:0:0:0:
119,334,107843,6,0,B|80:372|80:372|27:337,1,110.499994941712,10|0,3:2|0:0,0:0:0:0:
226,213,108194,2,0,B|265:175|265:175|318:210,1,110.499994941712,10|0,3:2|0:0,0:0:0:0:
119,334,108545,6,0,B|80:372|80:372|27:337,1,110.499994941712,10|0,3:2|0:0,0:0:0:0:
226,213,108720,2,0,B|265:175|265:175|318:210,1,110.499994941712,10|0,3:2|0:0,0:0:0:0:
311,205,109071,6,0,B|389:229|389:229|406:289|406:289|499:317,1,220.999989883423,14|2,3:2|0:0,0:0:0:0:
424,154,109598,1,10,0:0:0:0:
324,290,109773,1,2,0:0:0:0:
241,172,109948,2,0,L|224:73,1,93.5000028533936,2|2,3:2|0:0,0:0:0:0:
156,268,110299,1,10,0:0:0:0:
156,268,110475,1,2,0:0:0:0:
63,180,110650,6,0,P|88:136|149:130,1,93.5000028533936,2|0,3:2|0:0,0:0:0:0:
79,316,111001,2,0,P|28:316|-7:266,1,93.5000028533936,10|0,0:0|0:0,0:0:0:0:
150,206,111352,1,2,3:2:0:0:
182,350,111527,2,0,P|230:365|285:382,1,93.5000028533936,2|8,0:0|0:0,0:0:0:0:
376,231,111878,2,0,P|328:246|273:263,1,93.5000028533936,2|0,0:0|3:0,0:0:0:0:
456,374,112229,5,2,0:0:0:0:
456,374,112405,2,0,P|467:318|480:263,1,93.5000028533936,10|2,0:0|0:0,0:0:0:0:
319,139,112755,1,2,3:2:0:0:
393,318,112931,1,2,0:0:0:0:
467,151,113106,1,10,0:0:0:0:
313,236,113282,1,2,0:0:0:0:
151,38,113457,6,0,B|183:87|183:87|142:145,1,110.499994941712,10|0,3:2|0:0,0:0:0:0:
9,137,113808,2,0,B|-23:88|-23:88|18:30,1,110.499994941712,10|0,3:2|0:0,0:0:0:0:
151,38,114159,6,0,B|183:87|183:87|142:145,1,110.499994941712,10|0,3:2|0:0,0:0:0:0:
9,137,114334,2,0,B|-23:88|-23:88|18:30,1,110.499994941712,10|0,3:2|0:0,0:0:0:0:
7,45,114685,6,0,B|-11:133|-11:133|20:172|20:172|-2:271,1,220.999989883423,14|2,3:2|0:0,0:0:0:0:
76,348,115212,1,10,0:0:0:0:
156,252,115387,1,2,0:0:0:0:
267,348,115562,2,0,P|209:367|166:381,1,93.5000028533936,2|2,3:2|0:0,0:0:0:0:
286,234,115913,1,10,0:0:0:0:
286,234,116089,1,2,0:0:0:0:
405,380,116264,5,0,3:0:0:0:
486,311,116440,2,0,P|472:243|446:117,1,187.000005706787,2|2,0:0|0:0,0:0:0:0:
346,11,116966,1,2,3:2:0:0:
289,205,117141,1,2,0:0:0:0:
430,45,117317,1,10,0:0:0:0:
492,247,117492,1,2,3:2:0:0:
492,247,117843,6,0,L|476:184,1,46.7500014266968,10|0,3:2|0:0,0:0:0:0:
390,296,118019,2,0,L|406:233,1,46.7500014266968,10|0,3:2|0:0,0:0:0:0:
309,335,118194,2,0,L|293:272,1,46.7500014266968,10|0,3:2|0:0,0:0:0:0:
207,384,118369,2,0,L|223:321,1,46.7500014266968,10|0,3:2|0:0,0:0:0:0:
218,338,118720,6,0,P|203:301|99:319,1,140.25000428009,10|0,3:2|0:0,0:0:0:0:
66,360,119071,2,0,P|38:317|51:259,1,85,6|0,3:2|0:0,0:0:0:0:
123,130,119422,2,0,P|151:87|138:29,1,85,10|0,0:0|0:0,0:0:0:0:
28,111,119773,1,2,3:2:0:0:
132,237,119948,2,0,P|184:260|235:289,1,85,2|8,0:0|0:0,0:0:0:0:
294,104,120299,6,0,P|279:162|267:210,1,85,2|0,0:0|3:0,0:0:0:0:
409,300,120650,2,0,P|398:258|387:217,1,85,2|8,0:0|0:0,0:0:0:0:
502,28,121001,2,0,P|509:61|393:107,1,170,2|2,0:0|0:0,0:0:0:0:
297,8,121527,2,0,P|285:62|272:125,1,85,10|2,0:0|0:0,0:0:0:0:
140,235,121878,6,0,P|190:217|245:197,1,85,2|0,3:2|0:0,0:0:0:0:
110,88,122229,2,0,P|60:70|5:50,1,85,10|0,0:0|0:0,0:0:0:0:
54,202,122580,1,0,3:0:0:0:
201,123,122755,2,0,P|213:177|226:240,1,85,2|8,0:0|0:0,0:0:0:0:
398,367,123106,6,0,P|369:313|274:327,1,170,2|2,0:0|0:0,0:0:0:0:
273,327,123633,1,8,0:0:0:0:
120,209,123808,2,0,P|149:155|244:169,1,170,2|2,0:0|0:0,0:0:0:0:
244,239,124247,1,2,0:0:0:0:
247,245,124334,2,0,P|291:232|313:174,1,85,8|0,0:0|0:0,0:0:0:0:
317,18,124685,6,0,P|332:85|340:129,1,85,2|0,3:2|0:0,0:0:0:0:
449,150,125036,2,0,P|457:108|467:66,1,85,10|0,0:0|0:0,0:0:0:0:
333,212,125387,1,2,3:2:0:0:
408,332,125562,2,0,P|453:309|502:291,1,85,2|8,0:0|0:0,0:0:0:0:
243,285,125913,6,0,P|229:335|216:387,1,85,2|0,0:0|3:0,0:0:0:0:
103,179,126264,2,0,P|114:238|123:285,1,85,2|8,0:0|0:0,0:0:0:0:
264,128,126615,2,0,B|221:146|190:100|197:91|202:83|179:35|121:55,1,170,2|2,0:0|0:0,0:0:0:0:
22,204,127141,2,0,P|77:185|125:173,1,85,10|2,0:0|0:0,0:0:0:0:
243,51,127492,6,0,P|267:88|252:146,1,85,0|2,3:0|0:0,0:0:0:0:
204,193,127843,2,0,P|180:156|195:98,1,85,10|2,0:0|0:0,0:0:0:0:
301,275,128194,1,2,3:2:0:0:
301,275,128369,2,0,P|341:286|381:300,1,85,2|2,0:0|0:0,0:0:0:0:
453,255,128633,1,0,0:0:0:0:
464,258,128720,6,0,B|532:258|568:159|520:96|449:137|455:184,1,220.999989883423,2|2,3:2|3:2,0:0:0:0:
294,367,129422,2,0,B|225:367|189:268|237:205|308:246|302:293,1,220.999989883423,2|10,3:2|0:0,0:0:0:0:
363,329,129861,1,10,0:0:0:0:
372,319,129948,1,10,0:0:0:0:
359,170,130124,1,10,0:0:0:0:
230,89,130299,6,0,B|183:50|117:83|92:148|105:162|122:175|115:265|57:305|-1:271,1,361.25,2|0,0:0|3:0,0:0:0:0:
