osu file format v14

[General]
AudioFilename: audio.mp3
AudioLeadIn: 0
PreviewTime: 96001
Countdown: 0
SampleSet: Soft
StackLeniency: 0.4
Mode: 0
LetterboxInBreaks: 0
WidescreenStoryboard: 1

[Editor]
DistanceSpacing: 0.5
BeatDivisor: 4
GridSize: 32
TimelineZoom: 1.8

[Metadata]
Title:Envy Baby
TitleUnicode:エンヴィーベイビー
Artist:Such
ArtistUnicode:Such
Creator:Petal
Version:Cruelty
Source:
Tags:japanese pop j-pop jpop kanaria gumi cover wanpachi reform kujinn matha full vocaloid pngtuber
BeatmapID:2941529
BeatmapSetID:1428781

[Difficulty]
HPDrainRate:6
CircleSize:4
OverallDifficulty:8.8
ApproachRate:9.2
SliderMultiplier:2.3
SliderTickRate:1

[Events]
//Background and Video events
0,0,"BG.jpg",0,0
//Break Periods
//Storyboard Layer 0 (Background)
//Storyboard Layer 1 (Fail)
//Storyboard Layer 2 (Pass)
//Storyboard Layer 3 (Foreground)
//Storyboard Layer 4 (Overlay)
//Storyboard Sound Samples

[TimingPoints]
1177,350.877192982456,4,2,1,40,1,0
1177,-250,4,2,1,40,0,0
1703,-125,4,2,1,40,0,0
1878,-250,4,2,1,40,0,0
2405,-125,4,2,1,40,0,0
2580,-250,4,2,1,40,0,0
3106,-125,4,2,1,40,0,0
3282,-250,4,2,1,40,0,0
3808,-125,4,2,1,40,0,0
3984,-250,4,2,1,40,0,0
5212,-500,4,2,1,40,0,0
5562,-62.5,4,2,1,70,0,0
6791,-83.3333333333333,4,2,1,65,0,0
7141,-100,4,2,1,65,0,0
12405,-83.3333333333333,4,2,1,65,0,0
12755,-100,4,2,1,65,0,0
18019,-142.857142857143,4,2,1,55,0,0
23282,-100,4,2,1,55,0,0
25036,-142.857142857143,4,2,1,55,0,0
29247,-142.857142857143,4,2,1,50,0,0
30650,-100,4,2,1,50,0,0
31001,-142.857142857143,4,2,1,50,0,0
31352,-100,4,2,1,50,0,0
31703,-142.857142857143,4,2,1,50,0,0
33457,-71.4285714285715,4,2,1,60,0,0
34861,-100,4,2,1,60,0,0
39247,-55.5555555555556,4,2,1,60,0,0
39948,-200,4,2,1,40,0,0
40475,-76.9230769230769,4,2,1,80,0,1
41176,-90.9090909090909,4,2,1,80,0,1
46089,-76.9230769230769,4,2,1,80,0,1
46791,-90.9090909090909,4,2,1,80,0,1
49948,-50,4,2,1,80,0,1
50124,-66.6666666666667,4,2,1,80,0,1
51176,-50,4,2,1,80,0,1
51352,-66.6666666666667,4,2,1,80,0,0
51703,-50,4,2,1,80,0,0
52580,-100,4,2,1,80,0,0
52931,-76.9230769230769,4,2,1,80,0,1
54510,-90.9090909090909,4,2,1,80,0,1
57317,-50,4,2,1,80,0,0
58194,-100,4,2,1,80,0,0
58545,-76.9230769230769,4,2,1,80,0,1
60299,-90.9090909090909,4,2,1,80,0,1
61703,-62.5,4,2,1,80,0,1
62931,-83.3333333333333,4,2,1,65,0,0
63282,-100,4,2,1,65,0,0
68545,-83.3333333333333,4,2,1,65,0,0
68896,-100,4,2,1,65,0,0
72580,-71.4285714285714,4,2,1,65,0,0
73808,-500,4,2,1,40,0,0
74159,-100,4,2,1,60,0,0
74510,-500,4,2,1,60,0,0
74861,-100,4,2,1,60,0,0
75212,-500,4,2,1,60,0,0
76264,-166.666666666667,4,2,1,60,0,0
76615,-100,4,2,1,60,0,0
77317,-500,4,2,1,60,0,0
77668,-100,4,2,1,60,0,0
79071,-100,4,2,1,60,0,0
79422,-500,4,2,1,60,0,0
79773,-100,4,2,1,60,0,0
80124,-500,4,2,1,60,0,0
80475,-100,4,2,1,60,0,0
80826,-500,4,2,1,60,0,0
81176,-125,4,2,1,60,0,0
81878,-500,4,2,1,60,0,0
82229,-100,4,2,1,60,0,0
82580,-125,4,2,1,60,0,0
84159,-62.5,4,2,1,65,0,0
85212,-50,4,2,1,65,0,0
85387,-142.857142857143,4,2,1,55,0,0
86791,-100,4,2,1,55,0,0
87141,-142.857142857143,4,2,1,55,0,0
87492,-100,4,2,1,55,0,0
87843,-142.857142857143,4,2,1,55,0,0
89598,-71.4285714285714,4,2,1,65,0,0
91001,-100,4,2,1,65,0,0
95387,-50,4,2,1,65,0,0
96089,-200,4,2,1,40,0,0
96615,-76.9230769230769,4,2,1,85,0,1
97317,-90.9090909090909,4,2,1,85,0,1
102229,-76.9230769230769,4,2,1,85,0,1
102931,-90.9090909090909,4,2,1,85,0,1
106089,-50,4,2,1,85,0,1
106264,-66.6666666666667,4,2,1,85,0,1
107317,-50,4,2,1,85,0,1
107492,-66.6666666666667,4,2,1,85,0,0
107843,-50,4,2,1,85,0,0
108720,-100,4,2,1,85,0,0
109071,-76.9230769230769,4,2,1,85,0,1
110650,-90.9090909090909,4,2,1,85,0,1
113457,-50,4,2,1,85,0,0
114334,-100,4,2,1,85,0,0
114685,-76.9230769230769,4,2,1,85,0,1
116440,-90.9090909090909,4,2,1,85,0,1
117843,-62.5,4,2,1,85,0,1
119071,-90.9090909090909,4,2,1,75,0,0
128720,-71.4285714285714,4,2,1,75,0,0
129773,-71.4285714285714,4,2,1,60,0,0
130299,-1000,4,2,1,60,0,0
130387,-1000,4,2,1,5,0,0
133282,-1000,4,2,1,20,0,0

[Colours]
Combo1 : 190,190,205
Combo2 : 255,26,0
Combo3 : 192,192,192
Combo4 : 101,218,218

[HitObjects]
227,361,1177,6,0,L|330:343,1,92,2|8,0:0|0:0,0:0:0:0:
219,353,1703,2,0,L|278:342,1,46,2|0,0:0|0:0,0:0:0:0:
139,268,1878,6,0,L|36:250,1,92,2|8,0:0|0:0,0:0:0:0:
147,260,2405,2,0,L|88:249,1,46,2|0,0:0|0:0,0:0:0:0:
237,149,2580,6,0,L|255:252,1,92,2|8,0:0|0:0,0:0:0:0:
245,141,3106,2,0,L|256:200,1,46,2|0,0:0|0:0,0:0:0:0:
63,105,3282,6,0,L|81:2,1,92,2|8,0:0|0:0,0:0:0:0:
71,113,3808,2,0,L|82:54,1,46,2|0,0:0|0:0,0:0:0:0:
234,61,3984,5,2,0:0:0:0:
310,89,4159,1,2,0:0:0:0:
133,166,4334,5,8,0:0:0:0:
57,194,4509,1,2,0:0:0:0:
295,368,4685,5,2,0:0:0:0:
330,239,4861,1,2,0:0:0:0:
201,205,5036,1,8,0:0:0:0:
167,334,5212,2,0,L|125:340,1,34.5,2|0,0:0|0:0,0:0:0:0:
62,368,5562,6,0,P|53:321|106:273,1,92,10|0,3:2|0:0,0:0:0:0:
279,175,5738,2,0,P|242:206|174:184,1,92,10|0,3:2|0:0,0:0:0:0:
6,60,5913,2,0,P|51:75|66:145,1,92,10|0,3:2|0:0,0:0:0:0:
109,197,6089,5,10,3:2:0:0:
348,33,6440,6,0,B|371:148|371:148|358:175|358:175|390:334,1,276,10|0,3:2|0:0,0:0:0:0:
448,384,6791,6,0,P|409:332|280:371,1,206.999993682861,6|0,3:2|0:0,0:0:0:0:
213,384,7141,2,0,P|155:338|171:275,1,115,10|0,0:0|0:0,0:0:0:0:
281,95,7492,1,2,3:2:0:0:
442,217,7668,2,0,L|302:244,1,115,2|8,0:0|0:0,0:0:0:0:
122,0,8019,6,0,P|160:40|232:33,1,115,2|0,0:0|3:0,0:0:0:0:
443,112,8369,2,0,P|386:112|348:153,1,115,2|8,0:0|0:0,0:0:0:0:
160,228,8720,5,2,0:0:0:0:
148,224,8779,1,2,0:0:0:0:
136,220,8837,1,2,0:0:0:0:
124,216,8896,5,2,3:2:0:0:
216,41,9071,1,2,0:0:0:0:
329,238,9247,5,10,0:0:0:0:
97,124,9422,1,2,0:0:0:0:
295,0,9598,5,0,3:0:0:0:
253,189,9773,5,2,0:0:0:0:
181,158,9948,1,10,0:0:0:0:
243,109,10124,1,2,0:0:0:0:
403,305,10299,5,2,3:2:0:0:
134,339,10475,2,0,L|83:346,2,38.3333333333333,2|2|2,0:0|0:0|0:0,0:0:0:0:
203,384,10650,1,10,0:0:0:0:
329,238,10826,2,0,L|304:376,1,115,2|0,0:0|3:0,0:0:0:0:
313,362,11176,5,2,0:0:0:0:
409,221,11352,1,10,0:0:0:0:
193,114,11527,1,2,0:0:0:0:
329,238,11703,5,2,3:2:0:0:
471,53,11878,2,0,L|464:8,2,38.3333333333333,2|2|2,0:0|0:0|0:0,0:0:0:0:
483,129,12054,1,10,0:0:0:0:
343,1,12229,1,2,0:0:0:0:
241,195,12405,6,0,B|149:212|149:212|136:230|136:230|26:251,1,206.999993682861,6|0,3:2|0:0,0:0:0:0:
0,177,12755,2,0,B|23:163|28:128|28:128|47:164|108:161,1,115,10|0,0:0|0:0,0:0:0:0:
200,379,13106,1,2,3:2:0:0:
329,238,13282,2,0,L|346:121,1,115,2|8,0:0|0:0,0:0:0:0:
73,8,13633,6,0,P|85:69|154:88,1,115,2|0,0:0|3:0,0:0:0:0:
390,62,13984,2,0,P|327:44|276:95,1,115,2|8,0:0|0:0,0:0:0:0:
160,254,14334,5,2,0:0:0:0:
148,257,14393,1,2,0:0:0:0:
136,260,14451,1,2,0:0:0:0:
124,263,14510,5,2,3:2:0:0:
205,52,14685,1,2,0:0:0:0:
329,238,14861,5,10,0:0:0:0:
69,192,15036,1,2,0:0:0:0:
184,384,15212,5,0,3:0:0:0:
302,163,15387,5,2,0:0:0:0:
223,140,15563,1,10,0:0:0:0:
243,220,15738,1,2,0:0:0:0:
440,130,15913,5,2,3:2:0:0:
313,15,16089,2,0,L|260:26,2,38.3333333333333,2|2|2,0:0|0:0|0:0,0:0:0:0:
392,0,16264,1,10,0:0:0:0:
512,192,16440,2,0,L|390:219,1,115,2|0,0:0|3:0,0:0:0:0:
391,225,16791,5,2,0:0:0:0:
337,88,16966,1,10,0:0:0:0:
211,299,17141,1,2,0:0:0:0:
302,163,17317,5,2,3:2:0:0:
463,291,17492,2,0,L|511:280,2,38.3333333333333,2|2|2,0:0|0:0|0:0,0:0:0:0:
404,345,17668,2,0,L|338:328,1,57.5,10|0,0:0|0:0,0:0:0:0:
201,222,17843,2,0,P|174:226|145:268,1,57.5,2|0,0:0|0:0,0:0:0:0:
112,384,18019,5,6,3:2:0:0:
93,306,18369,5,8,0:0:0:0:
75,226,18720,6,0,L|99:76,1,120.749996315003,2|0,3:2|0:0,0:0:0:0:
108,31,19071,1,10,0:0:0:0:
172,85,19247,1,2,0:0:0:0:
358,0,19422,5,2,3:2:0:0:
289,124,19597,1,2,0:0:0:0:
384,97,19772,1,10,0:0:0:0:
262,26,19948,1,2,0:0:0:0:
161,255,20124,5,2,3:2:0:0:
262,197,20299,1,2,0:0:0:0:
183,176,20474,1,10,0:0:0:0:
239,278,20650,1,2,0:0:0:0:
384,97,20826,5,2,3:2:0:0:
470,230,21001,2,0,L|489:152,1,80.499997543335,2|8,0:0|0:0,0:0:0:0:
345,384,21352,2,0,L|327:306,1,80.499997543335,2|0,0:0|3:0,0:0:0:0:
481,224,21703,2,0,L|499:145,1,80.499997543335,2|8,0:0|0:0,0:0:0:0:
330,376,22054,2,0,L|312:298,1,80.499997543335,2|0,0:0|3:0,0:0:0:0:
285,64,22405,5,2,0:0:0:0:
330,207,22580,1,10,0:0:0:0:
183,176,22755,1,2,0:0:0:0:
267,145,22931,5,2,3:2:0:0:
0,0,23282,2,0,P|34:77|53:190,1,172.5,10|0,0:0|0:0,0:0:0:0:
36,240,23633,5,0,3:0:0:0:
112,217,23808,1,2,0:0:0:0:
207,381,23984,5,10,0:0:0:0:
131,358,24159,1,2,0:0:0:0:
125,121,24334,5,2,3:2:0:0:
153,50,24510,1,2,0:0:0:0:
213,248,24685,5,10,0:0:0:0:
183,176,24861,1,2,0:0:0:0:
354,275,25036,6,0,P|306:282|273:315,1,80.499997543335,2|2,3:2|0:0,0:0:0:0:
221,87,25387,2,0,P|253:110|293:113,1,80.499997543335,10|2,0:0|0:0,0:0:0:0:
419,221,25738,5,2,3:2:0:0:
487,101,25913,1,2,0:0:0:0:
394,126,26088,1,10,0:0:0:0:
512,197,26264,1,2,0:0:0:0:
345,354,26440,5,2,3:2:0:0:
277,190,26615,2,0,L|296:96,1,80.499997543335,2|8,0:0|0:0,0:0:0:0:
127,288,26966,2,0,L|142:366,1,80.499997543335,2|0,0:0|3:0,0:0:0:0:
291,184,27317,2,0,L|310:90,1,80.499997543335,2|8,0:0|0:0,0:0:0:0:
114,299,27668,2,0,L|129:377,1,80.499997543335,2|0,0:0|3:0,0:0:0:0:
211,121,28019,6,0,L|185:117,3,26.833332514445,2|2|2|10,0:0|0:0|0:0|0:0,0:0:0:0:
0,189,28369,1,2,0:0:0:0:
89,11,28545,2,0,P|115:70|113:97,1,80.499997543335,2|0,3:2|0:0,0:0:0:0:
45,256,28896,2,0,L|190:231,1,120.749996315003,10|0,0:0|0:0,0:0:0:0:
233,274,29247,5,4,3:2:0:0:
512,335,29422,2,0,P|431:327|380:402,1,160.99999508667,2|0,0:0|3:0,0:0:0:0:
233,274,29948,6,0,P|238:232|286:208,1,80.499997543335,2|2,3:2|0:0,0:0:0:0:
338,249,30299,2,0,P|333:291|285:315,1,80.499997543335,2|2,0:0|0:0,0:0:0:0:
187,33,30650,6,0,P|223:85|346:70,1,172.5,2|0,3:2|0:0,0:0:0:0:
336,78,31001,2,0,L|318:-11,1,80.499997543335,2|0,0:0|3:0,0:0:0:0:
190,151,31352,6,0,B|132:166|106:130|117:123|72:77|7:121,1,172.5,2|0,3:2|0:0,0:0:0:0:
26,119,31703,2,0,P|48:165|51:205,1,80.499997543335,2|0,0:0|3:0,0:0:0:0:
0,384,32054,5,0,3:0:0:0:
128,197,32229,2,0,B|134:252|97:280|87:260|50:295|60:360,1,160.99999508667,2|2,0:0|3:2,0:0:0:0:
121,382,32755,5,2,3:2:0:0:
194,354,32931,1,2,0:0:0:0:
285,235,33106,5,2,0:0:0:0:
210,213,33282,1,2,0:0:0:0:
302,45,33457,6,0,B|257:82|257:82|380:55|380:55|396:91|441:96,1,241.499992630005,6|0,3:2|0:0,0:0:0:0:
479,38,33808,6,0,P|435:109|401:277,1,241.499992630005,6|0,3:2|0:0,0:0:0:0:
503,284,34159,6,0,B|431:255|382:310|409:327|347:395|273:349,1,241.499992630005,6|0,3:2|0:0,0:0:0:0:
300,261,34510,6,0,B|359:234|408:312|379:324|417:386|493:370,1,241.499992630005,6|0,3:2|0:0,0:0:0:0:
400,261,34861,5,6,3:2:0:0:
210,380,35036,1,2,0:0:0:0:
198,384,35124,1,2,0:0:0:0:
180,374,35212,2,0,P|168:314|121:253,1,115,2|2,3:2|0:0,0:0:0:0:
3,157,35562,5,2,3:2:0:0:
204,215,35738,1,2,0:0:0:0:
10,250,35913,5,2,3:2:0:0:
93,63,36089,1,2,0:0:0:0:
266,168,36264,2,0,L|243:303,1,115,2|0,3:2|0:0,0:0:0:0:
432,384,36527,1,2,0:0:0:0:
444,374,36615,2,0,P|400:312|305:348,1,172.5,2|0,3:2|0:0,0:0:0:0:
180,374,36966,5,2,3:2:0:0:
458,202,37317,1,2,3:2:0:0:
193,33,37668,1,10,0:0:0:0:
151,0,39247,6,0,P|150:53|190:88,1,103.499996841431,2|0,3:2|0:0,0:0:0:0:
352,145,39422,2,0,P|352:198|313:233,1,103.499996841431,2|0,3:2|0:0,0:0:0:0:
253,381,39598,5,2,3:2:0:0:
126,171,39948,6,0,L|205:158,2,57.5
11,182,40475,6,0,B|72:158|122:205|97:221|154:276|226:238,1,224.24998973465,6|0,3:2|0:0,0:0:0:0:
359,298,40826,2,0,B|348:261|348:261|269:290|269:290|298:387,1,224.24998973465,10|0,0:0|0:0,0:0:0:0:
196,324,41176,1,2,3:2:0:0:
345,174,41352,2,0,B|398:189|398:189|409:202|409:202|480:222,1,126.500003860474,2|8,0:0|0:0,0:0:0:0:
356,33,41703,6,0,P|306:81|243:66,1,126.500003860474,2|0,0:0|3:0,0:0:0:0:
7,191,42054,2,0,P|56:143|119:158,1,126.500003860474,2|8,0:0|0:0,0:0:0:0:
235,0,42405,6,0,B|222:79|222:79|234:104|234:104|217:193,1,189.750005790711,2|0,0:0|0:0,0:0:0:0:
164,244,42755,1,2,0:0:0:0:
345,174,42931,1,10,0:0:0:0:
146,251,43106,1,2,0:0:0:0:
320,384,43282,5,0,3:0:0:0:
382,290,43457,2,0,B|433:280|433:280|451:286|451:286|526:273,2,126.500003860474,2|10|2,0:0|0:0|0:0,0:0:0:0:
303,371,43984,5,2,3:2:0:0:
110,151,44159,2,0,P|181:149|228:210,1,126.500003860474,2|8,0:0|0:0,0:0:0:0:
447,381,44510,6,0,L|479:171,1,189.750005790711,2|0,0:0|0:0,0:0:0:0:
489,111,44861,1,2,0:0:0:0:
301,256,45036,1,10,0:0:0:0:
473,23,45212,2,0,P|448:75|384:76,1,126.500003860474,2|0,0:0|3:0,0:0:0:0:
220,43,45562,6,0,L|160:32,2,42.1666679534912,2|2|2,0:0|0:0|0:0,0:0:0:0:
301,59,45738,1,10,0:0:0:0:
219,184,45913,1,2,0:0:0:0:
475,193,46089,6,0,P|375:175|302:292,1,224.24998973465,2|0,3:2|0:0,0:0:0:0:
66,311,46440,2,0,B|136:294|136:294|144:299|144:299|218:281|218:281|230:324|279:339,1,224.24998973465,10|0,0:0|0:0,0:0:0:0:
219,184,46791,1,2,3:2:0:0:
322,384,46966,2,0,P|376:339|367:273,1,126.500003860474,2|8,0:0|0:0,0:0:0:0:
83,185,47317,6,0,L|62:333,1,126.500003860474,2|0,0:0|3:0,0:0:0:0:
322,175,47668,2,0,L|305:50,1,126.500003860474,2|8,0:0|0:0,0:0:0:0:
0,72,48019,6,0,P|44:137|156:117,1,189.750005790711,2|0,0:0|0:0,0:0:0:0:
197,70,48369,1,2,0:0:0:0:
322,175,48545,1,10,0:0:0:0:
179,62,48720,1,2,0:0:0:0:
375,7,48896,5,0,3:0:0:0:
220,147,49071,5,2,0:0:0:0:
417,207,49247,1,10,0:0:0:0:
288,0,49422,1,2,0:0:0:0:
164,210,49598,5,2,3:2:0:0:
492,121,49773,1,2,0:0:0:0:
356,384,49948,6,0,P|327:346|345:306,2,76.6666666666667,2|2|2,0:0|0:0|0:0,0:0:0:0:
407,326,50124,6,0,B|433:257|381:201|363:229|301:165|344:84,1,258.75000987053,2|0,3:2|0:0,0:0:0:0:
442,5,50475,6,0,P|492:12|500:71,1,86.2500032901765,2|0,3:2|0:0,0:0:0:0:
251,117,50650,2,0,P|240:73|218:33,1,86.2500032901765,2|0,3:2|0:0,0:0:0:0:
447,17,50826,6,0,P|486:48|464:103,1,86.2500032901765,2|0,3:2|0:0,0:0:0:0:
163,98,51001,2,0,P|126:71|83:54,1,86.2500032901765,2|0,3:2|0:0,0:0:0:0:
390,250,51176,6,0,B|411:252|425:233|425:233|449:234|470:252,2,76.6666666666667,2|2|2,0:0|0:0|0:0,0:0:0:0:
345,180,51352,6,0,B|152:220|152:220|158:173|218:184,1,258.75000987053,2|0,3:2|0:0,0:0:0:0:
390,250,51703,6,0,P|373:309|364:379,1,115,10|0,3:2|0:0,0:0:0:0:
73,246,52054,2,0,P|64:189|48:133,1,115,10|0,3:2|0:0,0:0:0:0:
376,264,52405,6,0,P|359:323|350:393,1,115,10|0,3:2|0:0,0:0:0:0:
52,238,52580,2,0,P|43:181|9:55,1,172.5,10|0,3:2|0:0,0:0:0:0:
75,13,52931,6,0,B|137:-5|183:45|157:59|209:119|284:87,1,224.24998973465,14|0,3:2|0:0,0:0:0:0:
337,49,53282,5,2,0:0:0:0:
193,182,53457,1,10,0:0:0:0:
264,8,53633,1,2,0:0:0:0:
423,157,53808,5,2,3:2:0:0:
268,92,53984,1,2,0:0:0:0:
434,5,54159,1,10,0:0:0:0:
291,197,54334,1,2,0:0:0:0:
512,246,54510,6,0,P|424:254|394:301,1,126.500003860474,2|0,3:2|0:0,0:0:0:0:
194,373,54861,2,0,P|106:365|76:318,1,126.500003860474,10|0,0:0|0:0,0:0:0:0:
165,179,55212,1,2,3:2:0:0:
296,384,55387,2,0,P|310:308|342:238,1,126.500003860474,2|8,0:0|0:0,0:0:0:0:
86,104,55738,2,0,P|133:229|143:291,1,189.750005790711,2|0,0:0|0:0,0:0:0:0:
84,339,56089,5,2,0:0:0:0:
246,229,56264,1,10,0:0:0:0:
31,170,56440,1,2,0:0:0:0:
194,373,56615,5,2,3:2:0:0:
280,155,56791,1,2,0:0:0:0:
31,36,56966,1,10,0:0:0:0:
142,283,57141,1,2,0:0:0:0:
254,57,57317,6,0,P|308:75|388:91,1,115,10|0,3:2|0:0,0:0:0:0:
210,317,57668,2,0,P|153:329|99:348,1,115,10|0,3:2|0:0,0:0:0:0:
268,72,58019,6,0,P|322:90|402:106,1,115,10|0,3:2|0:0,0:0:0:0:
200,335,58194,2,0,P|143:347|13:394,1,172.5,10|0,3:2|0:0,0:0:0:0:
128,254,58545,6,0,B|192:240|233:295|205:307|252:371|330:346,1,224.24998973465,14|0,3:2|0:0,0:0:0:0:
380,303,58896,5,2,0:0:0:0:
261,162,59071,1,10,0:0:0:0:
200,335,59247,1,2,0:0:0:0:
337,213,59422,5,2,3:2:0:0:
135,159,59598,1,2,0:0:0:0:
329,72,59773,1,10,0:0:0:0:
262,282,59948,1,2,0:0:0:0:
451,182,60124,5,2,3:2:0:0:
229,39,60299,2,0,P|170:59|91:83,2,126.500003860474,2|10|2,0:0|0:0|0:0,0:0:0:0:
388,0,60826,5,2,3:2:0:0:
258,131,61001,1,2,0:0:0:0:
443,267,61176,1,10,0:0:0:0:
329,72,61352,1,2,3:2:0:0:
124,379,61703,6,0,P|168:386|208:366,1,92,10|0,3:2|0:0,0:0:0:0:
258,131,61878,2,0,P|228:165|226:210,1,92,10|0,3:2|0:0,0:0:0:0:
419,376,62054,2,0,P|403:333|365:309,1,92,10|0,3:2|0:0,0:0:0:0:
269,295,62229,5,10,3:2:0:0:
36,384,62580,6,0,B|12:323|59:273|75:298|130:241|97:174|97:174|72:163|57:129,1,276,10|0,3:2|0:0,0:0:0:0:
0,46,62931,6,0,P|57:118|187:78,1,206.999993682861,6|0,3:2|0:0,0:0:0:0:
216,48,63282,2,0,L|349:76,1,115,10|0,0:0|0:0,0:0:0:0:
507,106,63633,1,2,3:2:0:0:
299,255,63808,2,0,P|271:204|301:143,1,115,2|8,0:0|0:0,0:0:0:0:
432,0,64159,6,0,L|405:127,1,115,2|0,0:0|3:0,0:0:0:0:
186,218,64510,2,0,L|162:105,1,115,2|8,0:0|0:0,0:0:0:0:
432,194,64861,5,2,0:0:0:0:
444,198,64920,1,2,0:0:0:0:
456,202,64978,1,2,0:0:0:0:
468,206,65037,5,2,3:2:0:0:
332,361,65212,1,2,0:0:0:0:
288,153,65387,5,10,0:0:0:0:
441,323,65562,1,2,0:0:0:0:
219,384,65738,5,0,3:0:0:0:
300,227,65913,5,2,0:0:0:0:
353,285,66088,1,10,0:0:0:0:
276,303,66264,1,2,0:0:0:0:
179,107,66440,5,2,3:2:0:0:
37,199,66615,2,0,L|-9:188,2,38.3333333333333,2|2|2,0:0|0:0|0:0,0:0:0:0:
118,223,66791,1,10,0:0:0:0:
42,0,66966,2,0,L|63:134,1,115,2|0,0:0|3:0,0:0:0:0:
71,120,67317,5,2,0:0:0:0:
211,8,67492,1,10,0:0:0:0:
223,237,67668,1,2,0:0:0:0:
143,69,67843,5,2,3:2:0:0:
347,62,68019,2,0,L|384:56,2,38.3333333333333,2|2|2,0:0|0:0|0:0,0:0:0:0:
296,127,68194,1,10,0:0:0:0:
211,8,68369,1,2,0:0:0:0:
383,138,68545,6,0,B|394:196|344:233|334:208|276:250|299:321,1,206.999993682861,6|0,3:2|0:0,0:0:0:0:
365,360,68896,2,0,P|293:357|256:397,1,115,10|0,0:0|0:0,0:0:0:0:
200,165,69247,1,2,3:2:0:0:
46,384,69422,2,0,P|31:323|5:271,1,115,2|8,0:0|0:0,0:0:0:0:
304,224,69773,6,0,P|235:245|214:296,1,115,2|0,0:0|3:0,0:0:0:0:
0,63,70124,2,0,P|32:108|87:119,1,115,2|8,0:0|0:0,0:0:0:0:
307,36,70475,5,2,0:0:0:0:
304,24,70534,1,2,0:0:0:0:
301,12,70592,1,2,0:0:0:0:
298,0,70651,5,2,3:2:0:0:
200,165,70826,1,2,0:0:0:0:
90,0,71001,5,10,0:0:0:0:
257,98,71176,1,2,0:0:0:0:
143,232,71352,5,0,3:0:0:0:
357,191,71527,5,2,0:0:0:0:
282,173,71703,1,10,0:0:0:0:
302,249,71878,1,2,0:0:0:0:
106,384,72054,5,2,3:2:0:0:
269,325,72229,2,0,L|321:336,2,38.3333333333333,2|2|2,0:0|0:0|0:0,0:0:0:0:
191,308,72405,1,8,0:0:0:0:
44,328,72580,6,0,B|2:267|51:213|51:213|130:178|100:93,1,241.499992630005,2|0,3:2|0:0,0:0:0:0:
34,93,72931,2,0,P|0:123|0:159,1,80.499997543335,2|0,3:2|0:0,0:0:0:0:
357,191,73106,6,0,B|342:127|265:105|265:105|234:187|154:177,1,241.499992630005,2|0,3:2|0:0,0:0:0:0:
107,123,73457,1,2,3:2:0:0:
362,4,73808,6,0,L|356:44,1,34.5,8|0,0:0|0:0,0:0:0:0:
336,116,74159,6,0,P|375:77|484:112,1,172.5,2|0,3:2|0:0,0:0:0:0:
505,178,74510,2,0,L|499:206,1,23,2|0,0:0|3:0,0:0:0:0:
343,221,74861,6,0,B|296:239|257:203|276:190|232:148|176:182,1,172.5,2|0,0:0|0:0,0:0:0:0:
167,250,75212,2,0,L|173:278,1,23,2|2,3:2|0:0,0:0:0:0:
373,354,75562,5,2,3:2:0:0:
401,281,75738,1,2,0:0:0:0:
272,384,75913,5,2,0:0:0:0:
244,311,76089,1,2,3:2:0:0:
84,384,76264,6,0,P|94:346|106:293,1,68.9999978942872,2|0,0:0|0:0,0:0:0:0:
187,93,76615,5,2,3:2:0:0:
37,141,76791,2,0,L|-5:149,2,38.3333333333333,2|2|2,0:0|0:0|0:0,0:0:0:0:
49,125,76966,6,0,B|96:107|135:143|116:156|160:198|220:167,1,172.5,2|0,3:2|0:0,0:0:0:0:
264,122,77317,2,0,P|267:106|265:93,1,23,2|0,0:0|3:0,0:0:0:0:
512,217,77668,6,0,P|422:210|360:291,2,172.5,2|2|2,0:0|0:0|0:0,0:0:0:0:
397,344,78369,6,0,P|324:336|280:289,1,115,2|0,3:2|0:0,0:0:0:0:
286,298,78633,2,0,P|213:306|169:353,1,115,2|0,0:0|0:0,0:0:0:0:
122,384,78896,1,2,3:2:0:0:
4,270,79071,6,0,B|37:211|107:223|107:223|145:284,1,172.5,2|0,0:0|0:0,0:0:0:0:
188,200,79422,2,0,L|196:171,1,23,0|0,3:0|0:0,0:0:0:0:
257,0,79773,6,0,P|266:74|372:140,1,172.5,2|0,3:2|0:0,0:0:0:0:
405,174,80124,2,0,P|415:156|413:146,1,23,2|0,0:0|3:0,0:0:0:0:
216,94,80475,6,0,B|169:76|130:112|149:125|105:167|45:136,1,172.5,2|0,0:0|0:0,0:0:0:0:
5,88,80826,1,2,3:2:0:0:
49,148,81001,1,2,0:0:0:0:
156,0,81176,6,0,P|135:47|133:98,1,92,2|2,0:0|3:2,0:0:0:0:
1,211,81527,2,0,P|31:252|74:279,1,92,2|2,0:0|3:2,0:0:0:0:
188,200,81878,6,0,L|196:171,1,23,2|0,3:2|0:0,0:0:0:0:
179,307,82229,6,0,P|96:306|32:377,1,172.5,2|0,3:2|0:0,0:0:0:0:
249,256,82580,6,0,P|296:283|356:263,1,92,2|0,3:2|0:0,0:0:0:0:
427,384,82931,2,0,P|473:356|486:294,1,92,2|8,0:0|0:0,0:0:0:0:
324,110,83282,2,0,L|306:215,1,92,2|0,0:0|0:0,0:0:0:0:
441,256,83545,1,2,0:0:0:0:
460,247,83633,1,10,0:0:0:0:
283,14,84159,6,0,P|230:15|205:71,1,92,2|0,3:2|0:0,0:0:0:0:
194,271,84334,2,0,P|219:224|183:174,1,92,10|0,0:0|0:0,0:0:0:0:
11,63,84510,2,0,P|38:108|99:102,1,92,10|0,0:0|0:0,0:0:0:0:
163,120,84685,5,10,3:2:0:0:
191,115,84861,5,10,0:0:0:0:
148,91,84948,1,10,0:0:0:0:
148,141,85036,1,8,0:0:0:0:
0,318,85212,6,0,P|58:321|101:378,1,115,10|0,0:0|0:0,0:0:0:0:
173,384,85387,5,6,3:2:0:0:
317,235,85562,2,0,B|332:194|301:160|290:176|255:138|279:85,1,160.99999508667,2|0,0:0|3:0,0:0:0:0:
431,92,86089,5,2,3:2:0:0:
353,113,86264,1,2,0:0:0:0:
440,102,86440,5,2,0:0:0:0:
362,123,86615,1,2,0:0:0:0:
234,271,86791,6,0,P|302:263|380:348,1,172.5,2|0,3:2|0:0,0:0:0:0:
499,352,87141,2,0,P|451:362|425:406,1,80.499997543335,2|0,0:0|3:0,0:0:0:0:
208,362,87492,6,0,L|184:180,1,172.5,2|0,3:2|0:0,0:0:0:0:
201,113,87843,2,0,P|170:100|133:136,1,80.499997543335,2|0,0:0|3:0,0:0:0:0:
321,0,88194,5,0,3:0:0:0:
21,52,88369,2,0,P|40:104|144:120,1,160.99999508667,2|0,0:0|3:0,0:0:0:0:
265,176,88896,5,2,3:2:0:0:
343,189,89071,1,2,0:0:0:0:
158,276,89247,5,2,0:0:0:0:
80,289,89422,1,2,0:0:0:0:
362,356,89598,6,0,B|387:252|387:252|368:215|368:215|396:107,1,241.499992630005,6|0,3:2|0:0,0:0:0:0:
470,10,89948,6,0,P|418:86|282:32,1,241.499992630005,6|0,3:2|0:0,0:0:0:0:
84,36,90299,6,0,B|253:-13|253:-13|209:11|209:67,1,241.499992630005,6|0,3:2|0:0,0:0:0:0:
265,176,90650,6,0,P|282:117|178:156,1,241.499992630005,6|0,3:2|0:0,0:0:0:0:
274,261,91001,5,6,3:2:0:0:
77,225,91176,1,2,0:0:0:0:
72,212,91264,1,2,0:0:0:0:
102,183,91352,2,0,P|174:198|204:269,1,115,2|2,3:2|0:0,0:0:0:0:
260,384,91703,5,2,3:2:0:0:
345,208,91878,1,2,0:0:0:0:
134,286,92054,5,2,3:2:0:0:
356,358,92229,1,2,0:0:0:0:
363,128,92405,6,0,P|291:143|261:214,1,115,2|2,3:2|0:0,0:0:0:0:
405,285,92668,1,2,0:0:0:0:
425,268,92755,2,0,L|457:79,1,172.5,2|0,3:2|0:0,0:0:0:0:
283,0,93106,5,2,3:2:0:0:
13,179,93457,1,2,3:2:0:0:
306,336,93808,1,10,0:0:0:0:
51,102,95387,6,0,P|70:82|118:136,1,115,2|0,3:2|0:0,0:0:0:0:
239,278,95562,2,0,P|258:298|306:244,1,115,2|0,3:2|0:0,0:0:0:0:
424,103,95738,5,2,3:2:0:0:
199,152,96089,6,0,P|195:181|187:221,2,57.5
449,24,96615,6,0,B|388:0|338:47|363:63|306:118|234:80,1,224.24998973465,6|0,3:2|0:0,0:0:0:0:
68,97,96966,2,0,B|93:16|207:23|207:23|164:48|167:113,1,224.24998973465,10|0,0:0|0:0,0:0:0:0:
199,152,97317,1,2,3:2:0:0:
0,282,97492,2,0,P|51:282|111:352,1,126.500003860474,2|8,0:0|0:0,0:0:0:0:
382,384,97843,6,0,P|399:318|443:255,1,126.500003860474,2|0,0:0|3:0,0:0:0:0:
249,86,98194,2,0,P|281:139|296:200,1,126.500003860474,2|8,0:0|0:0,0:0:0:0:
169,384,98545,6,0,B|202:323|272:325|272:325|275:362|315:390,1,189.750005790711,2|0,0:0|0:0,0:0:0:0:
382,384,98896,1,2,0:0:0:0:
236,252,99071,1,10,0:0:0:0:
422,179,99247,1,2,0:0:0:0:
350,312,99422,5,0,3:0:0:0:
184,137,99598,2,0,B|193:81|193:81|206:68|206:68|215:-9,2,126.500003860474,2|10|2,0:0|0:0|0:0,0:0:0:0:
353,293,100124,5,2,3:2:0:0:
466,109,100299,2,0,P|390:100|343:151,1,126.500003860474,2|8,0:0|0:0,0:0:0:0:
155,383,100650,6,0,L|126:171,1,189.750005790711,2|0,0:0|0:0,0:0:0:0:
184,137,101001,1,2,0:0:0:0:
10,242,101176,1,10,0:0:0:0:
279,260,101352,2,0,P|209:264|165:321,1,126.500003860474,2|0,0:0|3:0,0:0:0:0:
48,54,101703,6,0,L|57:4,2,42.1666679534912,2|2|2,0:0|0:0|0:0,0:0:0:0:
29,145,101878,1,10,0:0:0:0:
211,16,102054,1,2,0:0:0:0:
356,287,102229,6,0,B|506:253|506:253|475:212|427:243,1,224.24998973465,2|0,3:2|0:0,0:0:0:0:
303,66,102580,2,0,B|335:205|335:205|285:221|275:274,1,224.24998973465,10|0,0:0|0:0,0:0:0:0:
316,383,102931,1,2,3:2:0:0:
132,127,103106,2,0,P|187:126|241:190,1,126.500003860474,2|8,0:0|0:0,0:0:0:0:
440,363,103457,6,0,L|282:388,1,126.500003860474,2|0,0:0|3:0,0:0:0:0:
35,189,103808,2,0,L|193:214,1,126.500003860474,2|8,0:0|0:0,0:0:0:0:
473,101,104159,6,0,P|370:90|302:183,1,189.750005790711,2|0,0:0|0:0,0:0:0:0:
236,173,104510,1,2,0:0:0:0:
137,36,104685,1,10,0:0:0:0:
312,145,104861,1,2,0:0:0:0:
112,282,105036,5,0,3:0:0:0:
235,69,105212,5,2,0:0:0:0:
359,259,105387,1,10,0:0:0:0:
135,126,105562,1,2,0:0:0:0:
197,371,105738,5,2,3:2:0:0:
332,54,105913,1,2,0:0:0:0:
416,319,106089,6,0,P|445:281|427:241,2,76.6666666666667,2|2|2,0:0|0:0|0:0,0:0:0:0:
359,259,106264,6,0,B|290:233|234:285|262:303|198:365|117:322,1,258.75000987053,2|0,3:2|0:0,0:0:0:0:
29,377,106615,6,0,P|18:333|56:291,1,86.2500032901765,2|0,3:2|0:0,0:0:0:0:
229,162,106791,2,0,P|249:201|286:258,1,86.2500032901765,2|0,3:2|0:0,0:0:0:0:
0,303,106966,6,0,P|19:262|75:254,1,86.2500032901765,2|0,3:2|0:0,0:0:0:0:
313,159,107141,2,0,P|352:175|417:195,1,86.2500032901765,2|0,3:2|0:0,0:0:0:0:
76,19,107317,6,0,B|44:26|44:26|38:33|38:33|-2:42,2,76.6666666666667,2|2|2,0:0|0:0|0:0,0:0:0:0:
163,70,107492,6,0,L|123:367,1,258.75000987053,2|0,3:2|0:0,0:0:0:0:
320,349,107843,6,0,P|260:355|207:382,1,115,10|0,3:2|0:0,0:0:0:0:
331,72,108194,2,0,P|382:96|439:101,1,115,10|0,3:2|0:0,0:0:0:0:
305,337,108545,6,0,P|245:343|192:370,1,115,10|0,3:2|0:0,0:0:0:0:
348,57,108720,2,0,P|399:81|524:69,1,172.5,10|0,3:2|0:0,0:0:0:0:
421,0,109071,6,0,B|359:-18|313:32|339:46|287:106|212:74,1,224.24998973465,14|0,3:2|0:0,0:0:0:0:
165,28,109422,1,2,0:0:0:0:
317,177,109598,1,10,0:0:0:0:
249,2,109773,1,2,0:0:0:0:
118,152,109948,5,2,3:2:0:0:
348,57,110124,1,2,0:0:0:0:
82,0,110299,1,10,0:0:0:0:
190,212,110475,1,2,0:0:0:0:
0,262,110650,6,0,P|49:255|112:336,1,126.500003860474,2|0,3:2|0:0,0:0:0:0:
309,377,111001,2,0,P|370:380|415:338,1,126.500003860474,10|0,0:0|0:0,0:0:0:0:
297,147,111352,1,2,3:2:0:0:
217,334,111527,2,0,P|207:261|181:194,1,126.500003860474,2|8,0:0|0:0,0:0:0:0:
431,79,111878,2,0,P|399:173|387:271,1,189.750005790711,2|0,0:0|0:0,0:0:0:0:
415,337,112229,5,2,0:0:0:0:
278,227,112405,1,10,0:0:0:0:
492,168,112580,1,2,0:0:0:0:
316,65,112755,5,2,3:2:0:0:
388,262,112931,1,2,0:0:0:0:
419,0,113106,1,10,0:0:0:0:
192,133,113282,1,2,0:0:0:0:
464,294,113457,6,0,P|402:307|342:340,1,115,10|0,3:2|0:0,0:0:0:0:
125,24,113808,2,0,P|176:48|232:59,1,115,10|0,3:2|0:0,0:0:0:0:
453,313,114159,6,0,P|391:326|331:359,1,115,10|0,3:2|0:0,0:0:0:0:
137,50,114334,2,0,P|190:73|333:88,1,172.5,10|0,3:2|0:0,0:0:0:0:
338,0,114685,6,0,B|322:68|358:113|358:113|426:120|445:204,1,224.24998973465,14|0,3:2|0:0,0:0:0:0:
356,197,115036,5,2,0:0:0:0:
476,60,115212,1,10,0:0:0:0:
258,14,115387,1,2,0:0:0:0:
403,100,115562,5,2,3:2:0:0:
253,215,115738,1,2,0:0:0:0:
338,0,115913,1,10,0:0:0:0:
509,139,116089,1,2,0:0:0:0:
302,90,116264,5,0,3:0:0:0:
386,289,116440,2,0,P|402:227|453:154,2,126.500003860474,2|10|2,0:0|0:0|0:0,0:0:0:0:
88,377,116966,5,2,3:2:0:0:
305,278,117141,1,2,0:0:0:0:
124,103,117317,1,10,0:0:0:0:
207,370,117492,1,2,3:2:0:0:
234,17,117843,6,0,P|212:55|217:100,1,92,10|0,3:2|0:0,0:0:0:0:
420,227,118018,2,0,P|398:187|356:169,1,92,10|0,3:2|0:0,0:0:0:0:
136,295,118194,2,0,P|181:294|217:267,1,92,10|0,3:2|0:0,0:0:0:0:
263,181,118369,5,10,3:2:0:0:
30,0,118720,6,0,B|107:15|107:15|119:73|79:107|73:101|12:136|46:207,1,276,10|0,3:2|0:0,0:0:0:0:
116,221,119071,6,0,P|40:229|-2:283,1,126.500003860474,6|0,3:2|0:0,0:0:0:0:
220,365,119422,2,0,P|234:276|274:151,1,189.750005790711,10|0,0:0|0:0,0:0:0:0:
313,122,119773,1,2,3:2:0:0:
77,97,119948,2,0,L|224:134,1,126.500003860474,2|8,0:0|0:0,0:0:0:0:
455,170,120299,6,0,P|388:178|333:226,1,126.500003860474,2|0,0:0|3:0,0:0:0:0:
150,0,120650,2,0,P|197:41|258:52,1,126.500003860474,2|8,0:0|0:0,0:0:0:0:
464,255,121001,6,0,P|477:171|519:54,1,189.750005790711,2|0,0:0|0:0,0:0:0:0:
438,18,121352,1,2,0:0:0:0:
313,122,121527,1,10,0:0:0:0:
455,170,121703,1,2,0:0:0:0:
280,282,121878,6,0,P|208:261|142:256,1,126.500003860474,2|0,3:2|0:0,0:0:0:0:
0,84,122229,2,0,P|62:76|123:58,1,126.500003860474,10|0,0:0|0:0,0:0:0:0:
244,137,122580,1,0,3:0:0:0:
106,325,122755,2,0,P|68:260|95:195,1,126.500003860474,2|8,0:0|0:0,0:0:0:0:
344,238,123106,6,0,P|328:292|310:383,1,126.500003860474,2|0,0:0|3:0,0:0:0:0:
153,180,123457,2,0,P|140:118|122:57,1,126.500003860474,2|8,0:0|0:0,0:0:0:0:
243,313,123808,6,0,P|344:277|464:272,1,189.750005790711,2|0,0:0|0:0,0:0:0:0:
484,322,124159,1,2,0:0:0:0:
512,132,124334,2,0,P|439:135|404:200,1,126.500003860474,8|0,0:0|0:0,0:0:0:0:
242,1,124685,6,0,L|384:26,1,126.500003860474,2|0,3:2|0:0,0:0:0:0:
261,205,125036,2,0,P|189:189|166:119,1,126.500003860474,10|0,0:0|0:0,0:0:0:0:
349,98,125387,1,2,3:2:0:0:
87,168,125562,2,0,P|64:98|113:43,1,126.500003860474,2|8,0:0|0:0,0:0:0:0:
347,226,125913,6,0,P|316:308|302:374,1,126.500003860474,2|0,0:0|3:0,0:0:0:0:
42,291,126264,2,0,P|25:229|1:171,1,126.500003860474,2|8,0:0|0:0,0:0:0:0:
266,106,126615,6,0,P|305:170|426:156,1,189.750005790711,2|0,0:0|0:0,0:0:0:0:
452,99,126966,1,2,0:0:0:0:
512,261,127141,1,10,0:0:0:0:
347,226,127317,1,2,0:0:0:0:
512,163,127492,5,0,3:0:0:0:
386,20,127668,5,2,0:0:0:0:
223,215,127843,1,10,0:0:0:0:
410,169,128019,1,2,0:0:0:0:
297,0,128194,1,2,3:2:0:0:
156,267,128369,1,2,0:0:0:0:
43,91,128545,6,0,L|-22:105,2,42.1666679534912,2|2|2,0:0|0:0|0:0,0:0:0:0:
94,32,128720,6,0,B|144:-9|211:53|186:72|239:122|308:87,1,241.499992630005,2|0,3:2|0:0,0:0:0:0:
297,0,129071,2,0,B|219:-9|186:56|217:65|175:147|91:122,1,241.499992630005,2|0,3:2|0:0,0:0:0:0:
33,220,129422,6,0,P|110:205|237:328,1,241.499992630005,2|0,3:2|0:0,0:0:0:0:
197,384,129773,5,10,0:0:0:0:
456,261,129948,1,10,0:0:0:0:
202,106,130124,1,10,0:0:0:0:
386,359,130299,6,0,P|404:266|429:165,1,195.5,2|0,0:0|3:0,0:0:0:0:
