osu file format v14

[General]
AudioFilename: audio.mp3
AudioLeadIn: 0
PreviewTime: -1
Countdown: 1
SampleSet: Normal
StackLeniency: 0.7
Mode: 0
LetterboxInBreaks: 0
WidescreenStoryboard: 0

[Editor]
DistanceSpacing: 1.2
BeatDivisor: 4
GridSize: 4
TimelineZoom: 2.1

[Metadata]
Title:Me & U
TitleUnicode:Me & U
Artist:Succducc
ArtistUnicode:Succducc
Creator:DeZpair
Version:Insane
Source:
Tags:Future bass
BeatmapID:1440695
BeatmapSetID:681386

[Difficulty]
HPDrainRate:5
CircleSize:4
OverallDifficulty:8
ApproachRate:9.4
SliderMultiplier:1.4
SliderTickRate:1

[Events]
//Background and Video events
0,0,"maxresdefault.jpg",0,0
//Break Periods
2,60294,62554
2,63294,65554
2,66294,68554
2,69294,71554
//Storyboard Layer 0 (Background)
//Storyboard Layer 1 (Fail)
//Storyboard Layer 2 (Pass)
//Storyboard Layer 3 (Foreground)
//Storyboard Sound Samples

[TimingPoints]
9094,750,4,1,0,100,1,0
10594,375,4,1,0,100,1,0
23906,-66.6666666666667,4,1,0,100,0,0
24375,-100,4,1,0,100,0,0
84093,-66.6666666666667,4,1,0,100,0,0
84656,-100,4,1,0,100,0,0
94594,-66.6666666666667,4,1,0,100,0,0
96187,-100,4,1,0,100,0,0
98719,-100,4,1,0,100,0,0
99094,-66.6666666666667,4,1,0,100,0,0
168094,750,4,1,0,100,1,0
186089,-66.6666666666667,4,1,0,100,0,0

[HitObjects]
64,192,9094,6,0,P|56:144|104:108,1,105
64,192,9844,2,0,P|56:240|104:276,1,105
368,96,10594,2,0,L|456:96,1,70
448,132,10969,2,0,L|368:132,1,70
360,172,11344,2,0,L|444:172,1,70
440,212,11719,2,0,L|360:212,1,70
256,208,12094,2,0,P|152:148|148:108,1,140
76,88,12656,5,0,0:0:0:0:
76,88,12844,1,0,0:0:0:0:
28,208,13031,1,0,0:0:0:0:
196,184,13219,1,0,0:0:0:0:
76,88,13406,2,0,P|128:52|156:52,1,70
340,36,13781,1,0,0:0:0:0:
208,136,13969,1,0,0:0:0:0:
396,120,14156,1,0,0:0:0:0:
284,228,14344,5,0,0:0:0:0:
168,296,14531,1,0,0:0:0:0:
284,228,14719,1,0,0:0:0:0:
128,176,14906,2,0,P|168:128|200:116,1,70
200,112,15281,1,0,0:0:0:0:
308,32,15469,1,0,0:0:0:0:
416,116,15656,1,0,0:0:0:0:
416,116,15844,1,0,0:0:0:0:
240,196,16031,5,0,0:0:0:0:
184,104,16219,1,0,0:0:0:0:
360,168,16406,2,0,P|336:216|304:224,1,70
188,112,16781,2,0,L|108:112,1,70
112,152,17156,2,0,L|200:152,1,70
160,220,17531,6,0,P|132:264|152:280,1,70
240,272,17906,2,0,L|316:272,1,70
404,256,18469,1,0,0:0:0:0:
404,100,18844,1,0,0:0:0:0:
248,96,19219,1,0,0:0:0:0:
244,252,19594,1,0,0:0:0:0:
348,160,19969,1,0,0:0:0:0:
264,64,20344,1,0,0:0:0:0:
160,164,20719,5,0,0:0:0:0:
468,184,21094,1,0,0:0:0:0:
320,244,21281,1,0,0:0:0:0:
384,72,21469,1,0,0:0:0:0:
260,176,21656,1,0,0:0:0:0:
280,68,21844,1,0,0:0:0:0:
260,68,22031,1,0,0:0:0:0:
240,68,22219,1,0,0:0:0:0:
216,68,22406,1,0,0:0:0:0:
140,112,22594,1,0,0:0:0:0:
140,136,22687,1,0,0:0:0:0:
140,156,22781,1,0,0:0:0:0:
140,176,22875,1,0,0:0:0:0:
172,200,22969,1,0,0:0:0:0:
172,224,23062,1,0,0:0:0:0:
172,248,23156,1,0,0:0:0:0:
172,272,23250,1,0,0:0:0:0:
212,296,23344,1,0,0:0:0:0:
248,296,23437,1,0,0:0:0:0:
280,296,23531,1,0,0:0:0:0:
332,288,23625,1,0,0:0:0:0:
332,264,23719,1,0,0:0:0:0:
332,240,23812,1,0,0:0:0:0:
328,212,23906,2,0,P|296:152|240:148,1,105.000004005432
168,104,24469,6,0,L|120:144,1,35
184,128,24656,2,0,L|136:168,1,35
32,200,24844,1,0,0:0:0:0:
152,336,25031,2,0,L|232:336,1,70
256,308,25406,1,0,0:0:0:0:
256,116,25594,2,0,L|184:116,1,70
64,168,25969,5,0,0:0:0:0:
212,268,26156,2,0,L|252:300,1,35
204,296,26344,2,0,L|264:344,1,70
304,248,26719,2,0,L|364:248,2,35
488,192,27094,1,0,0:0:0:0:
344,96,27469,2,0,L|308:96,1,35
336,128,27656,2,0,L|284:128,1,35
328,160,27844,2,0,L|248:160,1,70
252,200,28219,5,0,0:0:0:0:
236,176,28312,1,0,0:0:0:0:
216,156,28406,1,0,0:0:0:0:
196,136,28500,1,0,0:0:0:0:
176,120,28594,2,0,L|100:120,1,70
76,192,28969,2,0,L|48:224,1,35
88,224,29156,2,0,L|52:256,1,35
104,248,29344,1,0,0:0:0:0:
192,312,29531,6,0,L|252:312,1,35
220,284,29719,2,0,L|268:284,1,35
248,264,29906,2,0,L|292:264,1,35
304,264,30094,2,0,L|388:264,1,70
412,96,30469,1,0,0:0:0:0:
392,96,30562,1,0,0:0:0:0:
376,96,30656,1,0,0:0:0:0:
356,96,30750,1,0,0:0:0:0:
336,96,30844,5,0,0:0:0:0:
164,92,31031,2,0,P|128:136|128:156,1,70
256,200,31406,1,0,0:0:0:0:
256,200,31500,1,0,0:0:0:0:
256,200,31594,1,0,0:0:0:0:
400,208,31781,2,0,P|464:192|468:176,1,70
404,116,32156,1,0,0:0:0:0:
404,116,32250,1,0,0:0:0:0:
404,116,32344,5,0,0:0:0:0:
248,212,32531,2,0,L|212:212,1,35
240,248,32719,2,0,L|188:248,1,35
236,292,32906,2,0,L|172:292,1,46.6666666666667
80,288,33281,1,0,0:0:0:0:
80,288,33375,1,0,0:0:0:0:
80,288,33469,1,0,0:0:0:0:
76,128,33656,2,0,L|140:84,1,70
216,96,34031,5,0,0:0:0:0:
216,96,34125,1,0,0:0:0:0:
216,96,34219,2,0,P|244:124|268:104,1,70
292,92,34594,1,0,0:0:0:0:
448,96,34781,2,0,L|396:96,1,35
396,136,34969,2,0,L|464:136,1,35
444,168,35156,2,0,L|396:168,1,35
312,244,35344,2,0,P|372:264|372:280,1,70
352,300,35719,6,0,P|308:260|312:256,1,70
328,200,36094,1,0,0:0:0:0:
328,200,36187,1,0,0:0:0:0:
328,200,36281,1,0,0:0:0:0:
300,104,36469,2,0,L|236:104,3,35
296,152,36844,2,0,P|232:152|196:212,1,140
256,236,37406,2,0,L|292:236,1,35
424,112,37594,2,0,L|460:112,1,35
440,256,37781,2,0,L|396:256,1,35
240,176,37969,5,0,0:0:0:0:
120,184,38156,1,0,0:0:0:0:
236,304,38344,2,0,L|284:304,1,35
360,192,38531,2,0,L|312:192,1,35
244,104,38719,1,0,0:0:0:0:
220,108,38812,1,0,0:0:0:0:
196,120,38906,1,0,0:0:0:0:
180,136,39000,1,0,0:0:0:0:
168,156,39094,1,0,0:0:0:0:
184,232,39281,6,0,L|252:232,1,35
232,280,39469,2,0,L|168:280,2,35
100,280,39844,1,0,0:0:0:0:
100,280,40031,1,0,0:0:0:0:
100,280,40125,1,0,0:0:0:0:
100,280,40219,2,0,P|104:232|124:232,1,70
248,228,40594,1,0,0:0:0:0:
380,236,40781,2,0,P|436:200|452:176,1,70
396,96,41156,1,0,0:0:0:0:
396,96,41250,5,0,0:0:0:0:
396,96,41344,1,0,0:0:0:0:
212,80,41531,2,0,L|272:80,1,35
252,120,41719,2,0,L|212:120,1,35
212,164,41906,2,0,L|264:164,1,35
312,168,42094,1,0,0:0:0:0:
428,288,42281,2,0,L|392:288,1,35
240,288,42469,2,0,L|200:288,1,35
152,204,42656,6,0,L|112:168,1,35
172,168,42844,2,0,L|128:132,3,35
108,140,43219,1,0,0:0:0:0:
132,112,43313,1,0,0:0:0:0:
164,80,43406,1,0,0:0:0:0:
192,60,43500,1,0,0:0:0:0:
224,48,43594,2,0,P|296:56|336:116,1,140
328,244,44156,1,0,0:0:0:0:
168,140,44344,5,0,0:0:0:0:
332,80,44531,2,0,L|376:80,1,35
276,184,44719,2,0,L|216:184,1,35
152,280,44906,2,0,L|200:280,1,35
104,164,45094,2,0,L|140:124,1,35
400,152,45281,2,0,L|376:188,1,35
264,304,45469,2,0,L|220:272,1,35
240,48,45656,2,0,L|280:80,1,35
416,192,45844,6,0,L|376:192,1,35
256,340,46031,2,0,L|256:296,1,35
96,192,46219,2,0,L|148:192,1,35
256,48,46406,2,0,L|256:88,1,35
376,116,46594,2,0,L|352:148,1,35
400,144,46781,2,0,L|376:176,1,35
420,172,46969,2,0,L|388:208,3,35
256,292,47344,1,0,0:0:0:0:
100,92,47531,5,0,0:0:0:0:
308,132,47719,1,0,0:0:0:0:
104,192,47906,1,0,0:0:0:0:
324,232,48094,2,0,P|368:184|348:112,1,140
176,120,48656,1,0,0:0:0:0:
172,280,48844,1,0,0:0:0:0:
180,120,49031,1,0,0:0:0:0:
72,196,49219,1,0,0:0:0:0:
72,196,49312,2,0,P|112:124|116:120,1,70
256,68,49781,5,0,0:0:0:0:
256,68,49969,2,0,P|336:100|380:156,1,140
328,260,50531,1,0,0:0:0:0:
168,284,50719,2,0,P|108:236|124:152,1,140
248,68,51281,1,0,0:0:0:0:
420,192,51469,1,0,0:0:0:0:
256,312,51656,1,0,0:0:0:0:
256,312,51750,1,0,0:0:0:0:
140,308,52031,5,0,0:0:0:0:
140,308,52219,1,0,0:0:0:0:
76,224,52406,2,0,P|88:172|128:148,1,70
328,164,52781,2,0,P|328:112|356:120,1,70
348,108,53156,2,0,P|400:148|400:172,1,70
400,160,53531,2,0,P|364:184|320:160,1,70
188,280,54094,1,0,0:0:0:0:
88,184,54469,5,0,0:0:0:0:
88,184,54562,1,0,0:0:0:0:
252,80,54844,2,0,L|328:80,1,70
376,220,55219,1,0,0:0:0:0:
376,220,55312,1,0,0:0:0:0:
204,288,55594,1,0,0:0:0:0:
212,140,55781,5,0,0:0:0:0:
212,140,55875,1,0,0:0:0:0:
212,140,55969,1,0,0:0:0:0:
384,200,56156,1,0,0:0:0:0:
252,292,56344,1,0,0:0:0:0:
252,292,56437,1,0,0:0:0:0:
320,152,56719,1,0,0:0:0:0:
160,80,56906,5,0,0:0:0:0:
300,92,57094,2,0,P|348:100|364:140,1,70
356,232,57469,2,0,P|324:272|280:268,1,70
224,228,57844,2,0,P|256:268|300:264,1,70
356,232,58219,2,0,P|324:272|280:268,1,70
224,228,58594,2,0,P|256:268|300:264,1,70
296,276,58969,1,0,0:0:0:0:
396,192,59156,1,0,0:0:0:0:
252,64,59344,5,0,0:0:0:0:
132,192,59531,2,0,L|132:268,1,70
256,192,59906,1,0,0:0:0:0:
256,192,60094,1,0,0:0:0:0:
256,192,63094,5,0,0:0:0:0:
256,192,66094,5,0,0:0:0:0:
256,192,69094,5,0,0:0:0:0:
212,192,72094,5,0,0:0:0:0:
212,216,72187,1,0,0:0:0:0:
212,248,72281,1,0,0:0:0:0:
212,276,72375,1,0,0:0:0:0:
256,300,72469,1,0,0:0:0:0:
296,300,72562,1,0,0:0:0:0:
332,300,72656,1,0,0:0:0:0:
368,300,72750,1,0,0:0:0:0:
412,268,72844,5,0,0:0:0:0:
412,244,72937,1,0,0:0:0:0:
408,216,73031,1,0,0:0:0:0:
408,188,73125,1,0,0:0:0:0:
388,160,73219,1,0,0:0:0:0:
388,144,73312,1,0,0:0:0:0:
388,128,73406,1,0,0:0:0:0:
388,116,73500,1,0,0:0:0:0:
388,96,73594,1,0,0:0:0:0:
372,56,73687,1,0,0:0:0:0:
328,52,73781,1,0,0:0:0:0:
284,52,73875,1,0,0:0:0:0:
244,52,73969,1,0,0:0:0:0:
208,52,74062,1,0,0:0:0:0:
184,120,74156,1,0,0:0:0:0:
184,148,74250,1,0,0:0:0:0:
184,184,74344,1,0,0:0:0:0:
184,208,74437,1,0,0:0:0:0:
184,240,74531,1,0,0:0:0:0:
184,268,74625,1,0,0:0:0:0:
184,300,74719,1,0,0:0:0:0:
368,296,75094,5,0,0:0:0:0:
388,280,75187,1,0,0:0:0:0:
408,248,75281,1,0,0:0:0:0:
412,216,75375,1,0,0:0:0:0:
412,192,75469,1,0,0:0:0:0:
416,152,75562,1,0,0:0:0:0:
372,152,75656,1,0,0:0:0:0:
324,152,75750,1,0,0:0:0:0:
296,160,75844,1,0,0:0:0:0:
296,180,75937,1,0,0:0:0:0:
296,204,76031,1,0,0:0:0:0:
296,232,76125,1,0,0:0:0:0:
216,232,76219,1,0,0:0:0:0:
216,200,76312,1,0,0:0:0:0:
216,168,76406,1,0,0:0:0:0:
176,88,76594,5,0,0:0:0:0:
200,88,76687,1,0,0:0:0:0:
224,88,76781,1,0,0:0:0:0:
252,88,76875,1,0,0:0:0:0:
260,124,76969,1,0,0:0:0:0:
288,124,77062,1,0,0:0:0:0:
316,124,77156,1,0,0:0:0:0:
344,124,77250,1,0,0:0:0:0:
372,124,77344,1,0,0:0:0:0:
408,160,77437,1,0,0:0:0:0:
408,188,77531,1,0,0:0:0:0:
408,220,77625,1,0,0:0:0:0:
404,256,77719,1,0,0:0:0:0:
404,288,77812,1,0,0:0:0:0:
404,312,77906,1,0,0:0:0:0:
300,288,78094,6,0,L|260:288,1,35
156,184,78281,2,0,L|196:184,1,35
300,136,78469,2,0,L|260:136,2,35
336,140,78750,1,0,0:0:0:0:
352,164,78844,1,0,0:0:0:0:
356,192,78937,1,0,0:0:0:0:
340,216,79031,1,0,0:0:0:0:
308,228,79125,1,0,0:0:0:0:
276,212,79219,1,0,0:0:0:0:
264,184,79312,5,0,0:0:0:0:
272,152,79406,1,0,0:0:0:0:
296,144,79500,1,0,0:0:0:0:
328,152,79594,1,0,0:0:0:0:
340,180,79687,1,0,0:0:0:0:
324,204,79781,1,0,0:0:0:0:
176,208,79969,1,0,0:0:0:0:
144,300,80156,5,0,0:0:0:0:
264,308,80344,6,0,L|312:308,1,35
272,328,80531,2,0,L|312:328,1,35
384,244,80719,2,0,L|344:244,1,35
396,208,80906,2,0,L|356:208,1,35
256,92,81281,1,0,0:0:0:0:
144,192,81469,1,0,0:0:0:0:
252,300,81656,1,0,0:0:0:0:
416,304,81844,6,0,L|372:304,1,35
332,304,82031,2,0,L|380:304,1,35
416,300,82219,2,0,L|376:300,1,35
332,304,82406,2,0,L|384:304,1,35
408,248,82594,1,0,0:0:0:0:
408,248,82781,1,0,0:0:0:0:
408,248,82969,1,0,0:0:0:0:
408,248,83156,1,0,0:0:0:0:
132,244,83344,5,0,0:0:0:0:
256,172,83531,1,0,0:0:0:0:
124,100,83719,1,0,0:0:0:0:
252,100,83906,1,0,0:0:0:0:
120,194,84094,2,0,B|204:152|232:252|268:160|336:196,1,210.000008010865
380,188,84656,1,0,0:0:0:0:
260,80,84844,1,0,0:0:0:0:
380,188,85031,1,0,0:0:0:0:
236,260,85219,1,0,0:0:0:0:
236,260,85406,6,0,P|196:216|208:188,1,70
256,120,85781,2,0,P|304:144|304:180,1,70,0|0,0:3|0:3,0:3:0:0:
312,256,86156,1,0,0:0:0:0:
152,264,86344,2,0,P|132:224|136:200,1,70
392,204,86719,2,0,P|412:244|408:268,1,70
280,312,87094,2,0,P|228:252|232:172,1,140
156,68,87656,1,0,0:0:0:0:
156,68,87750,1,0,0:0:0:0:
156,68,87844,1,0,0:0:0:0:
292,60,88031,2,0,L|384:72,1,70
420,148,88406,5,0,0:0:0:0:
364,248,88594,2,0,P|340:316|272:320,1,140
112,220,89156,1,0,0:0:0:0:
216,96,89344,1,0,0:0:0:0:
344,192,89531,2,0,P|356:236|328:252,1,70
224,312,89906,1,0,0:0:0:0:
96,200,90094,1,0,0:0:0:0:
192,64,90469,1,0,0:0:0:0:
284,200,90844,1,0,0:0:0:0:
396,72,91219,5,0,0:0:0:0:
396,200,91594,1,0,0:0:0:0:
256,72,91969,1,0,0:0:0:0:
128,196,92344,1,0,0:0:0:0:
260,64,92719,1,0,0:0:0:0:
260,64,92906,1,0,0:0:0:0:
260,64,92999,1,0,0:0:0:0:
260,64,93093,1,0,0:0:0:0:
400,200,93469,5,0,0:0:0:0:
168,128,93844,1,0,0:0:0:0:
248,296,94219,1,0,0:0:0:0:
340,196,94406,1,0,0:0:0:0:
152,192,94594,2,0,P|120:212|160:248,1,105.000004005432
364,260,94969,2,0,L|432:260,1,52.5000020027161
376,232,95156,2,0,L|436:232,1,52.5000020027161
384,204,95344,2,0,L|448:204,1,52.5000020027161
384,176,95531,2,0,L|264:176,1,105.000004005432
196,184,96094,5,0,0:0:0:0:
160,112,96281,2,0,L|128:72,1,35
172,72,96469,2,0,L|204:112,2,35
256,192,96844,1,0,0:0:0:0:
416,192,97031,1,0,0:0:0:0:
256,192,97219,1,0,0:0:0:0:
152,268,97406,1,0,0:0:0:0:
152,268,97500,1,0,0:0:0:0:
152,268,97594,2,0,P|112:224|112:200,1,70
128,136,97969,5,0,0:0:0:0:
160,136,98062,1,0,0:0:0:0:
192,136,98156,1,0,0:0:0:0:
232,136,98250,1,0,0:0:0:0:
360,136,98531,1,0,0:0:0:0:
312,256,98719,1,0,0:0:0:0:
164,192,98906,1,0,0:0:0:0:
228,60,99094,2,0,L|348:60,1,105.000004005432
260,112,99469,2,0,L|388:112,1,105.000004005432
296,160,99844,2,0,L|408:160,2,105.000004005432
200,160,100406,5,0,0:0:0:0:
112,268,100594,1,0,0:0:0:0:
112,268,100687,1,0,0:0:0:0:
112,268,100781,1,0,0:0:0:0:
252,320,100969,1,0,0:0:0:0:
360,236,101156,2,0,L|308:236,1,52.5000020027161
252,320,101344,1,0,0:0:0:0:
360,240,101531,2,0,L|296:240,1,52.5000020027161
264,240,101719,5,0,0:0:0:0:
160,188,101906,1,0,0:0:0:0:
248,76,102094,1,0,0:0:0:0:
248,76,102281,2,0,L|312:76,1,52.5000020027161
264,116,102469,2,0,L|320:116,1,52.5000020027161
280,152,102656,2,0,L|332:152,1,52.5000020027161
296,192,102844,2,0,L|368:192,1,52.5000020027161
384,196,103031,1,0,0:0:0:0:
384,196,103219,5,0,0:0:0:0:
192,308,103406,2,0,L|144:272,1,52.5000020027161
200,272,103594,2,0,L|140:232,1,52.5000020027161
216,240,103781,2,0,L|156:200,1,52.5000020027161
144,192,103969,1,0,0:0:0:0:
144,192,104156,1,0,0:0:0:0:
200,52,104344,2,0,L|200:104,1,52.5000020027161
240,80,104531,2,0,L|240:140,1,52.5000020027161
280,100,104719,2,0,L|280:212,1,105.000004005432
276,304,105094,5,0,0:0:0:0:
276,304,105187,1,0,0:0:0:0:
276,304,105281,1,0,0:0:0:0:
152,308,105469,2,0,L|236:320,1,52.5000020027161
168,280,105656,2,0,L|236:296,1,52.5000020027161
180,252,105844,2,0,L|240:268,2,52.5000020027161
104,192,106219,1,0,0:0:0:0:
116,168,106312,1,0,0:0:0:0:
136,136,106406,2,0,P|164:116|204:112,4,52.5000020027161
336,96,106969,6,0,L|304:148,1,52.5000020027161
336,252,107156,2,0,L|292:200,1,52.5000020027161
192,172,107344,2,0,L|256:172,1,52.5000020027161
380,176,107531,2,0,P|448:228|420:268,1,105.000004005432
256,300,107906,1,0,0:0:0:0:
256,300,108094,2,0,P|208:268|208:224,1,105.000004005432
220,188,108469,2,0,L|280:188,1,52.5000020027161
232,152,108656,2,0,L|296:200,1,52.5000020027161
284,128,108844,2,0,L|284:192,1,52.5000020027161
328,156,109031,2,0,L|264:204,1,52.5000020027161
344,192,109219,6,0,L|284:192,1,52.5000020027161
272,192,109406,1,0,0:0:0:0:
272,192,109500,1,0,0:0:0:0:
272,192,109594,2,0,L|272:124,1,52.5000020027161
128,72,109969,1,0,0:0:0:0:
128,72,110156,1,0,0:0:0:0:
128,72,110250,1,0,0:0:0:0:
128,72,110344,1,0,0:0:0:0:
56,236,110531,5,0,0:0:0:0:
272,284,110719,1,0,0:0:0:0:
304,124,110906,1,0,0:0:0:0:
304,124,111000,1,0,0:0:0:0:
304,124,111094,2,0,P|244:104|208:136,1,105.000004005432
112,192,111469,1,0,0:0:0:0:
236,300,111656,1,0,0:0:0:0:
216,160,111844,1,0,0:0:0:0:
352,216,112031,5,0,0:0:0:0:
164,248,112219,1,0,0:0:0:0:
132,128,112406,2,0,L|192:128,1,52.5000020027161
196,128,112594,2,0,L|260:128,1,52.5000020027161
312,128,112781,2,0,L|224:128,1,52.5000020027161
196,128,112969,2,0,L|272:128,1,52.5000020027161
312,128,113156,2,0,L|244:128,2,52.5000020027161
120,208,113437,2,0,L|168:248,3,52.5000020027161
260,300,113906,5,0,0:0:0:0:
404,192,114094,2,0,P|360:112|324:104,1,105.000004005432
248,72,114469,1,0,0:0:0:0:
296,208,114656,1,0,0:0:0:0:
296,208,114750,1,0,0:0:0:0:
296,208,114844,1,0,0:0:0:0:
120,208,115031,2,0,L|232:208,1,105.000004005432
316,120,115406,2,0,L|188:120,1,105.000004005432
88,120,115781,5,0,0:0:0:0:
192,252,115969,1,0,0:0:0:0:
192,252,116062,1,0,0:0:0:0:
192,252,116156,1,0,0:0:0:0:
256,184,116344,2,0,P|324:200|352:164,1,105.000004005432
400,64,116719,1,0,0:0:0:0:
372,276,116906,1,0,0:0:0:0:
372,276,117000,1,0,0:0:0:0:
372,276,117094,5,0,0:0:0:0:
104,200,117469,1,0,0:0:0:0:
248,72,117844,1,0,0:0:0:0:
104,200,118219,1,0,0:0:0:0:
256,300,118594,1,0,0:0:0:0:
200,52,118781,1,0,0:0:0:0:
424,64,118969,1,0,0:0:0:0:
272,188,119156,1,0,0:0:0:0:
424,64,119344,5,0,0:0:0:0:
272,188,119531,1,0,0:0:0:0:
272,188,119625,1,0,0:0:0:0:
272,188,119719,2,0,P|324:152|356:184,1,105.000004005432
344,260,120094,2,0,P|300:288|264:260,1,105.000004005432
148,88,120469,2,0,L|96:52,1,52.5000020027161
132,112,120656,2,0,L|84:80,1,52.5000020027161
112,140,120844,2,0,L|64:108,4,52.5000020027161
304,272,121594,6,0,L|244:272,1,52.5000020027161
280,308,121781,2,0,L|224:308,1,52.5000020027161
188,308,121969,1,0,0:0:0:0:
80,188,122156,1,0,0:0:0:0:
80,188,122250,1,0,0:0:0:0:
80,188,122344,2,0,L|80:128,1,52.5000020027161
128,176,122531,2,0,L|128:120,1,52.5000020027161
172,160,122719,2,0,L|172:104,2,52.5000020027161
412,60,123094,5,0,0:0:0:0:
368,264,123281,1,0,0:0:0:0:
412,60,123469,2,0,L|356:76,1,52.5000020027161
408,96,123656,2,0,L|344:120,2,52.5000020027161
252,256,124031,2,0,L|252:192,1,52.5000020027161
252,112,124219,2,0,L|252:176,1,52.5000020027161
256,188,124594,1,0,0:0:0:0:
256,188,124688,1,0,0:0:0:0:
256,188,124782,1,0,0:0:0:0:
256,308,124969,5,0,0:0:0:0:
392,224,125156,1,0,0:0:0:0:
392,224,125250,1,0,0:0:0:0:
392,228,125344,2,0,L|372:156,1,52.5000020027161
348,216,125531,2,0,L|332:152,1,52.5000020027161
288,160,125719,2,0,L|304:224,1,52.5000020027161
308,236,125906,1,0,0:0:0:0:
176,296,126094,2,0,L|236:296,1,52.5000020027161
200,124,126281,1,0,0:0:0:0:
416,192,126469,1,0,0:0:0:0:
288,88,126656,2,0,L|280:152,1,52.5000020027161
276,168,126844,1,0,0:0:0:0:
128,280,127031,5,0,0:0:0:0:
128,280,127125,1,0,0:0:0:0:
128,280,127219,2,0,L|196:280,1,52.5000020027161
208,176,127594,1,0,0:0:0:0:
332,64,127781,1,0,0:0:0:0:
368,184,127969,1,0,0:0:0:0:
200,60,128156,1,0,0:0:0:0:
268,232,128344,2,0,L|216:232,1,52.5000020027161
176,232,128531,5,0,0:0:0:0:
360,324,128719,1,0,0:0:0:0:
324,324,128812,1,0,0:0:0:0:
284,324,128906,1,0,0:0:0:0:
252,324,129000,1,0,0:0:0:0:
120,280,129281,2,0,L|132:224,1,52.5000020027161
136,196,129469,1,0,0:0:0:0:
304,100,129656,2,0,L|284:160,1,52.5000020027161
276,180,129844,5,0,0:0:0:0:
272,284,130031,2,0,L|192:284,1,52.5000020027161
260,320,130219,2,0,L|184:320,1,52.5000020027161
168,320,130406,1,0,0:0:0:0:
76,192,130594,2,0,L|96:144,1,52.5000020027161
128,152,130781,2,0,L|104:212,1,52.5000020027161
148,212,130969,2,0,L|168:164,1,52.5000020027161
200,172,131156,2,0,L|176:232,1,52.5000020027161
320,304,131344,2,0,L|360:248,8,52.5000020027161
208,72,132281,6,0,L|168:112,1,52.5000020027161
224,104,132469,2,0,L|176:152,1,52.5000020027161
216,176,132656,2,0,L|264:128,1,52.5000020027161
232,208,132843,2,0,L|272:168,3,52.5000020027161
408,200,133219,1,0,0:0:0:0:
408,200,133312,1,0,0:0:0:0:
408,200,133406,1,0,0:0:0:0:
264,296,133594,1,0,0:0:0:0:
264,296,133781,6,0,L|264:244,2,52.5000020027161
128,212,134156,1,0,0:0:0:0:
128,212,134344,2,0,L|128:296,2,52.5000020027161
172,92,134719,1,0,0:0:0:0:
200,92,134812,1,0,0:0:0:0:
228,92,134906,1,0,0:0:0:0:
256,92,135000,1,0,0:0:0:0:
284,92,135094,2,0,L|368:116,1,52.5000020027161
296,128,135281,2,0,P|360:172|352:216,1,105.000004005432
224,292,135656,5,0,0:0:0:0:
112,168,135844,1,0,0:0:0:0:
112,168,135937,1,0,0:0:0:0:
112,168,136031,1,0,0:0:0:0:
288,88,136219,1,0,0:0:0:0:
328,260,136406,1,0,0:0:0:0:
328,260,136500,1,0,0:0:0:0:
328,260,136594,1,0,0:0:0:0:
152,288,136781,6,0,L|96:240,1,52.5000020027161
160,256,136969,2,0,L|116:220,2,52.5000020027161
136,112,137344,2,0,P|204:80|256:112,1,105.000004005432
264,208,137719,1,0,0:0:0:0:
264,208,137812,1,0,0:0:0:0:
264,208,137906,1,0,0:0:0:0:
116,188,138094,1,0,0:0:0:0:
264,72,138281,2,0,L|320:108,2,52.5000020027161
236,232,138656,5,0,0:0:0:0:
236,232,138750,1,0,0:0:0:0:
236,232,138844,1,0,0:0:0:0:
116,188,139031,1,0,0:0:0:0:
248,80,139219,2,0,P|328:88|344:132,1,105.000004005432
388,212,139594,1,0,0:0:0:0:
388,212,139687,1,0,0:0:0:0:
388,212,139781,1,0,0:0:0:0:
188,272,139969,5,0,0:0:0:0:
264,124,140156,1,0,0:0:0:0:
264,124,140250,1,0,0:0:0:0:
264,124,140344,1,0,0:0:0:0:
312,296,140531,1,0,0:0:0:0:
192,224,140719,2,0,P|144:176|132:164,1,52.5000020027161
84,108,140906,2,0,L|140:168,1,52.5000020027161
140,172,141094,1,0,0:0:0:0:
288,296,141281,6,0,L|368:256,1,52.5000020027161
368,256,141469,1,0,0:0:0:0:
256,128,141656,1,0,0:0:0:0:
132,248,141844,1,0,0:0:0:0:
132,248,141937,1,0,0:0:0:0:
132,248,142031,1,0,0:0:0:0:
268,336,142219,1,0,0:0:0:0:
316,172,142406,5,0,0:0:0:0:
316,172,142500,1,0,0:0:0:0:
316,172,142594,1,0,0:0:0:0:
180,48,142781,1,0,0:0:0:0:
172,224,142969,1,0,0:0:0:0:
172,224,143062,1,0,0:0:0:0:
172,224,143156,1,0,0:0:0:0:
348,280,143344,2,0,L|400:200,2,52.5000020027161
280,120,143719,5,0,0:0:0:0:
280,144,143812,1,0,0:0:0:0:
280,176,143906,1,0,0:0:0:0:
280,204,144000,1,0,0:0:0:0:
252,232,144094,2,0,L|252:308,2,52.5000020027161
108,216,144469,2,0,L|188:216,1,52.5000020027161
108,112,144656,6,0,L|168:112,1,52.5000020027161
224,216,144844,2,0,L|292:216,1,52.5000020027161
224,112,145031,2,0,L|292:112,1,52.5000020027161
332,216,145219,2,0,L|420:216,1,52.5000020027161
336,104,145406,1,0,0:0:0:0:
336,104,145500,1,0,0:0:0:0:
336,104,145594,2,0,L|264:104,1,52.5000020027161
120,120,145781,1,0,0:0:0:0:
232,192,145969,5,0,0:0:0:0:
160,316,146156,1,0,0:0:0:0:
344,148,146344,2,0,L|404:112,1,52.5000020027161
312,104,146531,2,0,L|256:152,1,52.5000020027161
168,208,146719,1,0,0:0:0:0:
168,208,146812,1,0,0:0:0:0:
168,208,146906,1,0,0:0:0:0:
292,300,147094,2,0,L|364:352,1,52.5000020027161
232,104,147281,5,0,0:0:0:0:
232,104,147375,1,0,0:0:0:0:
232,104,147469,1,0,0:0:0:0:
120,88,147656,1,0,0:0:0:0:
180,268,147844,2,0,L|264:224,1,52.5000020027161
296,256,148031,2,0,L|224:296,1,52.5000020027161
228,348,148219,2,0,L|292:312,1,52.5000020027161
348,280,148406,2,0,L|288:316,1,52.5000020027161
228,348,148594,6,0,L|288:316,1,52.5000020027161
348,280,148781,1,0,0:0:0:0:
172,248,148969,1,0,0:0:0:0:
200,96,149156,1,0,0:0:0:0:
88,152,149344,2,0,L|160:164,1,52.5000020027161
92,192,149531,2,0,L|152:208,1,52.5000020027161
144,256,149719,2,0,L|56:232,1,52.5000020027161
144,308,149906,2,0,L|56:280,2,52.5000020027161
304,308,150281,5,0,0:0:0:0:
384,196,150469,1,0,0:0:0:0:
384,196,150562,1,0,0:0:0:0:
384,196,150656,1,0,0:0:0:0:
80,96,150844,2,0,L|140:96,1,52.5000020027161
92,132,151031,2,0,L|156:84,1,52.5000020027161
144,156,151219,2,0,L|144:92,1,52.5000020027161
188,128,151406,2,0,L|124:80,1,52.5000020027161
204,92,151594,6,0,L|144:92,2,52.5000020027161
124,244,151969,2,0,L|192:244,1,52.5000020027161
144,288,152156,2,0,L|208:288,1,52.5000020027161
172,332,152344,2,0,L|248:332,2,52.5000020027161
344,224,152719,1,0,0:0:0:0:
392,76,152906,1,0,0:0:0:0:
200,152,153094,2,0,L|296:152,1,52.5000020027161
304,280,153281,1,0,0:0:0:0:
304,280,153375,1,0,0:0:0:0:
304,280,153469,1,0,0:0:0:0:
148,204,153656,1,0,0:0:0:0:
364,136,153844,2,0,L|324:100,3,52.5000020027161
296,80,154219,5,0,0:0:0:0:
120,104,154406,1,0,0:0:0:0:
188,272,154594,2,0,L|256:316,1,52.5000020027161
300,208,154781,2,0,L|232:164,1,52.5000020027161
264,316,154969,2,0,L|332:360,1,52.5000020027161
376,252,155156,2,0,L|308:208,1,52.5000020027161
300,208,155344,2,0,L|232:164,1,52.5000020027161
188,272,155531,2,0,L|256:316,2,52.5000020027161
132,148,155906,5,0,0:0:0:0:
348,140,156094,1,0,0:0:0:0:
348,140,156187,1,0,0:0:0:0:
348,140,156281,1,0,0:0:0:0:
236,280,156469,1,0,0:0:0:0:
104,256,156656,2,0,L|52:216,1,52.5000020027161
128,220,156844,2,0,L|60:180,1,52.5000020027161
144,176,157031,2,0,L|88:164,2,52.5000020027161
304,160,157406,5,0,0:0:0:0:
208,304,157594,1,0,0:0:0:0:
208,304,157687,1,0,0:0:0:0:
208,304,157781,1,0,0:0:0:0:
140,184,157969,1,0,0:0:0:0:
328,104,158156,1,0,0:0:0:0:
288,216,158344,2,0,L|340:256,3,52.5000020027161
264,140,158719,2,0,L|280:200,1,52.5000020027161
232,268,158906,2,0,L|272:224,1,52.5000020027161
388,192,159281,5,0,0:0:0:0:
96,108,159469,1,0,0:0:0:0:
96,108,159562,1,0,0:0:0:0:
96,108,159656,1,0,0:0:0:0:
264,120,159844,2,0,L|312:160,1,52.5000020027161
364,120,160031,2,0,L|324:168,1,52.5000020027161
328,248,160219,2,0,L|320:160,2,52.5000020027161
136,192,160594,1,0,0:0:0:0:
240,316,160781,5,0,0:0:0:0:
240,316,160875,1,0,0:0:0:0:
240,316,160969,1,0,0:0:0:0:
380,192,161156,2,0,L|300:208,1,52.5000020027161
356,160,161343,2,0,L|296:172,1,52.5000020027161
328,124,161531,2,0,L|256:144,1,52.5000020027161
240,148,161719,1,0,0:0:0:0:
104,228,161906,1,0,0:0:0:0:
104,228,162000,1,0,0:0:0:0:
104,228,162094,1,0,0:0:0:0:
336,312,162281,6,0,L|416:288,2,52.5000020027161
360,216,162656,2,0,L|280:248,1,52.5000020027161
232,268,162844,2,0,L|320:232,1,52.5000020027161
360,216,163031,2,0,L|288:240,1,52.5000020027161
148,296,163219,2,0,L|236:264,4,52.5000020027161
300,236,163781,1,0,0:0:0:0:
324,104,163969,1,0,0:0:0:0:
324,104,164062,1,0,0:0:0:0:
324,104,164156,1,0,0:0:0:0:
152,96,164344,6,0,L|196:148,2,52.5000020027161
252,208,164719,1,0,0:0:0:0:
120,280,164906,1,0,0:0:0:0:
304,336,165094,1,0,0:0:0:0:
304,336,165187,1,0,0:0:0:0:
304,336,165281,1,0,0:0:0:0:
136,124,165469,2,0,L|172:164,1,52.5000020027161
160,92,165656,2,0,L|196:132,1,52.5000020027161
184,64,165844,6,0,L|220:104,3,52.5000020027161
336,208,166219,1,0,0:0:0:0:
336,208,166312,1,0,0:0:0:0:
336,208,166406,1,0,0:0:0:0:
128,196,166594,1,0,0:0:0:0:
340,72,166781,1,0,0:0:0:0:
340,72,166875,1,0,0:0:0:0:
340,72,166969,1,0,0:0:0:0:
232,244,167156,5,0,0:0:0:0:
140,88,167344,1,0,0:0:0:0:
232,244,167531,1,0,0:0:0:0:
232,244,167625,1,0,0:0:0:0:
232,244,167719,1,0,0:0:0:0:
376,160,167906,2,0,L|304:160,1,52.5000020027161
148,160,168094,2,0,P|96:236|128:268,1,140
248,292,169594,2,0,P|344:284|368:224,1,140
248,176,170719,6,0,P|308:196|304:208,1,70
272,300,171656,2,0,L|212:300,1,35
192,256,172031,2,0,L|256:256,1,35
332,256,172406,1,0,0:0:0:0:
376,160,172594,2,0,P|324:100|256:104,1,140
200,104,173719,2,0,P|152:136|160:164,1,70
168,256,174469,1,0,0:0:0:0:
336,272,174844,2,0,L|392:236,3,35
248,280,175781,6,0,L|212:256,2,35
208,160,176344,1,0,0:0:0:0:
208,160,176531,1,0,0:0:0:0:
312,96,176719,2,0,L|392:128,1,70
424,208,177281,1,0,0:0:0:0:
368,284,177469,2,0,L|268:280,1,70
156,240,178031,1,0,0:0:0:0:
156,240,178219,2,0,P|116:188|132:168,1,70
308,92,179156,6,0,L|344:120,1,35
376,140,179531,2,0,L|340:176,1,35
320,204,179906,2,0,L|364:240,1,35
248,296,180656,1,0,0:0:0:0:
248,296,180844,1,0,0:0:0:0:
168,224,181031,1,0,0:0:0:0:
280,164,181219,1,0,0:0:0:0:
292,296,181406,1,0,0:0:0:0:
56,200,181781,6,0,P|84:140|128:116,1,105
236,104,182719,1,0,0:0:0:0:
380,120,183094,2,0,P|432:156|456:188,1,70
276,304,183844,1,0,0:0:0:0:
144,208,184031,1,0,0:0:0:0:
348,188,184219,1,0,0:0:0:0:
208,312,184406,1,0,0:0:0:0:
240,132,184594,1,0,0:0:0:0:
356,80,184781,5,0,0:0:0:0:
156,172,184969,1,0,0:0:0:0:
344,248,185156,1,0,0:0:0:0:
224,56,185344,1,0,0:0:0:0:
136,272,185531,1,0,0:0:0:0:
292,244,185719,1,0,0:0:0:0:
292,244,185906,1,0,0:0:0:0:
292,244,186094,2,0,L|328:180,1,52.5000020027161
