osu file format v14

[General]
AudioFilename: audio.mp3
AudioLeadIn: 0
PreviewTime: 48000
Countdown: 0
SampleSet: Soft
StackLeniency: 0.7
Mode: 0
LetterboxInBreaks: 0
WidescreenStoryboard: 1

[Editor]
Bookmarks: 12000,26323,31549,35807,39000,43355,46355,49549,53130,56130,59226,72807,74331,75879,77379,80452,82025,83767,86906,90105,92906,94648,96487
DistanceSpacing: 0.8
BeatDivisor: 4
GridSize: 16
TimelineZoom: 1.499999

[Metadata]
Title:Restart (Short Ver.)
TitleUnicode:Restart (Short Ver.)
Artist:Subtact
ArtistUnicode:Subtact
Creator:Metaclock
Version:Normal
Source:Monstercat
Tags:Future bass monstercat subtact restart short version
BeatmapID:1476881
BeatmapSetID:672198

[Difficulty]
HPDrainRate:2
CircleSize:3
OverallDifficulty:3
ApproachRate:4
SliderMultiplier:0.799999999999999
SliderTickRate:1

[Events]
//Background and Video events
0,0,"Fond d'ecran Divine call from skies.jpg",0,0
//Break Periods
//Storyboard Layer 0 (Background)
//Storyboard Layer 1 (Fail)
//Storyboard Layer 2 (Pass)
//Storyboard Layer 3 (Foreground)
//Storyboard Sound Samples

[TimingPoints]
25,387.096774193548,4,2,0,100,1,0
12000,-133.333333333333,4,2,0,15,0,0
15702,-133.333333333333,4,2,0,30,0,0
18581,-133.333333333333,4,2,0,45,0,0
21775,-133.333333333333,4,2,0,55,0,0
26517,-100,4,1,0,55,0,0
36581,-83.3333333333333,4,1,0,55,0,0
37936,-100,4,1,0,55,0,0
39097,-83.3333333333333,4,1,0,55,0,0
41033,-100,4,1,0,55,0,0
43379,-100,4,2,0,55,0,0
47928,-66.6666666666667,4,2,0,55,0,0
48968,-100,4,3,0,100,0,0
49549,-66.6666666666667,3,2,0,75,0,1
59420,-80,3,1,0,100,0,0
59613,-80,3,2,0,75,0,0
60000,-54.054054054054,3,1,0,100,0,0
60194,-54.054054054054,3,2,0,75,0,0
60581,-66.6666666666667,3,2,0,100,0,0
61936,-66.6666666666667,3,2,0,75,0,1
71807,-66.6666666666667,3,2,0,100,0,0
72000,-66.6666666666667,3,1,0,100,0,0
72388,-66.6666666666667,3,2,0,100,0,0
72581,-66.6666666666667,3,1,0,100,0,0
72968,-66.6666666666667,3,2,0,100,0,0
74323,-100,4,2,0,80,0,1
99290,387.096774193548,4,2,0,100,1,0

[Colours]
Combo1 : 128,0,64
Combo2 : 3,56,154
Combo3 : 183,131,254
Combo4 : 167,33,211
Combo5 : 236,51,199
Combo6 : 86,113,220
Combo7 : 26,238,255
Combo8 : 172,174,172

[HitObjects]
328,232,12895,6,0,P|304:152|216:120,1,180.000006866455
120,128,14444,6,0,L|144:192,3,60.0000022888184
224,280,15992,6,0,P|280:272|312:248,1,90.0000034332276
328,216,16766,2,0,P|280:200|240:168,1,90.0000034332276
208,128,17541,6,0,B|192:104|192:104|152:96,3,60.0000022888184
112,184,19089,6,0,L|168:256,1,90.0000034332276
200,280,19863,2,0,P|248:296|288:272,1,90.0000034332276
328,248,20637,6,0,L|328:184,1,60.0000022888184
288,96,21412,1,0,0:0:0:0:
208,64,22186,6,0,P|152:120|176:216,1,180.000006866455
208,288,23734,5,0,0:0:0:0:
296,240,24121,1,0,0:0:0:0:
352,152,24508,1,0,0:0:0:0:
264,120,25283,6,0,L|192:56,2,90.0000034332276
312,208,26831,5,0,0:0:0:0:
224,248,27218,1,0,0:0:0:0:
168,176,27605,1,0,0:0:0:0:
208,88,27992,6,0,P|256:112|280:144,1,79.9999999999999
352,232,28960,1,0,0:0:0:0:
296,288,29347,1,0,0:0:0:0:
128,256,29928,6,0,L|128:160,1,79.9999999999999
216,208,30702,2,0,L|216:120,1,79.9999999999999
304,128,31476,1,0,0:0:0:0:
440,160,32057,6,0,P|448:200|440:240,1,79.9999999999999
352,288,33024,6,0,P|320:272|288:224,1,79.9999999999999
280,200,33799,2,0,L|280:144,2,40
144,288,34960,5,0,0:0:0:0:
96,248,35347,2,0,P|80:192|104:168,1,79.9999999999999
160,96,36508,5,0,0:0:0:0:
208,176,36895,1,0,0:0:0:0:
304,176,37283,2,0,L|352:160,2,47.9999985351562
256,240,38250,5,0,0:0:0:0:
256,152,38637,1,0,0:0:0:0:
256,104,39024,6,0,L|256:56,2,40
256,128,39605,2,0,L|192:128,2,47.9999985351562
336,176,40379,1,0,0:0:0:0:
280,256,40766,1,0,0:0:0:0:
176,256,41347,6,0,P|136:232|128:200,1,79.9999999999999
160,88,42315,6,0,L|232:48,1,79.9999999999999
280,112,43089,1,0,0:0:0:0:
256,192,43476,5,0,0:0:0:0:
208,224,43863,1,0,0:0:0:0:
256,304,44250,1,0,0:0:0:0:
304,224,44637,1,0,0:0:0:0:
256,192,45024,5,0,0:0:0:0:
304,160,45412,1,0,0:0:0:0:
256,96,45799,1,0,0:0:0:0:
208,160,46186,1,0,0:0:0:0:
280,192,46573,6,0,L|232:192,6,40
256,208,48121,6,0,L|256:176,8,30.0000011444092
256,48,49670,6,0,P|152:56|112:128,1,180.000006866455
176,240,50637,2,0,P|240:288|288:256,1,120.000004577637
320,256,51412,6,0,P|352:256|384:240,3,60.0000022888184
416,208,52379,2,0,P|432:144|400:104,1,120.000004577637
224,80,53541,6,0,P|192:112|160:128,2,60.0000022888184
272,176,54508,6,0,P|304:160|336:160,4,60.0000022888184
304,280,55863,6,0,P|232:256|168:256,1,120.000004577637
112,192,56831,6,0,B|80:176|80:176|96:128,1,60.0000022888184
224,64,57605,6,0,B|224:128,3,60.0000022888184
224,192,58573,2,0,P|288:192|352:176,1,120.000004577637
288,128,59541,6,0,L|224:128,1,49.9999999999999
224,256,60121,2,0,L|304:256,1,73.9999997177123
400,224,60702,54,0,L|400:160,5,60.0000022888184
368,96,62057,70,0,P|304:144|240:160,1,120.000004577637
144,160,62831,2,0,L|144:224,2,60.0000022888184
208,112,63799,6,0,L|272:160,1,60.0000022888184
304,176,64379,2,0,P|304:240|240:272,1,120.000004577637
176,288,65154,1,0,0:0:0:0:
160,112,65928,6,0,L|80:144,2,60.0000022888184
272,112,66895,6,0,L|320:64,2,60.0000022888184
240,112,67476,2,0,L|192:64,2,60.0000022888184
256,208,68250,2,0,L|256:336,1,120.000004577637
352,288,69218,6,0,B|384:272|384:272|400:224,1,60.0000022888184
416,112,69992,6,0,L|352:112,1,60.0000022888184
272,112,70573,1,0,0:0:0:0:
176,112,70960,1,0,0:0:0:0:
256,192,71347,5,0,0:0:0:0:
160,224,71928,6,0,L|160:144,1,60.0000022888184
352,160,72508,2,0,L|352:240,1,60.0000022888184
256,224,73089,54,0,L|256:160,5,60.0000022888184
256,80,74444,70,0,P|208:80|176:112,1,79.9999999999999,8|0,0:0|0:0,0:0:0:0:
161,159,75218,1,8,0:0:0:0:
170,222,75605,1,8,0:0:0:0:
212,270,75992,2,8,P|271:268|304:258,1,79.9999999999999,8|0,0:0|0:0,0:0:0:0:
347,232,76766,5,8,0:0:0:0:
384,179,77154,1,8,0:0:0:0:
358,120,77541,2,8,P|305:98|280:100,1,79.9999999999999,8|0,0:0|0:0,0:0:0:0:
220,110,78315,5,8,0:0:0:0:
213,173,78702,1,8,0:0:0:0:
259,217,79089,2,8,P|299:254|300:293,1,79.9999999999999,8|0,0:0|0:0,0:0:0:0:
289,339,79863,5,8,0:0:0:0:
225,332,80250,1,8,0:0:0:0:
166,306,80637,2,8,P|120:270|106:246,1,79.9999999999999,8|0,0:0|0:0,0:0:0:0:
107,187,81412,5,8,0:0:0:0:
138,131,81799,1,8,0:0:0:0:
190,94,82186,2,8,P|245:86|263:109,1,79.9999999999999,8|0,0:0|0:0,0:0:0:0:
306,142,82960,5,8,0:0:0:0:
342,194,83347,1,8,0:0:0:0:
330,257,83734,2,8,P|289:284|252:279,1,79.9999999999999,8|0,0:0|0:0,0:0:0:0:
196,270,84508,5,8,0:0:0:0:
169,211,84895,1,8,0:0:0:0:
196,152,85283,1,8,0:0:0:0:
246,112,85670,1,8,0:0:0:0:
309,121,86057,6,8,L|362:121,4,40,8|2|8|2|4,0:0|0:0|0:0|0:0|0:0,0:0:0:0:
183,95,87605,5,8,0:0:0:0:
149,149,87992,1,8,0:0:0:0:
128,209,88379,5,8,0:0:0:0:
159,264,88766,1,8,0:0:0:0:
213,298,89154,1,8,0:0:0:0:
275,312,89541,5,8,0:0:0:0:
283,311,89928,1,8,0:0:0:0:
338,278,90315,1,8,0:0:0:0:
383,232,90702,5,8,0:0:0:0:
386,168,91089,1,8,0:0:0:0:
345,118,91476,1,8,0:0:0:0:
287,89,91863,5,8,0:0:0:0:
225,105,92250,1,8,0:0:0:0:
187,156,92637,1,8,0:0:0:0:
192,219,93024,5,8,0:0:0:0:
201,223,93412,1,8,0:0:0:0:
259,248,93799,1,8,0:0:0:0:
319,227,94186,5,8,0:0:0:0:
371,262,94573,1,8,0:0:0:0:
338,316,94960,1,8,0:0:0:0:
276,333,95347,5,8,0:0:0:0:
212,324,95734,1,8,0:0:0:0:
159,288,96121,1,8,0:0:0:0:
128,230,96508,5,8,0:0:0:0:
125,222,96895,1,8,0:0:0:0:
150,169,97283,1,8,0:0:0:0:
195,123,97670,1,8,0:0:0:0:
254,147,98057,1,8,0:0:0:0:
256,208,98444,102,8,L|256:256,4,40,8|2|8|2|4,0:0|0:0|0:0|0:0|0:0,0:0:0:0:
