osu file format v14

[General]
AudioFilename: audio.mp3
AudioLeadIn: 0
PreviewTime: 161105
Countdown: 0
SampleSet: Soft
StackLeniency: 0.4
Mode: 0
LetterboxInBreaks: 0
WidescreenStoryboard: 0

[Editor]
Bookmarks: 34319,98248,99498,169766,217534,235926,236284,270837,356998
DistanceSpacing: 0.4
BeatDivisor: 4
GridSize: 8
TimelineZoom: 1.4

[Metadata]
Title:Assemble
TitleUnicode:Assemble
Artist:Substance Concept
ArtistUnicode:Substance Concept
Creator:gazimal
Version:Emotional
Source:凍京ネクロ
Tags:J-pop Japanese 丹下桜 Tange Sakura nitro plus tokyo necro pop toukyou
BeatmapID:3190467
BeatmapSetID:1562313

[Difficulty]
HPDrainRate:5
CircleSize:4.2
OverallDifficulty:8.5
ApproachRate:9.3
SliderMultiplier:1.8
SliderTickRate:1

[Events]
//Background and Video events
0,0,"0Lv71Glzwxc.jpg",0,0
//Break Periods
2,208269,216980
//Storyboard Layer 0 (Background)
//Storyboard Layer 1 (Fail)
//Storyboard Layer 2 (Pass)
//Storyboard Layer 3 (Foreground)
//Storyboard Layer 4 (Overlay)
//Storyboard Sound Samples

[TimingPoints]
927,357.142857142857,4,2,0,60,1,0
2355,-166.666666666667,4,2,1,70,0,0
2534,-166.666666666667,4,2,1,45,0,0
3605,-166.666666666667,4,2,1,5,0,0
3784,-166.666666666667,4,2,1,45,0,0
4676,-166.666666666667,4,2,1,5,0,0
4855,-166.666666666667,4,2,1,45,0,0
6462,-166.666666666667,4,2,1,5,0,0
6641,-166.666666666667,4,2,1,45,0,0
9319,-166.666666666667,4,2,1,5,0,0
9498,-166.666666666667,4,2,1,45,0,0
10391,-166.666666666667,4,2,1,5,0,0
10569,-166.666666666667,4,2,1,45,0,0
12176,-166.666666666667,4,2,1,5,0,0
12355,-166.666666666667,4,2,1,45,0,0
13784,-166.666666666667,4,2,1,50,0,0
14498,-166.666666666667,4,2,3,50,0,0
15212,-166.666666666667,4,2,1,50,0,0
17534,-250.000000000001,4,2,3,50,0,0
18069,-166.666666666667,4,2,1,50,0,0
18604,-166.666666666667,4,2,1,5,0,0
18784,-166.666666666667,4,2,1,50,0,0
20390,-166.666666666667,4,2,1,5,0,0
20569,-166.666666666667,4,2,1,50,0,0
23159,-166.666666666667,4,2,1,5,0,0
23248,-166.666666666667,4,2,1,50,0,0
24319,-166.666666666667,4,2,1,5,0,0
24498,-166.666666666667,4,2,1,50,0,0
28604,-166.666666666667,4,2,1,5,0,0
28784,-166.666666666667,4,2,1,50,0,0
29141,-166.666666666667,4,2,3,50,0,0
29498,-166.666666666667,4,2,1,50,0,0
30837,-166.666666666667,4,2,1,5,0,0
30926,-166.666666666667,4,2,1,50,0,0
36284,-333.333333333334,4,2,1,50,0,0
36551,-166.666666666667,4,2,1,5,0,0
36641,-100,4,2,1,60,0,0
36909,-100,4,2,1,5,0,0
36998,-100,4,2,1,60,0,0
37176,-100,4,2,1,5,0,0
37355,-100,4,2,1,60,0,0
37533,-100,4,2,1,5,0,0
37712,-100,4,2,1,60,0,0
38248,-100,4,2,1,5,0,0
38426,-100,4,2,1,60,0,0
38604,-100,4,2,1,5,0,0
38784,-100,4,2,1,60,0,0
38962,-100,4,2,1,5,0,0
39141,-100,4,2,1,60,0,0
39319,-100,4,2,1,5,0,0
39498,-100,4,2,1,60,0,0
40390,-100,4,2,1,5,0,0
40569,-100,4,2,1,60,0,0
43247,-100,4,2,1,5,0,0
43426,-100,4,2,1,60,0,0
43604,-100,4,2,1,5,0,0
43784,-100,4,2,1,60,0,0
44051,-100,4,2,1,5,0,0
44141,-100,4,2,1,60,0,0
44319,-100,4,2,1,5,0,0
44498,-100,4,2,1,60,0,0
44676,-100,4,2,1,5,0,0
44855,-100,4,2,1,60,0,0
45123,-100,4,2,1,5,0,0
45212,-100,4,2,1,60,0,0
48337,-100,4,2,1,5,0,0
48426,-100,4,2,1,60,0,0
48694,-100,4,2,1,5,0,0
48784,-100,4,2,1,60,0,0
48962,-100,4,2,1,5,0,0
49141,-100,4,2,1,60,0,0
50123,-100,4,2,1,5,0,0
50212,-100,4,2,1,60,0,0
50390,-100,4,2,1,5,0,0
50569,-100,4,2,1,60,0,0
51104,-100,4,2,1,5,0,0
51284,-100,4,2,1,60,0,0
51462,-100,4,2,1,5,0,0
51641,-100,4,2,1,60,0,0
51909,-100,4,2,1,5,0,0
51998,-100,4,2,1,60,0,0
52533,-100,4,2,1,5,0,0
52712,-100,4,2,1,60,0,0
52890,-100,4,2,1,5,0,0
53069,-100,4,2,1,60,0,0
53247,-100,4,2,1,5,0,0
53426,-100,4,2,1,60,0,0
53694,-100,4,2,1,5,0,0
53784,-83.3333333333333,4,2,1,60,0,0
54051,-83.3333333333333,4,2,1,5,0,0
54141,-83.3333333333333,4,2,1,60,0,0
54587,-100,4,2,1,5,0,0
54676,-83.3333333333333,4,2,1,60,0,0
55123,-100,4,2,1,5,0,0
55212,-83.3333333333333,4,2,1,60,0,0
55391,-83.3333333333333,4,2,3,60,0,0
55569,-83.3333333333333,4,2,1,60,0,0
55659,-83.3333333333333,4,2,3,60,0,0
55926,-83.3333333333333,4,2,1,60,0,0
56194,-100,4,2,1,5,0,0
56284,-83.3333333333333,4,2,1,60,0,0
56551,-100,4,2,1,5,0,0
56641,-83.3333333333333,4,2,1,60,0,0
57623,-100,4,2,1,5,0,0
57712,-166.666666666667,4,2,3,60,0,0
58069,-166.666666666667,4,2,2,60,0,0
58784,-166.666666666667,4,2,2,70,0,0
59141,-166.666666666667,4,2,2,75,0,0
59498,-66.6666666666667,4,2,1,80,0,1
59766,-66.6666666666667,4,2,1,5,0,1
59855,-76.9230769230769,4,2,1,80,0,1
61194,-66.6666666666667,4,2,1,5,0,1
61284,-76.9230769230769,4,2,1,80,0,1
61551,-66.6666666666667,4,2,1,5,0,1
61641,-76.9230769230769,4,2,1,80,0,1
61998,-66.6666666666667,4,2,1,80,0,1
62266,-66.6666666666667,4,2,1,5,0,1
62355,-66.6666666666667,4,2,1,80,0,1
62622,-66.6666666666667,4,2,1,5,0,1
62712,-60.6060606060606,4,2,1,80,0,1
62891,-76.9230769230769,4,2,1,80,0,1
65480,-66.6666666666667,4,2,1,5,0,1
65569,-76.9230769230769,4,2,1,80,0,1
66194,-66.6666666666667,4,2,1,5,0,1
66284,-76.9230769230769,4,2,1,80,0,1
66909,-66.6666666666667,4,2,1,5,0,1
66998,-76.9230769230769,4,2,1,80,0,1
67266,-66.6666666666667,4,2,1,5,0,1
67355,-76.9230769230769,4,2,1,80,0,1
68069,-66.6666666666667,4,2,1,80,0,1
68962,-66.6666666666667,4,2,3,80,0,1
69141,-66.6666666666667,4,2,1,80,0,1
69498,-76.9230769230769,4,2,1,80,0,1
70659,-76.9230769230769,4,2,3,80,0,1
70926,-76.9230769230769,4,2,1,80,0,1
72087,-76.9230769230769,4,2,3,80,0,1
72355,-76.9230769230769,4,2,1,80,0,1
72980,-76.9230769230769,4,2,3,80,0,1
73069,-76.9230769230769,4,2,1,80,0,1
74051,-66.6666666666667,4,2,1,5,0,1
74141,-76.9230769230769,4,2,1,80,0,1
75123,-76.9230769230769,4,2,3,80,0,1
75212,-76.9230769230769,4,2,1,80,0,1
77176,-76.9230769230769,4,2,3,80,0,1
77355,-76.9230769230769,4,2,1,80,0,1
78337,-66.6666666666667,4,2,1,5,0,1
78426,-76.9230769230769,4,2,1,80,0,1
79051,-66.6666666666667,4,2,1,5,0,1
79141,-76.9230769230769,4,2,1,80,0,1
79498,-66.6666666666667,4,2,1,80,0,1
80926,-76.9230769230769,4,2,2,80,0,1
81641,-76.9230769230769,4,2,1,80,0,1
81730,-76.9230769230769,4,2,3,80,0,1
81998,-76.9230769230769,4,2,1,80,0,1
82355,-66.6666666666667,4,2,1,80,0,1
82623,-66.6666666666667,4,2,1,5,0,1
82712,-76.9230769230769,4,2,1,80,0,1
84051,-66.6666666666667,4,2,1,5,0,1
84141,-76.9230769230769,4,2,1,80,0,1
84409,-66.6666666666667,4,2,1,5,0,1
84498,-76.9230769230769,4,2,1,80,0,1
85123,-66.6666666666667,4,2,1,5,0,1
85212,-76.9230769230769,4,2,1,80,0,1
85480,-66.6666666666667,4,2,1,5,0,1
85569,-76.9230769230769,4,2,1,80,0,1
88337,-66.6666666666667,4,2,1,5,0,1
88426,-76.9230769230769,4,2,1,80,0,1
89051,-66.6666666666667,4,2,1,5,0,1
89141,-76.9230769230769,4,2,1,80,0,1
89766,-66.6666666666667,4,2,1,5,0,1
89855,-76.9230769230769,4,2,1,80,0,1
90123,-66.6666666666667,4,2,1,5,0,1
90212,-76.9230769230769,4,2,1,80,0,1
90926,-66.6666666666667,4,2,1,80,0,1
92355,-76.9230769230769,4,2,1,80,0,1
93426,-76.9230769230769,4,2,1,80,0,1
93516,-76.9230769230769,4,2,3,80,0,1
93784,-76.9230769230769,4,2,1,80,0,1
94944,-76.9230769230769,4,2,3,80,0,1
95212,-76.9230769230769,4,2,1,80,0,1
96909,-66.6666666666667,4,2,1,5,0,1
96998,-76.9230769230769,4,2,1,80,0,1
99498,-66.6666666666667,4,2,1,80,0,1
100926,-76.9230769230769,4,2,1,80,0,1
101194,-66.6666666666667,4,2,1,5,0,1
101284,-76.9230769230769,4,2,1,80,0,1
102355,-66.6666666666667,4,2,1,80,0,1
103784,-76.9230769230769,4,2,1,80,0,1
104051,-66.6666666666667,4,2,1,5,0,1
104141,-76.9230769230769,4,2,1,80,0,1
105212,-76.9230769230769,4,2,1,80,0,0
105301,-76.9230769230769,4,2,1,75,0,0
107623,-66.6666666666667,4,2,1,5,0,0
107712,-76.9230769230769,4,2,1,75,0,0
107980,-66.6666666666667,4,2,1,5,0,0
108069,-76.9230769230769,4,2,1,75,0,0
108337,-66.6666666666667,4,2,1,5,0,0
108426,-76.9230769230769,4,2,1,75,0,0
112623,-66.6666666666667,4,2,1,5,0,0
112712,-76.9230769230769,4,2,1,75,0,0
114766,-66.6666666666667,4,2,1,5,0,0
114855,-76.9230769230769,4,2,1,75,0,0
116641,-111.111111111111,4,2,1,75,0,0
116998,-111.111111111111,4,2,1,60,0,0
118069,-125,4,2,1,60,0,0
118336,-125,4,2,1,5,0,0
118426,-125,4,2,1,60,0,0
119498,-111.111111111111,4,2,1,60,0,0
120659,-111.111111111111,4,2,3,60,0,0
120926,-125,4,2,1,60,0,0
121193,-125,4,2,1,5,0,0
121284,-125,4,2,1,60,0,0
121551,-125,4,2,1,5,0,0
121641,-125,4,2,1,60,0,0
122265,-125,4,2,1,5,0,0
122355,-111.111111111111,4,2,1,60,0,0
125212,-125,4,2,1,60,0,0
125479,-125,4,2,1,5,0,0
125569,-125,4,2,1,60,0,0
127176,-125,4,2,3,60,0,0
127355,-125,4,2,1,60,0,0
127533,-125,4,2,1,5,0,0
127712,-125,4,2,1,60,0,0
127890,-125,4,2,1,5,0,0
128069,-111.111111111111,4,2,1,60,0,0
129498,-125,4,2,1,60,0,0
129765,-125,4,2,1,5,0,0
129855,-125,4,2,1,60,0,0
130926,-111.111111111111,4,2,1,60,0,0
132087,-111.111111111111,4,2,3,60,0,0
132176,-111.111111111111,4,2,1,60,0,0
132266,-111.111111111111,4,2,3,60,0,0
132355,-125,4,2,1,60,0,0
132622,-125,4,2,1,5,0,0
132712,-125,4,2,1,60,0,0
132979,-125,4,2,1,5,0,0
133069,-125,4,2,1,60,0,0
133426,-125,4,2,3,60,0,0
133693,-125,4,2,3,5,0,0
133784,-111.111111111111,4,2,1,60,0,0
136641,-125,4,2,1,60,0,0
136908,-125,4,2,1,5,0,0
136998,-125,4,2,1,60,0,0
138247,-125,4,2,1,5,0,0
138426,-125,4,2,1,60,0,0
138604,-125,4,2,1,5,0,0
138784,-125,4,2,1,60,0,0
138962,-125,4,2,1,5,0,0
139141,-250,4,2,1,60,0,0
139408,-125,4,2,1,5,0,0
139498,-100,4,2,1,60,0,0
139765,-100,4,2,1,5,0,0
139855,-100,4,2,1,60,0,0
140033,-100,4,2,1,5,0,0
140212,-100,4,2,1,60,0,0
140390,-100,4,2,1,5,0,0
140569,-100,4,2,1,60,0,0
141105,-100,4,2,1,5,0,0
141284,-100,4,2,1,60,0,0
141462,-100,4,2,1,5,0,0
141641,-100,4,2,1,60,0,0
141819,-100,4,2,1,5,0,0
141998,-100,4,2,1,60,0,0
142176,-100,4,2,1,5,0,0
142355,-100,4,2,1,60,0,0
143247,-100,4,2,1,5,0,0
143426,-100,4,2,1,60,0,0
146104,-100,4,2,1,5,0,0
146284,-100,4,2,1,60,0,0
146462,-100,4,2,1,5,0,0
146641,-100,4,2,1,60,0,0
146908,-100,4,2,1,5,0,0
146998,-100,4,2,1,60,0,0
147176,-100,4,2,1,5,0,0
147355,-100,4,2,1,60,0,0
147533,-100,4,2,1,5,0,0
147712,-100,4,2,1,60,0,0
147979,-100,4,2,1,5,0,0
148069,-100,4,2,1,60,0,0
151193,-100,4,2,1,5,0,0
151284,-100,4,2,1,60,0,0
151462,-100,4,2,3,60,0,0
151551,-100,4,2,3,5,0,0
151641,-100,4,2,1,60,0,0
151819,-100,4,2,1,5,0,0
151998,-100,4,2,1,60,0,0
152979,-100,4,2,1,5,0,0
153069,-100,4,2,1,60,0,0
153247,-100,4,2,1,5,0,0
153426,-100,4,2,1,60,0,0
153962,-100,4,2,1,5,0,0
154141,-100,4,2,1,60,0,0
154319,-100,4,2,1,5,0,0
154498,-100,4,2,1,60,0,0
154765,-100,4,2,1,5,0,0
154855,-100,4,2,1,60,0,0
155391,-100,4,2,1,5,0,0
155569,-100,4,2,1,60,0,0
155747,-100,4,2,1,5,0,0
155926,-100,4,2,1,60,0,0
156104,-100,4,2,1,5,0,0
156284,-100,4,2,1,60,0,0
156551,-100,4,2,1,5,0,0
156641,-83.3333333333333,4,2,1,60,0,0
156908,-83.3333333333333,4,2,1,5,0,0
156998,-83.3333333333333,4,2,1,60,0,0
157443,-83.3333333333333,4,2,1,5,0,0
157534,-83.3333333333333,4,2,1,60,0,0
157979,-83.3333333333333,4,2,1,5,0,0
158069,-83.3333333333333,4,2,1,60,0,0
158248,-83.3333333333333,4,2,3,60,0,0
158426,-83.3333333333333,4,2,1,60,0,0
158516,-83.3333333333333,4,2,3,60,0,0
158783,-83.3333333333333,4,2,1,60,0,0
159051,-83.3333333333333,4,2,1,5,0,0
159141,-83.3333333333333,4,2,1,60,0,0
159408,-83.3333333333333,4,2,1,5,0,0
159498,-83.3333333333333,4,2,1,60,0,0
160479,-83.3333333333333,4,2,1,5,0,0
160569,-166.666666666667,4,2,3,60,0,0
160926,-166.666666666667,4,2,2,60,0,0
161641,-166.666666666667,4,2,2,70,0,0
161998,-166.666666666667,4,2,2,75,0,0
162355,-66.6666666666667,4,2,1,80,0,1
162622,-66.6666666666667,4,2,1,5,0,1
162712,-76.9230769230769,4,2,1,80,0,1
164051,-76.9230769230769,4,2,1,5,0,1
164141,-76.9230769230769,4,2,1,80,0,1
164408,-76.9230769230769,4,2,1,5,0,1
164498,-76.9230769230769,4,2,1,80,0,1
164855,-66.6666666666667,4,2,1,80,0,1
165122,-66.6666666666667,4,2,1,5,0,1
165212,-66.6666666666667,4,2,1,80,0,1
165479,-66.6666666666667,4,2,1,5,0,1
165569,-66.6666666666667,4,2,1,80,0,1
165748,-76.9230769230769,4,2,1,80,0,1
168336,-76.9230769230769,4,2,1,5,0,1
168426,-76.9230769230769,4,2,1,80,0,1
169051,-76.9230769230769,4,2,1,5,0,1
169141,-76.9230769230769,4,2,1,80,0,1
169765,-76.9230769230769,4,2,1,5,0,1
169855,-76.9230769230769,4,2,1,80,0,1
170122,-76.9230769230769,4,2,1,5,0,1
170212,-76.9230769230769,4,2,1,80,0,1
170926,-66.6666666666667,4,2,1,80,0,1
171819,-66.6666666666667,4,2,3,80,0,1
171998,-66.6666666666667,4,2,1,80,0,1
172355,-76.9230769230769,4,2,1,80,0,1
173516,-76.9230769230769,4,2,3,80,0,1
173783,-76.9230769230769,4,2,1,80,0,1
174944,-76.9230769230769,4,2,3,80,0,1
175212,-76.9230769230769,4,2,1,80,0,1
175837,-76.9230769230769,4,2,3,80,0,1
175926,-76.9230769230769,4,2,1,80,0,1
176908,-76.9230769230769,4,2,1,5,0,1
176998,-76.9230769230769,4,2,1,80,0,1
177980,-76.9230769230769,4,2,3,80,0,1
178069,-76.9230769230769,4,2,1,80,0,1
180033,-76.9230769230769,4,2,3,80,0,1
180212,-76.9230769230769,4,2,1,80,0,1
181193,-76.9230769230769,4,2,1,5,0,1
181284,-76.9230769230769,4,2,1,80,0,1
181908,-76.9230769230769,4,2,1,5,0,1
181998,-76.9230769230769,4,2,1,80,0,1
182355,-66.6666666666667,4,2,1,80,0,1
183784,-76.9230769230769,4,2,2,80,0,1
184498,-76.9230769230769,4,2,1,80,0,1
184587,-76.9230769230769,4,2,3,80,0,1
184855,-76.9230769230769,4,2,1,80,0,1
185212,-66.6666666666667,4,2,1,80,0,1
185479,-66.6666666666667,4,2,1,5,0,1
185569,-76.9230769230769,4,2,1,80,0,1
186908,-76.9230769230769,4,2,1,5,0,1
186998,-76.9230769230769,4,2,1,80,0,1
187265,-76.9230769230769,4,2,1,5,0,1
187355,-76.9230769230769,4,2,1,80,0,1
187979,-76.9230769230769,4,2,1,5,0,1
188069,-76.9230769230769,4,2,1,80,0,1
188336,-76.9230769230769,4,2,1,5,0,1
188426,-76.9230769230769,4,2,1,80,0,1
191193,-76.9230769230769,4,2,1,5,0,1
191284,-76.9230769230769,4,2,1,80,0,1
191908,-76.9230769230769,4,2,1,5,0,1
191998,-76.9230769230769,4,2,1,80,0,1
192622,-76.9230769230769,4,2,1,5,0,1
192712,-76.9230769230769,4,2,1,80,0,1
192979,-76.9230769230769,4,2,1,5,0,1
193069,-76.9230769230769,4,2,1,80,0,1
193784,-66.6666666666667,4,2,1,80,0,1
195212,-76.9230769230769,4,2,1,80,0,1
196373,-76.9230769230769,4,2,3,80,0,1
196641,-76.9230769230769,4,2,1,80,0,1
197801,-76.9230769230769,4,2,3,80,0,1
198069,-76.9230769230769,4,2,1,80,0,1
199765,-76.9230769230769,4,2,1,5,0,1
199855,-76.9230769230769,4,2,1,80,0,1
202355,-66.6666666666667,4,2,1,80,0,1
203784,-76.9230769230769,4,2,1,80,0,1
204051,-76.9230769230769,4,2,1,5,0,1
204141,-76.9230769230769,4,2,1,80,0,1
205212,-66.6666666666667,4,2,1,80,0,1
206641,-76.9230769230769,4,2,1,80,0,1
206908,-76.9230769230769,4,2,1,5,0,1
206998,-76.9230769230769,4,2,1,80,0,1
208069,-125,4,2,1,80,0,0
217534,-125,4,2,3,40,0,0
217712,-125,4,2,3,50,0,0
217891,-125,4,2,3,60,0,0
218069,-90.9090909090909,4,2,2,70,0,0
218337,-90.9090909090909,4,2,3,70,0,0
218426,-90.9090909090909,4,2,2,70,0,0
218694,-90.9090909090909,4,2,3,70,0,0
218784,-90.9090909090909,4,2,2,70,0,0
219498,-76.9230769230769,4,2,1,70,0,0
220391,-90.9090909090909,4,2,3,70,0,0
220569,-90.9090909090909,4,2,1,70,0,0
221104,-90.9090909090909,4,2,1,5,0,0
221284,-76.9230769230769,4,2,1,70,0,0
222355,-90.9090909090909,4,2,1,70,0,0
225479,-90.9090909090909,4,2,1,5,0,0
225569,-90.9090909090909,4,2,1,70,0,0
226908,-90.9090909090909,4,2,1,5,0,0
226998,-90.9090909090909,4,2,1,70,0,0
227265,-90.9090909090909,4,2,1,5,0,0
227355,-90.9090909090909,4,2,1,70,0,0
227712,-90.9090909090909,4,2,1,70,0,0
228069,-90.9090909090909,4,2,1,70,0,0
228336,-90.9090909090909,4,2,1,5,0,0
228426,-90.9090909090909,4,2,1,70,0,0
229765,-90.9090909090909,4,2,1,5,0,0
229855,-90.9090909090909,4,2,1,70,0,0
230034,-90.9090909090909,4,2,3,70,0,0
230212,-90.9090909090909,4,2,1,70,0,0
230659,-90.9090909090909,4,2,3,70,0,0
230926,-90.9090909090909,4,2,1,70,0,0
232622,-90.9090909090909,4,2,1,5,0,0
232712,-76.9230769230769,4,2,1,70,0,0
233784,-90.9090909090909,4,2,1,70,0,0
236641,-76.9230769230769,4,2,1,70,0,0
236908,-76.9230769230769,4,2,1,5,0,0
236998,-76.9230769230769,4,2,1,70,0,0
237176,-90.9090909090909,4,2,1,70,0,0
238336,-90.9090909090909,4,2,1,5,0,0
238426,-90.9090909090909,4,2,1,70,0,0
239765,-90.9090909090909,4,2,1,5,0,0
239855,-90.9090909090909,4,2,1,70,0,0
241194,-90.9090909090909,4,2,1,70,0,0
241908,-90.9090909090909,4,2,1,5,0,0
241998,-90.9090909090909,4,2,1,70,0,0
244855,-90.9090909090909,4,2,1,70,0,0
245212,-90.9090909090909,4,2,1,70,0,0
246998,-90.9090909090909,4,2,3,70,0,0
247355,-90.9090909090909,4,2,1,70,0,0
247534,-90.9090909090909,4,2,3,70,0,0
247712,-90.9090909090909,4,2,1,70,0,0
247891,-90.9090909090909,4,2,3,70,0,0
248069,-1000,4,2,1,40,0,0
253069,-500,4,2,1,40,0,0
253784,-200,4,2,1,40,0,0
257533,-200,4,2,1,5,0,0
257712,-200,4,2,1,40,0,0
258248,-166.666666666667,4,2,1,40,0,0
258605,-166.666666666667,4,2,1,5,0,0
258784,-166.666666666667,4,2,1,40,0,0
259498,-166.666666666667,4,2,1,50,0,0
259855,-166.666666666667,4,2,3,50,0,0
260926,-166.666666666667,4,2,1,50,0,0
261105,-166.666666666667,4,2,3,50,0,0
262355,-166.666666666667,4,2,1,50,0,0
262534,-166.666666666667,4,2,3,50,0,0
262622,-166.666666666667,4,2,3,5,0,0
262712,-166.666666666667,4,2,3,50,0,0
265212,-166.666666666667,4,2,1,50,0,0
265391,-166.666666666667,4,2,3,50,0,0
265479,-166.666666666667,4,2,3,5,0,0
265569,-166.666666666667,4,2,3,50,0,0
266641,-166.666666666667,4,2,1,50,0,0
266819,-166.666666666667,4,2,3,50,0,0
268069,-166.666666666667,4,2,1,50,0,0
268336,-166.666666666667,4,2,1,5,0,0
268426,-166.666666666667,4,2,3,50,0,0
269498,-166.666666666667,4,2,1,50,0,0
269676,-166.666666666667,4,2,3,50,0,0
269855,-166.666666666667,4,2,1,50,0,0
270034,-166.666666666667,4,2,3,50,0,0
270212,-166.666666666667,4,2,1,50,0,0
270391,-166.666666666667,4,2,3,50,0,0
270569,-166.666666666667,4,2,1,50,0,0
270748,-166.666666666667,4,2,3,50,0,0
270882,-166.666666666667,4,2,3,5,0,0
270926,-166.666666666667,4,2,3,50,0,0
271641,-166.666666666667,4,2,1,50,0,0
271998,-166.666666666667,4,2,2,60,0,0
272355,-62.5,4,2,1,80,0,1
272622,-62.5,4,2,1,5,0,1
272712,-71.4285714285714,4,2,1,80,0,1
274051,-71.4285714285714,4,2,1,5,0,1
274141,-71.4285714285714,4,2,1,80,0,1
274408,-71.4285714285714,4,2,1,5,0,1
274498,-71.4285714285714,4,2,1,80,0,1
275122,-71.4285714285714,4,2,1,5,0,1
275212,-71.4285714285714,4,2,1,80,0,1
275479,-71.4285714285714,4,2,1,5,0,1
275569,-71.4285714285714,4,2,1,80,0,1
278336,-71.4285714285714,4,2,1,5,0,1
278426,-71.4285714285714,4,2,1,80,0,1
279051,-71.4285714285714,4,2,1,5,0,1
279141,-71.4285714285714,4,2,1,80,0,1
279765,-71.4285714285714,4,2,1,5,0,1
279855,-71.4285714285714,4,2,1,80,0,1
280122,-71.4285714285714,4,2,1,5,0,1
280212,-71.4285714285714,4,2,1,80,0,1
280926,-62.5,4,2,1,80,0,1
282712,-71.4285714285714,4,2,1,80,0,1
284855,-100,4,2,1,80,0,1
284944,-100,4,2,3,80,0,1
285212,-71.4285714285714,4,2,1,80,0,1
286908,-71.4285714285714,4,2,1,5,0,1
286998,-71.4285714285714,4,2,1,80,0,1
291193,-71.4285714285714,4,2,1,5,0,1
291284,-71.4285714285714,4,2,1,80,0,1
291908,-71.4285714285714,4,2,1,5,0,1
291998,-71.4285714285714,4,2,1,80,0,1
292355,-62.5,4,2,1,80,0,1
293784,-71.4285714285714,4,2,2,80,0,1
294498,-71.4285714285714,4,2,1,80,0,1
295212,-62.5,4,2,1,80,0,1
295479,-62.5,4,2,1,5,0,1
295569,-71.4285714285714,4,2,1,80,0,1
296908,-71.4285714285714,4,2,1,5,0,1
296998,-71.4285714285714,4,2,1,80,0,1
297265,-71.4285714285714,4,2,1,5,0,1
297355,-71.4285714285714,4,2,1,80,0,1
297979,-71.4285714285714,4,2,1,5,0,1
298069,-71.4285714285714,4,2,1,80,0,1
298336,-71.4285714285714,4,2,1,5,0,1
298426,-71.4285714285714,4,2,1,80,0,1
300391,-71.4285714285714,4,2,3,80,0,1
300569,-71.4285714285714,4,2,1,80,0,1
300748,-71.4285714285714,4,2,3,80,0,1
300926,-71.4285714285714,4,2,1,80,0,1
301193,-71.4285714285714,4,2,1,5,0,1
301284,-71.4285714285714,4,2,1,80,0,1
301908,-71.4285714285714,4,2,1,5,0,1
301998,-71.4285714285714,4,2,1,80,0,1
302622,-71.4285714285714,4,2,1,5,0,1
302712,-71.4285714285714,4,2,1,80,0,1
304498,-111.111111111111,4,2,1,80,0,1
305926,-71.4285714285714,4,2,1,80,0,1
306641,-71.4285714285714,4,2,1,80,0,1
307801,-71.4285714285714,4,2,3,80,0,1
308069,-71.4285714285714,4,2,1,80,0,1
309765,-71.4285714285714,4,2,1,5,0,1
309855,-71.4285714285714,4,2,1,80,0,1
315212,-62.5,4,2,1,80,0,1
316462,-71.4285714285714,4,2,1,80,0,1
316908,-71.4285714285714,4,2,1,5,0,1
316998,-71.4285714285714,4,2,1,80,0,1
318069,-71.4285714285714,4,2,1,80,0,0
318248,-71.4285714285714,4,2,1,70,0,0
319141,-76.9230769230769,4,2,1,70,0,0
320479,-76.9230769230769,4,2,1,5,0,0
320569,-66.6666666666667,4,2,1,70,0,0
320836,-66.6666666666667,4,2,1,5,0,0
320926,-76.9230769230769,4,2,1,70,0,0
321193,-76.9230769230769,4,2,1,5,0,0
321284,-76.9230769230769,4,2,1,70,0,0
325479,-76.9230769230769,4,2,1,5,0,0
325569,-76.9230769230769,4,2,1,70,0,0
327622,-76.9230769230769,4,2,1,5,0,0
327712,-76.9230769230769,4,2,1,70,0,0
329498,-66.6666666666667,4,2,1,70,0,0
329855,-76.9230769230769,4,2,1,70,0,0
331908,-76.9230769230769,4,2,1,5,0,0
331998,-76.9230769230769,4,2,1,70,0,0
332265,-76.9230769230769,4,2,1,5,0,0
332355,-76.9230769230769,4,2,1,70,0,0
332622,-76.9230769230769,4,2,1,5,0,0
332712,-76.9230769230769,4,2,1,70,0,0
336908,-76.9230769230769,4,2,1,5,0,0
336998,-76.9230769230769,4,2,1,70,0,0
339051,-76.9230769230769,4,2,1,5,0,0
339141,-76.9230769230769,4,2,1,70,0,0
340926,-125,4,2,1,70,0,1
341016,-125,4,2,1,70,0,0
341105,-125,4,2,1,50,0,0
341819,-200,4,2,1,50,0,0
343426,-200,4,2,1,50,0,0
344141,-125,4,2,1,50,0,0
344676,-200,4,2,1,50,0,0
346284,-200,4,2,1,50,0,0
346641,-200,4,2,1,50,0,0
346998,-125,4,2,1,50,0,0
347534,-200,4,2,1,50,0,0
349141,-200,4,2,1,50,0,0
349855,-125,4,2,1,50,0,0
350391,-200,4,2,1,50,0,0
351998,-125,4,2,1,50,0,0
352355,-400,4,2,1,50,0,0
356998,-400,4,2,1,5,0,0

[Colours]
Combo1 : 149,202,255
Combo2 : 192,192,192

[HitObjects]
247,258,2355,5,6,0:0:0:0:
247,258,2534,1,2,0:0:0:0:
306,206,2712,2,0,B|342:188|374:219|374:219|381:245|403:261,1,107.999996704102,2|0,0:0|0:0,0:0:0:0:
451,279,3248,2,0,P|389:283|338:320,1,107.999996704102,2|0,0:0|2:0,0:0:0:0:
287,378,3784,6,0,P|229:367|178:360,1,107.999996704102,2|0,0:0|0:0,0:0:0:0:
46,293,4319,2,0,P|102:287|154:275,1,107.999996704102,2|0,0:0|2:0,0:0:0:0:
255,204,4855,2,0,P|249:235|245:266,1,53.9999983520508,2|2,0:0|0:0,0:0:0:0:
180,190,5212,5,2,0:0:0:0:
180,190,5391,1,2,0:0:0:0:
46,293,5569,2,0,P|83:256|86:203,1,107.999996704102,2|0,0:0|0:0,0:0:0:0:
61,45,6105,2,0,P|73:96|118:124,1,107.999996704102,2|0,0:0|2:0,0:0:0:0:
257,181,6641,6,0,P|249:154|230:132,2,53.9999983520508,2|0|0,0:0|0:0|0:0,0:0:0:0:
376,104,7176,2,0,P|384:77|403:55,2,53.9999983520508,2|0|0,0:0|0:0|0:0,0:0:0:0:
378,230,7712,2,0,L|367:297,1,53.9999983520508,2|0,0:0|0:0,0:0:0:0:
358,384,8069,5,2,0:0:0:0:
358,384,8248,1,2,0:0:0:0:
278,317,8426,2,0,P|225:326|167:334,1,107.999996704102,2|0,0:0|0:0,0:0:0:0:
54,225,8962,2,0,P|106:234|164:242,1,107.999996704102,2|0,0:0|2:0,0:0:0:0:
278,133,9498,6,0,P|225:142|167:150,1,107.999996704102,2|0,0:0|0:0,0:0:0:0:
54,41,10034,2,0,P|106:50|164:58,1,107.999996704102,2|0,0:0|2:0,0:0:0:0:
355,117,10569,2,0,P|346:90|327:70,2,53.9999983520508,2|2|2,0:0|0:0|0:0,0:0:0:0:
336,191,11105,5,2,0:0:0:0:
171,150,11284,2,0,P|211:184|235:232,1,107.999996704102,2|0,0:0|0:0,0:0:0:0:
363,290,11819,2,0,P|321:326|297:383,1,107.999996704102,2|0,0:0|2:0,0:0:0:0:
457,314,12355,6,0,P|456:287|448:260,2,53.9999983520508,2|0|0,0:0|0:0|0:0,0:0:0:0:
336,191,12891,2,0,P|359:203|386:210,2,53.9999983520508,2|0|0,0:0|0:0|0:0,0:0:0:0:
461,180,13426,2,0,P|480:161|503:147,1,53.9999983520508,2|0,0:0|0:0,0:0:0:0:
457,314,13784,6,0,B|406:290|362:315|362:315|311:372|257:355,1,215.999993408203,6|2,0:0|0:0,0:0:0:0:
259,355,15034,1,0,0:0:0:0:
198,240,15212,6,0,P|251:237|288:286,1,107.999996704102,2|2,0:0|0:0,0:0:0:0:
134,339,15748,2,0,L|77:330,1,53.9999983520508,2|0,0:0|0:0,0:0:0:0:
0,232,16105,1,2,0:0:0:0:
0,232,16462,2,0,L|177:203,1,161.999995056153,2|0,0:0|0:0,0:0:0:0:
160,206,17534,2,0,L|153:166,2,36,2|2|2,0:0|0:0|0:0,0:0:0:0:
179,339,18069,6,0,B|216:313|258:349|254:353|290:392|347:367,1,161.999995056153,2|0,0:0|2:0,0:0:0:0:
328,372,18784,1,2,0:0:0:0:
415,196,19141,1,2,0:0:0:0:
449,384,19498,6,0,B|412:317|467:267|467:267|462:263|462:263|525:202|465:126,1,269.999991760254,2|0,0:0|2:0,0:0:0:0:
476,141,20569,1,2,0:0:0:0:
405,80,20748,6,0,B|371:92|340:69|334:22|368:-23|427:-28|483:-15|508:62,1,269.999991760254,2|0,0:0|0:0,0:0:0:0:
476,141,21997,1,2,0:0:0:0:
405,80,22176,1,2,0:0:0:0:
415,196,22355,6,0,P|366:181|299:180,1,107.999996704102,2|2,0:0|0:0,0:0:0:0:
189,191,22891,2,0,P|221:171|253:112,1,80.9999975280763,2|0,0:0|2:0,0:0:0:0:
273,64,23248,2,0,P|302:79|319:102,1,53.9999983520508,2|0,0:0|0:0,0:0:0:0:
194,76,23605,6,0,B|174:29|123:19|84:45|72:94|72:94|103:103|120:130,1,215.999993408203,2|0,0:0|2:0,0:0:0:0:
82,210,24498,1,2,0:0:0:0:
189,191,24676,1,2,0:0:0:0:
243,268,24855,1,2,0:0:0:0:
222,358,25034,1,2,0:0:0:0:
55,349,25212,6,0,B|48:299|87:265|134:267|169:303|169:303|146:327|145:359,1,215.999993408203,6|8,3:2|0:0,0:0:0:0:
147,345,26462,1,2,3:2:0:0:
243,268,26641,6,0,P|301:278|357:293,1,107.999996704102,2|2,3:2|0:0,0:0:0:0:
424,272,27176,1,2,0:0:0:0:
472,188,27355,1,8,0:0:0:0:
360,166,27534,2,0,P|366:198|370:231,1,53.9999983520508,2|0,0:0|0:0,0:0:0:0:
436,78,27891,5,2,3:2:0:0:
436,78,27980,1,0,3:2:0:0:
436,78,28069,2,0,B|414:47|365:39|338:61|338:61|332:93|299:109,1,161.999995056153,2|0,3:2|2:0,0:0:0:0:
166,78,28784,2,0,P|192:45|258:50,1,107.999996704102,8|2,0:0|3:2,0:0:0:0:
249,56,29230,1,2,3:2:0:0:
246,65,29319,1,2,3:2:0:0:
243,74,29409,1,2,0:0:0:0:
240,83,29498,6,0,P|224:113|220:137,1,53.9999983520508,2|0,3:2|0:0,0:0:0:0:
139,208,29855,2,0,P|133:182|120:159,1,53.9999983520508,0|0,3:2|0:0,0:0:0:0:
73,72,30212,1,2,0:0:0:0:
73,72,30569,2,0,P|30:93|4:136,1,80.9999975280763,2|0,0:0|2:0,0:0:0:0:
10,118,30926,6,0,B|52:147|42:207|42:207|49:213|49:213|23:272|69:319,1,215.999993408203,2|8,3:2|0:0,0:0:0:0:
62,312,31998,1,2,0:0:0:0:
195,255,32176,6,0,B|245:258|251:200|251:200|204:160|112:176|114:276,1,269.999991760254,2|8,3:2|0:0,0:0:0:0:
115,253,33426,1,2,0:0:0:0:
145,373,33605,1,2,3:2:0:0:
290,295,33784,6,0,P|247:263|195:255,1,107.999996704102,2|2,3:2|0:0,0:0:0:0:
323,384,34319,2,0,P|344:367|375:356,1,53.9999983520508,2|8,3:2|0:0,0:0:0:0:
421,274,34676,2,0,P|447:276|477:290,1,53.9999983520508,2|0,3:2|0:0,0:0:0:0:
345,208,35034,1,2,3:2:0:0:
345,208,35212,6,0,P|343:179|336:149,1,53.9999983520508
461,132,35569,2,0,P|465:105|473:79,1,53.9999983520508,2|0,0:0|0:0,0:0:0:0:
421,274,35926,2,0,P|425:247|433:221,1,53.9999983520508,2|0,0:0|0:0,0:0:0:0:
317,82,36284,6,0,P|297:87|282:100,1,40.4999987640381,2|0,0:0|2:0,0:0:0:0:
283,101,36641,6,0,B|248:109|221:90|221:90|184:56|132:73,1,135,4|0,3:2|2:0,0:0:0:0:
98,29,36998,2,0,P|106:75|113:125,1,90,0|0,3:2|2:0,0:0:0:0:
127,261,37355,2,0,P|93:228|41:233,1,90,10|0,3:2|2:0,0:0:0:0:
74,365,37712,1,2,3:2:0:0:
205,251,37891,6,0,B|247:230|293:263|293:263|313:319|376:316,1,180,2|0,0:0|2:0,0:0:0:0:
447,219,38426,2,0,P|397:215|358:255,1,90,2|0,3:2|2:0,0:0:0:0:
476,384,38784,2,0,L|459:279,1,90,10|0,3:2|2:0,0:0:0:0:
381,149,39141,2,0,L|364:253,1,90,2|0,3:2|2:0,0:0:0:0:
226,344,39498,6,0,B|181:359|146:306|169:250|169:250|192:263|225:251,1,180,2|2,3:2|3:2,0:0:0:0:
226,344,40034,1,0,0:0:0:0:
203,177,40212,2,0,P|256:192|280:232,1,90,2|0,3:2|2:0,0:0:0:0:
323,334,40569,1,2,3:2:0:0:
395,237,40748,6,0,P|386:189|379:141,1,90,2|0,0:0|3:2,0:0:0:0:
203,177,41105,2,0,P|211:129|218:81,1,90,0|0,0:0|3:2,0:0:0:0:
109,20,41462,1,0,0:0:0:0:
123,109,41641,1,8,3:2:0:0:
201,0,41819,1,0,0:0:0:0:
217,88,41998,6,0,L|187:275,2,180,2|2|2,3:2|3:2|3:2,0:0:0:0:
200,288,43069,2,0,L|215:200,1,90,10|0,3:2|2:0,0:0:0:0:
39,283,43426,2,0,L|54:371,1,90,2|0,3:2|2:0,0:0:0:0:
22,211,43784,6,0,B|58:192|99:228|99:228|106:262|156:273,1,135,0|0,3:2|2:0,0:0:0:0:
200,288,44141,2,0,L|215:200,1,90,2|0,3:2|2:0,0:0:0:0:
335,92,44498,2,0,L|350:180,1,90,10|0,3:2|2:0,0:0:0:0:
404,304,44855,2,0,P|450:258|514:284,1,135,2|0,3:2|2:0,0:0:0:0:
428,374,45212,6,0,B|382:397|341:355|349:356|314:300|243:329,2,180,2|0|8,3:2|3:2|3:2,0:0:0:0:
266,322,46284,1,2,3:2:0:0:
404,304,46462,6,0,P|393:256|388:209,1,90,2|0,0:0|3:2,0:0:0:0:
247,143,46819,2,0,P|242:187|232:231,1,90,0|0,0:0|3:2,0:0:0:0:
87,310,47176,2,0,P|131:292|178:320,1,90,0|10,0:0|3:2,0:0:0:0:
128,384,47534,1,0,0:0:0:0:
9,367,47712,1,2,3:2:0:0:
0,252,47891,1,2,0:0:0:0:
108,176,48069,6,0,L|85:320,1,135,2|0,3:2|2:0,0:0:0:0:
87,309,48426,2,0,B|121:288|160:311|160:311|181:347|223:350,1,135,2|0,3:2|2:0,0:0:0:0:
263,384,48784,2,0,L|247:287,1,90,10|0,3:2|2:0,0:0:0:0:
235,203,49141,1,2,3:2:0:0:
359,304,49319,2,0,L|374:207,1,90,2|0,0:0|3:2,0:0:0:0:
388,126,49676,1,0,0:0:0:0:
261,94,49855,6,0,P|302:43|373:64,1,135,2|0,3:2|2:0,0:0:0:0:
388,126,50212,2,0,L|371:222,1,90,10|0,3:2|2:0,0:0:0:0:
359,304,50569,1,2,3:2:0:0:
235,203,50748,1,2,0:0:0:0:
210,380,50926,6,0,L|302:365,1,90,2|0,3:2|2:0,0:0:0:0:
512,279,51284,2,0,L|419:264,1,90,2|0,3:2|2:0,0:0:0:0:
388,126,51641,2,0,B|428:108|464:140|464:174|464:174|443:184|428:215,1,135,10|0,3:2|2:0,0:0:0:0:
423,264,51998,1,2,3:2:0:0:
287,139,52176,6,0,B|251:102|195:123|195:123|174:174|119:171,1,180,2|0,0:0|2:0,0:0:0:0:
46,61,52712,2,0,P|92:63|125:102,1,90,2|0,3:2|2:0,0:0:0:0:
44,241,53069,2,0,L|59:146,1,90,10|0,3:2|2:0,0:0:0:0:
35,133,53426,2,0,L|59:285,1,135,2|0,3:2|2:0,0:0:0:0:
76,335,53784,6,0,B|109:279|169:309|169:309|198:345|239:332,1,161.999995056153,6|0,3:2|2:0,0:0:0:0:
285,256,54141,2,0,P|254:254|226:278,1,53.9999983520508,2|0,3:2|0:0,0:0:0:0:
297,327,54319,2,0,L|267:141,1,161.999995056153,6|0,0:0|2:0,0:0:0:0:
350,173,54676,2,0,L|360:120,1,53.9999983520508,2|0,0:0|0:0,0:0:0:0:
301,44,54855,2,0,P|358:98|434:81,1,161.999995056153,6|0,3:2|2:0,0:0:0:0:
485,23,55212,5,0,3:2:0:0:
512,151,55391,2,0,L|502:93,1,53.9999983520508,8|2,0:0|0:0,0:0:0:0:
381,29,55569,1,2,3:2:0:0:
381,29,55659,1,8,0:0:0:0:
381,29,55748,2,0,L|371:87,1,53.9999983520508,2|2,0:0|0:0,0:0:0:0:
312,261,55926,2,0,B|270:232|268:186|268:186|270:232|230:259,1,161.999995056153,8|0,3:2|2:0,0:0:0:0:
190,198,56284,2,0,L|365:170,1,161.999995056153,2|0,3:2|2:0,0:0:0:0:
354,155,56641,6,0,L|247:170,1,107.999996704102,6|0,3:2|0:0,0:0:0:0:
107,60,56998,2,0,L|213:75,1,107.999996704102,0|0,3:2|0:0,0:0:0:0:
87,197,57355,2,0,P|18:158|54:80,1,161.999995056153,8|0,3:2|2:0,0:0:0:0:
107,60,57712,6,0,L|103:82,6,13.4999995880127,2|2|2|2|2|2|2,3:2|0:0|0:0|0:0|0:0|0:0|0:0,0:0:0:0:
110,46,58069,5,10,3:2:0:0:
122,32,58159,1,2,0:0:0:0:
145,26,58248,1,10,0:0:0:0:
176,26,58337,1,2,0:0:0:0:
208,43,58426,1,10,3:2:0:0:
221,81,58516,1,2,0:0:0:0:
214,125,58605,1,10,0:0:0:0:
176,149,58694,1,2,0:0:0:0:
134,148,58784,5,10,0:0:0:0:
162,102,58873,1,2,0:0:0:0:
221,81,58962,1,2,0:0:0:0:
284,106,59051,1,2,0:0:0:0:
318,171,59141,1,2,0:0:0:0:
371,225,59230,1,2,0:0:0:0:
447,222,59319,1,2,0:0:0:0:
502,165,59409,1,2,0:0:0:0:
492,88,59498,6,0,P|411:124|371:227,1,202.500007724762,6|0,3:2|2:0,0:0:0:0:
482,267,59855,2,0,P|469:240|447:222,1,58.4999973220826,8|0,3:2|0:0,0:0:0:0:
392,363,60034,2,0,L|515:343,1,116.999994644165,2|0,0:0|3:2,0:0:0:0:
376,384,60391,2,0,L|499:364,1,116.999994644165,2|8,0:0|3:2,0:0:0:0:
370,225,60748,1,2,0:0:0:0:
243,323,60926,6,0,B|203:303|159:328|159:328|127:370|79:359,1,175.499991966248,0|0,3:2|2:0,0:0:0:0:
32,266,61284,2,0,B|14:242|33:207|33:207|96:213|96:303,1,175.499991966248,8|0,3:2|2:0,0:0:0:0:
83,360,61641,1,2,3:2:0:0:
161,250,61819,1,2,0:0:0:0:
314,356,61998,2,0,B|357:387|421:365|416:285|416:285|391:299|378:296,1,202.500007724762,10|0,3:2|2:0,0:0:0:0:
306,281,62355,6,0,B|292:278|267:292|267:292|260:216|326:189|371:225,1,202.500007724762,2|0,3:2|2:0,0:0:0:0:
378,296,62712,2,0,L|303:280,1,74.2500007081032,10|0,3:2|0:0,0:0:0:0:
82,227,62891,2,0,P|116:176|182:170,1,116.999994644165,2|0,0:0|3:2,0:0:0:0:
82,227,63248,2,0,P|137:214|168:165,1,116.999994644165,2|8,0:0|3:2,0:0:0:0:
26,278,63605,1,2,0:0:0:0:
221,112,63784,1,0,3:2:0:0:
1,147,63962,6,0,L|11:215,1,58.4999973220826,2|0,0:0|0:0,0:0:0:0:
39,354,64141,1,8,3:2:0:0:
244,244,64319,2,0,L|233:175,1,58.4999973220826,2|2,0:0|0:0,0:0:0:0:
208,34,64498,5,2,3:2:0:0:
222,25,64587,1,2,0:0:0:0:
247,22,64676,1,2,0:0:0:0:
279,31,64766,1,2,0:0:0:0:
306,59,64855,1,10,3:2:0:0:
334,94,64944,1,2,0:0:0:0:
386,110,65034,1,2,0:0:0:0:
439,92,65123,1,2,0:0:0:0:
463,38,65212,6,0,P|391:78|369:178,1,175.499991966248,6|0,3:2|2:0,0:0:0:0:
313,218,65569,2,0,P|299:187|262:166,1,58.4999973220826,10|0,3:2|0:0,0:0:0:0:
219,220,65748,2,0,P|233:251|270:272,1,58.4999973220826,2|0,0:0|0:0,0:0:0:0:
373,323,65926,2,0,B|427:297|435:234|435:234|438:283|489:305,1,175.499991966248,0|0,3:2|2:0,0:0:0:0:
373,323,66284,2,0,P|342:316|322:292,1,58.4999973220826,10|0,3:2|0:0,0:0:0:0:
207,141,66462,2,0,P|176:148|156:172,1,58.4999973220826,2|0,0:0|0:0,0:0:0:0:
73,288,66641,6,0,P|159:295|219:357,1,175.499991966248,0|0,3:2|2:0,0:0:0:0:
219,220,66998,2,0,P|159:281|73:288,1,175.499991966248,10|0,3:2|2:0,0:0:0:0:
34,354,67355,2,0,L|16:239,1,116.999994644165,2|0,3:2|0:0,0:0:0:0:
106,96,67712,2,0,L|87:211,1,116.999994644165,10|0,3:2|0:0,0:0:0:0:
44,37,68069,6,0,B|106:-11|170:37|170:37|218:106|296:76,2,270.000010299683,2|8|0,3:2|3:2|3:2,0:0:0:0:
285,80,68962,1,2,0:0:0:0:
106,96,69141,1,8,3:2:0:0:
248,6,69319,1,2,0:0:0:0:
202,191,69498,6,0,L|181:63,1,116.999994644165,0|2,3:2|0:0,0:0:0:0:
181,53,69766,1,2,0:0:0:0:
181,53,69855,1,10,3:2:0:0:
320,168,70034,1,2,0:0:0:0:
341,13,70212,1,2,3:2:0:0:
202,191,70391,1,2,0:0:0:0:
384,127,70569,5,10,3:2:0:0:
365,104,70658,1,2,0:0:0:0:
340,90,70747,1,2,0:0:0:0:
311,88,70836,1,2,0:0:0:0:
283,96,70926,6,0,B|257:151|304:203|304:203|301:210|301:210|354:260|308:341,1,233.999989288331,2|8,3:2|3:2,0:0:0:0:
88,383,71462,1,2,0:0:0:0:
255,276,71641,1,2,3:2:0:0:
67,206,71819,1,2,0:0:0:0:
171,354,71998,5,2,3:2:0:0:
175,325,72087,1,2,0:0:0:0:
180,296,72176,1,2,0:0:0:0:
184,267,72265,1,2,0:0:0:0:
189,238,72355,6,0,B|213:184|299:180|336:254|336:254|307:269|279:305,1,233.999989288331,2|8,3:2|3:2,0:0:0:0:
74,213,72891,1,2,0:0:0:0:
74,213,72980,1,2,0:0:0:0:
74,213,73069,1,0,3:2:0:0:
240,66,73248,1,2,0:0:0:0:
33,25,73426,1,10,3:2:0:0:
225,152,73605,1,2,0:0:0:0:
119,6,73784,6,0,L|146:179,1,175.499991966248,2|0,3:2|2:0,0:0:0:0:
160,255,74141,1,10,3:2:0:0:
240,66,74319,2,0,P|302:77|349:118,1,116.999994644165,2|0,0:0|3:2,0:0:0:0:
315,269,74676,2,0,P|355:220|414:200,1,116.999994644165,2|0,0:0|3:2,0:0:0:0:
468,114,75034,5,2,0:0:0:0:
468,114,75123,1,2,0:0:0:0:
468,114,75212,2,0,L|445:256,1,116.999994644165,0|0,3:2|0:0,0:0:0:0:
411,378,75569,5,10,3:2:0:0:
405,366,75659,1,2,0:0:0:0:
410,344,75748,1,2,0:0:0:0:
435,337,75837,1,2,0:0:0:0:
449,360,75926,5,2,3:2:0:0:
411,378,76016,1,2,0:0:0:0:
354,372,76105,1,2,0:0:0:0:
295,342,76194,1,2,0:0:0:0:
234,313,76284,1,10,3:2:0:0:
182,304,76373,1,2,0:0:0:0:
141,311,76462,1,2,0:0:0:0:
106,336,76551,1,2,0:0:0:0:
95,366,76641,6,0,P|87:302|75:245,1,116.999994644165,2|0,3:2|0:0,0:0:0:0:
6,112,76998,1,8,3:2:0:0:
178,190,77176,1,2,0:0:0:0:
178,190,77266,1,2,0:0:0:0:
178,190,77355,2,0,P|238:178|304:170,1,116.999994644165,2|0,3:2|0:0,0:0:0:0:
442,76,77712,2,0,P|383:68|326:56,1,116.999994644165,10|0,3:2|0:0,0:0:0:0:
410,294,78069,6,0,P|476:263|409:215,1,175.499991966248,2|0,3:2|2:0,0:0:0:0:
351,246,78426,2,0,L|370:367,1,116.999994644165,8|0,3:2|0:0,0:0:0:0:
138,362,78784,2,0,P|204:315|297:349,1,175.499991966248,2|0,3:2|2:0,0:0:0:0:
369,361,79141,2,0,L|351:246,1,116.999994644165,8|0,3:2|0:0,0:0:0:0:
327,28,79498,6,0,B|257:2|208:49|208:49|162:137|78:99,2,270.000010299683,2|8|0,3:2|3:2|3:2,0:0:0:0:
93,105,80391,1,2,0:0:0:0:
228,270,80569,1,2,3:2:0:0:
126,31,80748,1,2,0:0:0:0:
33,220,80926,6,0,L|110:207,1,58.4999973220826,8|0,3:2|0:0,0:0:0:0:
246,188,81105,1,8,0:0:0:0:
267,361,81284,6,0,L|189:348,1,58.4999973220826,8|0,3:2|0:0,0:0:0:0:
56,327,81463,1,8,0:0:0:0:
246,188,81641,5,8,3:2:0:0:
262,176,81730,1,2,0:0:0:0:
283,171,81819,1,2,0:0:0:0:
301,174,81909,1,2,0:0:0:0:
324,189,81998,5,10,3:2:0:0:
319,134,82087,1,2,0:0:0:0:
275,93,82176,1,2,0:0:0:0:
212,83,82266,1,2,0:0:0:0:
159,112,82355,6,0,P|222:202|237:322,1,202.500007724762,6|0,3:2|2:0,0:0:0:0:
254,384,82712,2,0,P|272:361|311:349,1,58.4999973220826,10|0,3:2|0:0,0:0:0:0:
465,339,82891,2,0,L|444:208,1,116.999994644165,2|0,0:0|3:2,0:0:0:0:
485,353,83248,2,0,L|464:222,1,116.999994644165,2|8,0:0|3:2,0:0:0:0:
298,349,83605,1,2,0:0:0:0:
418,142,83784,6,0,B|367:117|313:169|339:218|339:218|363:203|390:205,1,175.499991966248,0|0,3:2|2:0,0:0:0:0:
446,223,84141,2,0,L|272:195,1,175.499991966248,8|0,3:2|2:0,0:0:0:0:
194,187,84498,1,2,3:2:0:0:
350,28,84676,1,2,0:0:0:0:
180,96,84855,2,0,B|234:80|247:23|247:23|243:69|284:93,1,175.499991966248,10|0,3:2|2:0,0:0:0:0:
167,14,85212,6,0,L|194:188,1,175.499991966248,2|0,3:2|2:0,0:0:0:0:
263,253,85569,2,0,L|273:186,1,58.4999973220826,10|0,3:2|0:0,0:0:0:0:
350,27,85748,2,0,P|406:20|449:58,1,116.999994644165,2|0,0:0|3:2,0:0:0:0:
350,27,86105,2,0,P|392:64|449:58,1,116.999994644165,2|8,0:0|3:2,0:0:0:0:
283,0,86462,1,2,0:0:0:0:
512,86,86641,1,0,3:2:0:0:
292,73,86819,6,0,L|300:146,1,58.4999973220826,2|0,0:0|0:0,0:0:0:0:
316,280,86998,1,8,3:2:0:0:
451,132,87176,2,0,L|443:205,1,58.4999973220826,2|2,0:0|0:0,0:0:0:0:
423,339,87355,5,0,3:2:0:0:
399,329,87444,1,2,0:0:0:0:
383,302,87534,1,2,0:0:0:0:
389,260,87623,1,2,0:0:0:0:
422,229,87712,1,10,3:2:0:0:
474,212,87801,1,2,0:0:0:0:
512,167,87891,1,2,0:0:0:0:
512,95,87980,1,2,0:0:0:0:
449,57,88069,6,0,P|356:64|245:96,1,175.499991966248,0|0,3:2|2:0,0:0:0:0:
206,136,88426,2,0,P|238:145|272:170,1,58.4999973220826,10|0,3:2|0:0,0:0:0:0:
422,229,88605,2,0,P|390:238|356:263,1,58.4999973220826,2|0,0:0|0:0,0:0:0:0:
181,318,88784,2,0,B|132:305|129:255|129:255|106:301|41:301,1,175.499991966248,0|0,3:2|2:0,0:0:0:0:
8,202,89141,2,0,P|43:207|62:234,1,58.4999973220826,10|0,3:2|0:0,0:0:0:0:
181,318,89319,2,0,P|216:316|238:300,1,58.4999973220826,2|0,0:0|0:0,0:0:0:0:
275,83,89498,6,0,P|353:86|427:166,1,175.499991966248,0|0,3:2|2:0,0:0:0:0:
422,15,89855,2,0,P|360:76|274:82,1,175.499991966248,10|0,3:2|2:0,0:0:0:0:
218,33,90212,2,0,L|237:153,1,116.999994644165,2|0,3:2|0:0,0:0:0:0:
129,255,90569,2,0,L|148:134,1,116.999994644165,10|0,3:2|0:0,0:0:0:0:
83,330,90926,6,0,B|148:361|200:309|200:309|210:315|210:315|267:252|344:294,2,270.000010299683,2|8|0,3:2|3:2|3:2,0:0:0:0:
327,286,91819,1,0,0:0:0:0:
129,255,91998,1,10,3:2:0:0:
285,356,92176,1,2,0:0:0:0:
189,164,92355,6,0,L|211:304,1,116.999994644165,0|2,3:2|0:0,0:0:0:0:
215,309,92623,1,2,0:0:0:0:
215,309,92712,1,10,3:2:0:0:
368,92,92891,1,2,0:0:0:0:
327,286,93069,1,2,3:2:0:0:
273,118,93248,1,2,0:0:0:0:
384,237,93426,5,10,3:2:0:0:
413,241,93515,1,2,0:0:0:0:
441,232,93604,1,2,0:0:0:0:
461,212,93693,1,2,0:0:0:0:
471,185,93784,6,0,B|430:146|348:155|328:212|328:212|373:211|403:263,1,233.999989288331,2|8,3:2|3:2,0:0:0:0:
236,384,94319,1,2,0:0:0:0:
273,118,94498,1,2,3:2:0:0:
327,286,94676,1,2,2:2:0:0:
150,220,94855,5,2,3:2:0:0:
161,193,94944,1,2,0:0:0:0:
185,178,95033,1,2,0:0:0:0:
214,179,95122,1,2,0:0:0:0:
237,196,95212,6,0,B|178:229|124:178|136:175|79:112|14:161,1,233.999989288331,2|8,3:2|3:2,0:0:0:0:
89,384,95748,1,2,0:0:0:0:
89,384,95837,1,2,0:0:0:0:
89,384,95926,1,2,3:2:0:0:
62,220,96105,1,2,0:0:0:0:
185,341,96284,1,8,3:2:0:0:
201,131,96462,1,2,0:0:0:0:
6,310,96641,6,0,B|57:287|62:220|62:220|70:260|115:274,1,175.499991966248,2|0,3:2|2:0,0:0:0:0:
177,261,96998,1,10,3:2:0:0:
116,86,97176,2,0,L|136:215,1,116.999994644165,2|0,0:0|3:2,0:0:0:0:
322,3,97534,2,0,L|301:132,1,116.999994644165,2|8,0:0|3:2,0:0:0:0:
204,7,97891,1,2,0:2:0:0:
418,99,98069,1,0,3:2:0:0:
207,188,98248,5,2,0:0:0:0:
277,189,98337,1,2,0:0:0:0:
333,220,98426,1,10,3:2:0:0:
369,264,98516,1,2,0:0:0:0:
393,310,98605,1,2,0:0:0:0:
414,346,98694,1,2,0:0:0:0:
442,365,98784,1,2,3:2:0:0:
465,368,98873,1,2,0:0:0:0:
478,357,98962,5,2,0:0:0:0:
476,334,99051,1,2,0:0:0:0:
442,309,99141,1,2,3:2:0:0:
393,310,99230,1,2,0:0:0:0:
344,334,99319,1,2,0:0:0:0:
286,371,99409,1,2,0:0:0:0:
216,379,99498,6,0,B|153:405|84:344|115:251|115:251|143:283|196:278,2,270.000010299683,2|8|0,3:2|3:2|3:2,0:0:0:0:
168,277,100391,1,0,0:0:0:0:
10,380,100569,1,10,3:2:0:0:
46,164,100748,1,2,0:0:0:0:
216,378,100926,6,0,P|156:343|47:352,1,175.499991966248,0|0,3:2|2:0,0:0:0:0:
10,380,101284,2,0,L|29:259,1,116.999994644165,8|0,3:2|0:0,0:0:0:0:
63,82,101641,5,2,3:2:0:0:
80,93,101730,1,2,0:0:0:0:
105,98,101819,1,2,0:0:0:0:
140,94,101909,1,2,0:0:0:0:
175,73,101998,1,10,3:2:0:0:
203,38,102087,1,2,0:0:0:0:
258,9,102176,1,2,0:0:0:0:
324,11,102266,1,2,0:0:0:0:
377,48,102355,6,0,L|334:326,2,270.000010299683,2|8|0,3:2|3:2|3:2,0:0:0:0:
335,314,103248,1,0,0:0:0:0:
474,191,103426,1,10,3:2:0:0:
490,377,103605,5,2,0:0:0:0:
490,377,103694,1,2,0:0:0:0:
490,377,103784,2,0,B|499:327|457:289|413:290|413:290|421:320|410:340,1,175.499991966248,0|0,3:2|2:0,0:0:0:0:
366,384,104141,1,10,3:2:0:0:
306,198,104319,1,2,0:0:0:0:
196,382,104498,5,2,3:2:0:0:
214,377,104587,1,2,0:0:0:0:
229,359,104676,1,2,0:0:0:0:
231,332,104766,1,2,0:0:0:0:
214,307,104855,1,10,3:2:0:0:
169,299,104944,1,2,0:0:0:0:
127,332,105034,1,2,0:0:0:0:
76,378,105123,1,2,0:0:0:0:
9,369,105212,6,0,B|-17:305|31:261|31:261|105:236|96:164,1,233.999989288331,6|8,3:2|3:2,0:0:0:0:
0,10,105748,1,0,0:0:0:0:
24,185,105926,1,0,3:2:0:0:
179,23,106105,1,0,0:0:0:0:
12,100,106284,2,0,L|157:77,1,116.999994644165,8|0,3:2|0:0,0:0:0:0:
306,176,106641,6,0,L|160:153,1,116.999994644165,2|0,3:2|0:0,0:0:0:0:
312,78,106998,1,8,3:2:0:0:
266,273,107176,1,0,0:0:0:0:
467,237,107355,2,0,B|498:184|456:152|454:160|403:113|437:59,1,175.499991966248,2|0,3:2|2:0,0:0:0:0:
461,68,107712,2,0,P|447:146|432:245,1,175.499991966248,10|0,3:2|2:0,0:0:0:0:
457,320,108069,6,0,P|365:323|272:357,1,175.499991966248,2|0,3:2|2:0,0:0:0:0:
208,376,108426,2,0,P|142:375|93:359,1,116.999994644165,8|0,3:2|0:0,0:0:0:0:
162,223,108784,2,0,L|199:269,1,58.4999973220826,2|0,3:2|0:0,0:0:0:0:
82,270,108962,2,0,L|25:280,1,58.4999973220826,2|0,0:2|0:0,0:0:0:0:
81,177,109141,2,0,L|103:123,1,58.4999973220826,10|0,3:2|0:0,0:0:0:0:
115,284,109319,6,0,L|0:303,1,116.999994644165,2|0,0:0|3:2,0:0:0:0:
311,158,109676,2,0,L|195:139,1,116.999994644165,2|10,0:0|3:2,0:0:0:0:
449,285,110034,2,0,L|333:303,1,116.999994644165,2|0,0:0|3:2,0:0:0:0:
501,181,110391,5,2,0:0:0:0:
431,185,110480,1,2,0:0:0:0:
380,216,110569,1,10,3:2:0:0:
349,260,110659,1,2,0:0:0:0:
334,304,110748,1,2,0:0:0:0:
328,346,110837,1,2,0:0:0:0:
332,379,110926,6,0,B|323:322|248:287|195:315|195:315|221:337|216:379,1,233.999989288331,0|8,3:2|3:2,0:0:0:0:
483,384,111462,1,2,0:0:0:0:
483,384,111551,1,2,0:0:0:0:
483,384,111641,2,0,P|470:321|460:242,1,116.999994644165,2|0,3:2|0:0,0:0:0:0:
354,137,111998,2,0,P|346:192|335:252,1,116.999994644165,8|0,3:2|0:0,0:0:0:0:
412,84,112355,6,0,B|466:107|499:146|499:146|466:108|472:59,1,175.499991966248,2|0,3:2|2:0,0:0:0:0:
460,13,112712,2,0,B|394:-12|345:36|345:36|307:99|246:81,1,233.999989288331,10|0,3:2|3:2,0:0:0:0:
27,26,113248,1,2,0:0:0:0:
27,26,113337,1,2,0:0:0:0:
27,26,113426,2,0,P|70:64|81:134,1,116.999994644165,10|0,3:2|0:0,0:0:0:0:
95,282,113784,6,0,B|164:286|210:199|154:151|154:151|143:177|118:188,1,233.999989288331,2|8,3:2|3:2,0:0:0:0:
18,384,114319,1,2,0:0:0:0:
18,384,114409,1,2,0:0:0:0:
18,384,114498,2,0,P|98:357|214:358,1,175.499991966248,0|0,3:2|2:0,0:0:0:0:
266,367,114855,2,0,P|283:311|234:299,1,116.999994644165,8|0,3:2|0:0,0:0:0:0:
362,362,115212,6,0,B|379:312|341:261|341:261|385:306|455:307,1,233.999989288331,2|8,3:2|3:2,0:0:0:0:
438,168,115748,1,2,0:0:0:0:
438,168,115837,1,2,0:0:0:0:
438,168,115926,1,0,3:2:0:0:
260,202,116105,1,8,0:0:0:0:
454,306,116284,1,0,3:2:0:0:
416,32,116462,1,8,0:0:0:0:
238,297,116641,6,0,P|154:277|62:269,2,161.999995056153,6|0|0,3:2|3:2|3:2,0:0:0:0:
454,306,117534,1,0,0:0:0:0:
370,252,117712,1,0,3:2:0:0:
316,375,117891,1,2,0:0:0:0:
476,291,118069,6,0,P|465:230|457:176,1,108,2|0,3:2|2:0,0:0:0:0:
455,165,118426,1,2,3:2:0:0:
337,178,118605,2,0,P|343:142|349:100,1,72,2|8,0:0|3:2,0:0:0:0:
443,15,118962,2,0,P|447:50|454:86,1,72,2|0,0:0|3:2,0:0:0:0:
346,20,119319,1,2,0:0:0:0:
241,130,119498,6,0,P|188:76|101:91,2,161.999995056153,0|0|0,3:2|3:2|3:2,0:0:0:0:
41,175,120391,1,2,0:0:0:0:
167,191,120569,1,2,3:2:0:0:
165,181,120658,1,2,0:0:0:0:
163,171,120747,1,2,0:0:0:0:
162,161,120836,1,2,0:0:0:0:
160,151,120926,6,0,P|143:203|80:224,1,108,2|0,3:2|2:0,0:0:0:0:
41,175,121284,2,0,L|59:296,1,108,0|0,3:2|2:0,0:0:0:0:
75,357,121641,1,10,3:2:0:0:
75,357,121998,2,0,P|127:328|189:338,1,108,2|0,3:2|2:0,0:0:0:0:
239,370,122355,6,0,B|284:392|321:355|309:354|347:308|396:337,2,161.999995056153,2|0|0,3:2|3:2|3:2,0:0:0:0:
239,370,123426,1,2,3:2:0:0:
167,188,123605,5,2,0:0:0:0:
167,188,123694,1,2,0:0:0:0:
167,188,123784,2,0,P|228:213|260:301,2,161.999995056153,0|0|10,3:2|3:2|3:2,0:0:0:0:
167,188,124855,1,2,3:2:0:0:
286,67,125034,1,2,0:0:0:0:
353,199,125212,6,0,P|406:181|405:118,1,108,2|0,3:2|2:0,0:0:0:0:
401,104,125569,1,2,3:2:0:0:
296,147,125748,2,0,L|310:240,1,72,2|0,0:0|3:2,0:0:0:0:
327,301,126105,2,0,P|351:276|386:277,1,72,2|0,0:0|3:2,0:0:0:0:
460,334,126462,1,2,0:0:0:0:
308,375,126641,6,0,L|151:343,1,144,0|0,3:2|3:2,0:0:0:0:
53,303,127176,1,2,0:0:0:0:
53,303,127266,1,2,0:0:0:0:
53,303,127355,2,0,L|34:227,1,72,10|0,3:2|2:0,0:0:0:0:
171,180,127712,2,0,L|157:250,1,72,2|0,3:2|2:0,0:0:0:0:
19,12,128069,6,0,B|43:81|111:60|111:60|116:29|88:15,2,161.999995056153,6|0|0,3:2|3:2|3:2,0:0:0:0:
63,147,128962,1,2,0:0:0:0:
207,25,129141,1,2,3:2:0:0:
171,180,129319,1,2,0:0:0:0:
131,88,129498,6,0,L|253:107,1,108,2|0,3:2|2:0,0:0:0:0:
258,108,129855,1,2,3:2:0:0:
249,230,130034,2,0,L|329:217,1,72,2|8,0:0|3:2,0:0:0:0:
424,137,130391,2,0,L|343:124,1,72,2|0,0:0|3:2,0:0:0:0:
294,313,130748,1,2,0:0:0:0:
441,313,130926,6,0,B|471:279|436:224|391:228|391:228|384:257|368:266,2,161.999995056153,0|0|8,3:2|3:2|3:2,0:0:0:0:
320,218,131819,1,2,0:0:0:0:
364,337,131998,1,2,3:2:0:0:
344,340,132087,1,2,0:0:0:0:
324,337,132176,1,2,0:0:0:0:
306,327,132265,1,2,0:0:0:0:
294,313,132355,6,0,P|241:290|194:327,1,108,2|0,3:2|2:0,0:0:0:0:
161,376,132712,2,0,P|152:321|143:265,1,108,0|0,3:2|2:0,0:0:0:0:
130,195,133069,1,8,3:2:0:0:
130,195,133426,2,0,B|163:186|188:206|188:206|191:172|216:161,1,108,2|0,3:2|2:0,0:0:0:0:
280,142,133784,6,0,L|109:116,2,161.999995056153,2|0|0,3:2|3:2|3:2,0:0:0:0:
280,142,134855,1,2,3:2:0:0:
449,28,135034,5,2,0:0:0:0:
449,28,135123,1,2,0:0:0:0:
449,28,135212,2,0,B|483:61|474:102|474:102|431:126|445:184,2,161.999995056153,2|0|8,3:2|3:2|3:2,0:0:0:0:
449,28,136284,1,2,3:2:0:0:
278,62,136462,1,2,0:0:0:0:
442,169,136641,6,0,P|378:157|343:194,1,108,2|0,3:2|2:0,0:0:0:0:
336,214,136998,1,2,3:2:0:0:
494,232,137176,2,0,L|481:318,1,72,2|8,0:0|3:2,0:0:0:0:
349,339,137534,2,0,P|366:310|419:313,1,72,2|0,0:0|3:2,0:0:0:0:
441,372,137891,1,2,0:0:0:0:
247,313,138069,6,0,L|258:385,1,72,0|0,3:2|2:0,0:0:0:0:
134,226,138426,2,0,L|123:298,1,72,2|0,3:2|2:0,0:0:0:0:
252,119,138784,2,0,L|263:191,1,72,2|0,3:2|2:0,0:0:0:0:
78,169,139141,6,0,P|98:153|124:147,1,54,2|0,3:2|2:0,0:0:0:0:
29,80,139498,6,0,P|64:139|141:141,1,135,4|0,3:2|2:0,0:0:0:0:
185,79,139855,2,0,P|223:46|276:44,1,90,0|0,3:2|2:0,0:0:0:0:
351,204,140212,2,0,L|253:188,1,90,10|0,3:2|2:0,0:0:0:0:
392,97,140569,1,2,3:2:0:0:
481,325,140748,6,0,B|488:263|425:232|425:232|411:272|369:281,1,180,2|0,0:0|2:0,0:0:0:0:
304,384,141284,2,0,L|400:368,1,90,2|0,3:2|2:0,0:0:0:0:
190,273,141641,2,0,L|286:288,1,90,10|0,3:2|2:0,0:0:0:0:
76,384,141998,2,0,L|172:368,1,90,2|0,3:2|2:0,0:0:0:0:
35,237,142355,6,0,B|46:186|111:169|147:208|147:208|121:226|114:263,1,180,2|0,3:2|3:2,0:0:0:0:
35,237,142891,1,0,0:0:0:0:
190,273,143069,2,0,L|174:174,1,90,8|0,3:2|2:0,0:0:0:0:
91,31,143426,1,2,3:2:0:0:
91,31,143516,1,2,0:0:0:0:
91,31,143605,6,0,P|112:71|160:80,1,90,2|0,0:0|3:2,0:0:0:0:
336,78,143962,2,0,P|293:76|255:115,1,90,0|0,0:0|3:2,0:0:0:0:
338,257,144319,1,0,0:0:0:0:
468,179,144498,1,8,3:2:0:0:
321,152,144676,1,0,0:0:0:0:
445,277,144855,6,0,L|415:92,2,180,2|2|2,3:2|3:2|3:2,0:0:0:0:
439,69,145926,2,0,L|454:167,1,90,10|0,3:2|2:0,0:0:0:0:
306,240,146284,2,0,L|321:141,1,90,2|0,3:2|2:0,0:0:0:0:
317,322,146641,6,0,B|282:333|256:309|256:309|233:262|178:272,1,135,0|0,3:2|2:0,0:0:0:0:
132,264,146998,2,0,B|125:241|105:229|105:229|129:233|148:220,1,90,2|0,3:2|2:0,0:0:0:0:
233,337,147355,2,0,B|214:352|210:375|210:375|205:351|186:339,1,90,8|0,3:2|2:0,0:0:0:0:
272,256,147712,2,0,B|270:223|298:196|298:196|265:213|228:199,1,135,2|0,3:2|2:0,0:0:0:0:
174,92,148069,6,0,L|202:270,2,180,2|0|8,3:2|3:2|3:2,0:0:0:0:
202,269,149141,1,2,3:2:0:0:
261,129,149319,2,0,L|355:144,1,90,2|0,0:0|3:2,0:0:0:0:
470,31,149676,2,0,L|375:46,1,90,0|0,0:0|3:2,0:0:0:0:
464,214,150034,2,0,L|449:125,1,90,0|8,0:0|3:2,0:0:0:0:
506,309,150390,1,0,0:0:0:0:
464,214,150568,1,2,3:2:0:0:
361,225,150748,1,2,0:0:0:0:
429,378,150926,6,0,P|402:321|339:327,1,135,2|0,3:2|2:0,0:0:0:0:
281,372,151284,2,0,B|245:389|214:354|219:351|184:322|150:342,1,135,2|0,3:2|2:0,0:0:0:0:
98,375,151641,2,0,L|114:272,1,90,2|0,3:2|2:0,0:0:0:0:
129,171,151998,1,10,3:2:0:0:
271,295,152176,2,0,L|254:192,1,90,2|0,0:0|3:2,0:0:0:0:
240,90,152533,1,0,0:0:0:0:
167,261,152712,6,0,P|106:271|53:221,1,135,2|0,3:2|2:0,0:0:0:0:
54,225,153069,2,0,P|97:249|109:313,1,90,8|0,3:2|2:0,0:0:0:0:
19,384,153426,1,2,3:2:0:0:
129,171,153605,1,2,0:0:0:0:
188,355,153784,6,0,L|99:370,1,90,2|0,3:2|2:0,0:0:0:0:
360,307,154141,2,0,L|245:287,1,90,2|0,3:2|2:0,0:0:0:0:
422,362,154498,2,0,B|463:350|477:313|464:279|464:279|439:291|420:287,1,135,10|0,3:2|2:0,0:0:0:0:
360,307,154855,1,2,3:2:0:0:
257,206,155034,6,0,P|332:167|383:246,1,180,2|0,0:0|2:0,0:0:0:0:
186,359,155569,2,0,L|170:263,1,90,2|0,3:2|2:0,0:0:0:0:
57,134,155926,2,0,L|41:229,1,90,8|0,3:2|2:0,0:0:0:0:
63,243,156284,2,0,L|37:84,1,135,2|0,3:2|2:0,0:0:0:0:
26,30,156641,6,0,B|83:22|133:65|133:65|117:41|122:20,1,161.999995056153,6|0,3:2|2:0,0:0:0:0:
243,33,156998,2,0,P|213:17|182:21,1,53.9999983520508,2|0,3:2|0:0,0:0:0:0:
182,162,157176,2,0,B|257:149|257:149|262:145|262:145|342:133,1,161.999995056153,6|0,0:0|2:0,0:0:0:0:
384,39,157534,2,0,L|314:28,1,53.9999983520508,2|0,0:0|0:0,0:0:0:0:
417,184,157712,2,0,B|470:179|481:116|450:88|450:88|432:110|398:111,1,161.999995056153,6|0,3:2|2:0,0:0:0:0:
340,133,158069,5,0,3:2:0:0:
288,230,158248,2,0,L|343:221,1,53.9999983520508,8|2,0:0|0:0,0:0:0:0:
470,329,158426,1,2,3:2:0:0:
470,329,158516,1,8,0:0:0:0:
470,329,158605,2,0,L|398:317,1,53.9999983520508,2|2,0:0|0:0,0:0:0:0:
244,364,158784,2,0,B|245:326|215:288|215:288|249:321|287:314,1,161.999995056153,8|0,3:2|2:0,0:0:0:0:
316,381,159141,2,0,L|342:215,1,161.999995056153,2|0,3:2|2:0,0:0:0:0:
367,197,159498,6,0,L|347:313,1,107.999996704102,6|0,3:2|0:0,0:0:0:0:
196,96,159855,2,0,L|215:212,1,107.999996704102,0|0,3:2|0:0,0:0:0:0:
378,70,160212,2,0,P|331:18|248:61,1,161.999995056153,8|0,3:2|2:0,0:0:0:0:
196,96,160569,6,0,L|199:115,6,13.4999995880127,2|2|2|2|2|2|2,3:2|0:0|0:0|0:0|0:0|0:0|0:0,0:0:0:0:
194,83,160926,5,10,3:2:0:0:
189,69,161016,1,2,0:0:0:0:
173,52,161105,1,10,0:0:0:0:
145,41,161194,1,2,0:0:0:0:
111,42,161284,1,10,3:2:0:0:
81,56,161373,1,2,0:0:0:0:
62,89,161462,1,10,0:0:0:0:
61,135,161551,1,2,0:0:0:0:
87,172,161641,5,10,0:0:0:0:
141,182,161730,1,2,0:0:0:0:
194,213,161819,1,2,0:0:0:0:
216,281,161909,1,2,0:0:0:0:
193,349,161998,1,2,0:0:0:0:
126,380,162087,1,2,0:0:0:0:
54,366,162176,1,2,0:0:0:0:
20,301,162266,1,2,0:0:0:0:
39,229,162355,6,0,P|138:220|225:300,1,202.500007724762,6|0,3:2|2:0,0:0:0:0:
281,384,162712,2,0,P|291:357|316:329,1,58.4999973220826,8|0,3:2|0:0,0:0:0:0:
475,208,162891,2,0,L|457:326,1,116.999994644165,2|0,0:0|3:2,0:0:0:0:
460,180,163248,2,0,L|441:297,1,116.999994644165,2|8,0:0|3:2,0:0:0:0:
311,222,163605,1,2,0:0:0:0:
500,115,163784,6,0,B|491:50|420:57|420:57|399:100|445:126,1,175.499991966248,0|0,3:2|2:0,0:0:0:0:
460,180,164141,2,0,B|413:143|364:180|364:180|344:222|301:222,1,175.499991966248,8|0,3:2|2:0,0:0:0:0:
236,202,164498,1,2,3:2:0:0:
107,96,164676,1,2,0:0:0:0:
45,288,164855,2,0,B|93:291|120:344|120:344|105:285|132:245,1,202.500007724762,10|0,3:2|2:0,0:0:0:0:
107,179,165212,6,0,B|58:175|31:122|31:122|46:181|20:222,1,202.500007724762,2|0,3:2|2:0,0:0:0:0:
45,288,165569,2,0,P|88:304|113:342,1,67.5000025749208,10|0,3:2|0:0,0:0:0:0:
323,326,165748,2,0,P|378:321|414:262,1,116.999994644165,2|0,0:0|3:2,0:0:0:0:
323,326,166105,2,0,P|356:279|412:274,1,116.999994644165,2|8,0:0|3:2,0:0:0:0:
257,368,166462,1,2,0:0:0:0:
479,239,166641,1,0,3:2:0:0:
198,282,166819,6,0,L|266:292,1,58.4999973220826,2|0,0:0|0:0,0:0:0:0:
473,313,166998,1,8,3:2:0:0:
484,163,167176,2,0,L|415:173,1,58.4999973220826,2|2,0:0|0:0,0:0:0:0:
207,201,167355,5,2,3:2:0:0:
187,194,167444,1,2,0:0:0:0:
176,178,167534,1,2,0:0:0:0:
172,153,167623,1,2,0:0:0:0:
186,122,167712,1,10,3:2:0:0:
221,102,167801,1,2,0:0:0:0:
257,64,167891,1,2,0:0:0:0:
230,2,167980,1,2,0:0:0:0:
163,6,168069,6,0,B|175:52|136:92|86:96|86:96|101:67|89:34,1,175.499991966248,6|0,3:2|2:0,0:0:0:0:
11,0,168426,2,0,P|17:32|23:76,1,58.4999973220826,10|0,3:2|0:0,0:0:0:0:
105,114,168605,2,0,P|99:85|92:37,1,58.4999973220826,2|0,0:0|0:0,0:0:0:0:
8,233,168784,2,0,P|69:205|173:250,1,175.499991966248,0|0,3:2|2:0,0:0:0:0:
184,332,169141,2,0,P|217:326|243:299,1,58.4999973220826,10|0,3:2|0:0,0:0:0:0:
322,159,169319,2,0,P|355:165|381:192,1,58.4999973220826,2|0,0:0|0:0,0:0:0:0:
478,384,169498,6,0,P|425:316|341:305,1,175.499991966248,0|0,3:2|2:0,0:0:0:0:
478,225,169855,2,0,P|425:293|340:304,1,175.499991966248,10|0,3:2|2:0,0:0:0:0:
280,252,170212,2,0,L|301:387,1,116.999994644165,2|0,3:2|0:0,0:0:0:0:
496,110,170569,2,0,L|474:245,1,116.999994644165,10|0,3:2|0:0,0:0:0:0:
270,70,170926,6,0,B|332:118|407:66|407:66|449:3|523:23,2,270.000010299683,2|8|0,3:2|3:2|3:2,0:0:0:0:
496,110,171819,1,2,0:0:0:0:
329,10,171998,1,8,3:2:0:0:
511,20,172176,1,2,0:0:0:0:
399,162,172355,6,0,L|418:37,1,116.999994644165,0|2,3:2|0:0,0:0:0:0:
424,16,172623,1,2,0:0:0:0:
424,16,172712,1,10,3:2:0:0:
308,245,172891,1,2,0:0:0:0:
270,70,173069,1,2,3:2:0:0:
399,162,173248,1,2,0:0:0:0:
214,236,173426,5,10,3:2:0:0:
219,207,173515,1,2,0:0:0:0:
234,182,173604,1,2,0:0:0:0:
256,163,173693,1,2,0:0:0:0:
284,154,173784,6,0,B|225:188|182:145|182:145|147:73|73:94,1,233.999989288331,2|8,3:2|3:2,0:0:0:0:
7,360,174319,1,2,0:0:0:0:
106,162,174497,1,2,3:2:0:0:
114,352,174676,1,2,0:0:0:0:
5,260,174855,5,2,3:2:0:0:
33,255,174944,1,2,0:0:0:0:
62,250,175033,1,2,0:0:0:0:
91,246,175122,1,2,0:0:0:0:
120,241,175212,6,0,B|195:229|221:324|157:367|157:367|128:345|84:356,1,233.999989288331,2|8,3:2|3:2,0:0:0:0:
276,201,175748,1,2,0:0:0:0:
276,201,175837,1,2,0:0:0:0:
276,201,175926,1,0,3:2:0:0:
376,381,176105,1,2,0:0:0:0:
447,194,176284,1,10,3:2:0:0:
267,315,176462,1,2,0:0:0:0:
496,310,176641,6,0,P|434:273|321:284,1,175.499991966248,2|0,3:2|2:0,0:0:0:0:
267,315,176998,1,10,3:2:0:0:
344,157,177176,2,0,P|401:157|457:218,1,116.999994644165,2|0,0:0|3:2,0:0:0:0:
186,265,177534,2,0,P|239:244|268:194,1,116.999994644165,2|0,0:0|3:2,0:0:0:0:
250,8,177891,5,2,0:0:0:0:
250,8,177980,1,2,0:0:0:0:
250,8,178069,2,0,P|241:64|269:114,1,116.999994644165,0|0,3:2|0:0,0:0:0:0:
469,66,178426,5,10,3:2:0:0:
454,74,178516,1,2,0:0:0:0:
441,59,178605,1,2,0:0:0:0:
449,42,178694,1,2,0:0:0:0:
484,42,178784,5,2,3:2:0:0:
506,81,178873,1,2,0:0:0:0:
499,130,178962,1,2,0:0:0:0:
460,172,179051,1,2,0:0:0:0:
409,219,179141,1,10,3:2:0:0:
390,283,179230,1,2,0:0:0:0:
404,336,179319,1,2,0:0:0:0:
426,360,179409,1,2,0:0:0:0:
451,366,179498,6,0,P|496:327|478:254,1,116.999994644165,2|0,3:2|0:0,0:0:0:0:
387,145,179855,1,8,3:2:0:0:
298,328,180034,1,2,0:0:0:0:
298,328,180123,1,2,0:0:0:0:
298,328,180212,2,0,P|240:316|171:307,1,116.999994644165,2|0,3:2|0:0,0:0:0:0:
26,229,180569,2,0,P|89:216|153:208,1,116.999994644165,10|0,3:2|0:0,0:0:0:0:
167,29,180926,6,0,P|102:14|126:110,1,175.499991966248,2|0,3:2|2:0,0:0:0:0:
168,112,181284,2,0,P|231:99|295:91,1,116.999994644165,8|0,3:2|0:0,0:0:0:0:
443,207,181641,2,0,P|360:224|304:163,1,175.499991966248,2|0,3:2|2:0,0:0:0:0:
283,92,181998,2,0,P|225:100|168:112,1,116.999994644165,8|0,3:2|0:0,0:0:0:0:
46,290,182355,6,0,B|83:327|158:308|194:243|165:192|165:192|125:188|102:145,2,270.000010299683,2|8|0,3:2|3:2|3:2,0:0:0:0:
116,166,183248,1,2,0:0:0:0:
240,314,183426,1,2,3:2:0:0:
283,92,183605,1,2,0:0:0:0:
138,299,183784,6,0,L|127:230,1,58.4999973220826,8|0,3:2|0:0,0:0:0:0:
105,90,183962,1,8,0:0:0:0:
259,226,184141,2,0,L|269:157,1,58.4999973220826,8|0,3:2|0:0,0:0:0:0:
297,17,184319,1,8,0:0:0:0:
116,166,184498,5,8,3:2:0:0:
144,160,184587,1,2,0:0:0:0:
167,143,184676,1,2,0:0:0:0:
181,117,184765,1,2,0:0:0:0:
190,79,184855,5,10,3:2:0:0:
140,108,184944,1,2,0:0:0:0:
83,106,185033,1,2,0:0:0:0:
36,73,185122,1,2,0:0:0:0:
16,18,185212,6,0,P|124:18|197:93,1,202.500007724762,6|0,3:2|2:0,0:0:0:0:
267,168,185569,2,0,P|288:143|334:130,1,58.4999973220826,10|0,3:2|0:0,0:0:0:0:
488,31,185748,2,0,L|358:9,1,116.999994644165,2|0,0:0|3:2,0:0:0:0:
509,19,186105,2,0,L|379:-3,1,116.999994644165,2|8,0:0|3:2,0:0:0:0:
497,167,186462,1,2,0:0:0:0:
311,132,186641,6,0,B|258:120|222:160|222:160|258:113|252:86,1,175.499991966248,0|0,3:2|2:0,0:0:0:0:
320,55,186998,2,0,L|288:252,1,175.499991966248,8|0,3:2|2:0,0:0:0:0:
277,299,187355,1,2,3:2:0:0:
416,156,187534,1,2,0:0:0:0:
494,318,187712,2,0,B|512:268|458:223|417:242|417:242|435:269|429:294,1,175.499991966248,10|0,3:2|2:0,0:0:0:0:
424,353,188069,6,0,B|384:373|347:346|347:346|349:341|349:341|309:281|260:306,1,175.499991966248,2|0,3:2|2:0,0:0:0:0:
213,375,188426,2,0,L|202:309,1,58.4999973220826,8|0,3:2|0:0,0:0:0:0:
176,147,188605,2,0,P|119:155|78:201,1,116.999994644165,2|0,0:0|3:2,0:0:0:0:
176,147,188962,2,0,P|136:189|79:196,1,116.999994644165,2|8,0:0|3:2,0:0:0:0:
246,103,189319,1,2,0:0:0:0:
14,230,189498,1,0,3:2:0:0:
237,237,189676,6,0,L|249:155,1,58.4999973220826,2|0,0:0|0:0,0:0:0:0:
268,30,189855,1,8,3:2:0:0:
15,97,190034,2,0,L|27:178,1,58.4999973220826,2|2,0:0|0:0,0:0:0:0:
47,303,190212,5,0,3:2:0:0:
60,322,190301,1,2,0:0:0:0:
90,331,190391,1,2,0:0:0:0:
127,328,190480,1,2,0:0:0:0:
158,306,190569,1,10,3:2:0:0:
186,263,190659,1,2,0:0:0:0:
237,237,190748,1,2,0:0:0:0:
300,244,190837,1,2,0:0:0:0:
343,304,190926,6,0,B|349:354|408:375|441:349|441:349|420:329|418:298,1,175.499991966248,0|0,3:2|2:0,0:0:0:0:
355,231,191284,2,0,P|313:235|289:254,1,58.4999973220826,10|0,3:2|0:0,0:0:0:0:
190,382,191462,2,0,P|148:378|124:359,1,58.4999973220826,2|0,0:0|0:0,0:0:0:0:
17,216,191641,2,0,P|87:195|170:257,1,175.499991966248,0|0,3:2|2:0,0:0:0:0:
300,243,191998,2,0,L|289:177,1,58.4999973220826,10|0,3:2|0:0,0:0:0:0:
194,75,192176,2,0,L|183:140,1,58.4999973220826,2|0,0:0|0:0,0:0:0:0:
39,70,192355,6,0,B|45:17|107:1|137:21|137:21|118:45|120:71,1,175.499991966248,0|0,3:2|2:0,0:0:0:0:
194,75,192712,2,0,L|164:263,1,175.499991966248,10|0,3:2|2:0,0:0:0:0:
152,325,193069,2,0,P|101:351|36:332,1,116.999994644165,2|0,3:2|0:0,0:0:0:0:
355,231,193426,2,0,P|304:205|239:224,1,116.999994644165,10|0,3:2|0:0,0:0:0:0:
463,369,193784,6,0,B|510:315|469:243|469:243|399:186|443:115,2,270.000010299683,2|8|0,3:2|3:2|3:2,0:0:0:0:
437,125,194676,1,0,0:0:0:0:
401,307,194855,1,10,3:2:0:0:
507,166,195034,1,2,0:0:0:0:
296,228,195212,6,0,L|417:208,1,116.999994644165,0|2,3:2|0:0,0:0:0:0:
442,207,195480,1,2,0:0:0:0:
442,207,195569,1,10,3:2:0:0:
329,29,195748,1,2,0:0:0:0:
502,51,195926,1,2,3:2:0:0:
313,129,196105,1,2,0:0:0:0:
423,32,196284,5,10,3:2:0:0:
417,60,196373,1,2,0:0:0:0:
423,88,196462,1,2,0:0:0:0:
440,112,196551,1,2,0:0:0:0:
465,126,196641,6,0,B|400:141|391:210|391:210|418:286|349:338,1,233.999989288331,2|8,3:2|3:2,0:0:0:0:
149,383,197176,1,2,0:0:0:0:
325,253,197355,1,2,3:2:0:0:
124,212,197534,1,2,2:2:0:0:
225,358,197712,5,2,3:2:0:0:
213,331,197801,1,2,0:0:0:0:
192,311,197890,1,2,0:0:0:0:
164,301,197979,1,2,0:0:0:0:
136,302,198069,6,0,B|144:349|72:411|18:358|18:358|25:310|63:308,1,233.999989288331,2|8,3:2|3:2,0:0:0:0:
232,365,198605,1,2,0:0:0:0:
232,365,198694,1,2,0:0:0:0:
232,365,198784,1,2,3:2:0:0:
124,212,198962,1,2,0:0:0:0:
376,171,199141,1,8,3:2:0:0:
291,318,199319,1,2,0:0:0:0:
192,119,199498,6,0,L|221:307,1,175.499991966248,2|0,3:2|2:0,0:0:0:0:
232,365,199855,1,10,3:2:0:0:
54,336,200034,2,0,P|120:319|165:341,1,116.999994644165,2|0,0:0|3:2,0:0:0:0:
395,287,200391,2,0,P|326:287|289:320,1,116.999994644165,2|8,0:0|3:2,0:0:0:0:
192,119,200748,1,2,3:2:0:0:
232,365,200926,1,0,3:2:0:0:
38,371,201105,5,2,0:0:0:0:
2,311,201194,1,2,0:0:0:0:
7,242,201284,1,10,3:2:0:0:
38,185,201373,1,2,0:0:0:0:
73,147,201462,1,2,0:0:0:0:
99,109,201551,1,2,0:0:0:0:
95,72,201641,1,2,3:2:0:0:
72,59,201730,1,2,0:0:0:0:
53,68,201819,5,2,0:0:0:0:
64,98,201909,1,2,0:0:0:0:
99,109,201998,1,2,3:2:0:0:
151,111,202087,1,2,0:0:0:0:
207,94,202176,1,2,0:0:0:0:
262,54,202266,1,2,0:0:0:0:
333,30,202355,6,0,B|382:12|443:44|462:117|426:164|426:164|395:141|352:147,2,270.000010299683,2|8|0,3:2|3:2|3:2,0:0:0:0:
374,146,203248,1,0,0:0:0:0:
511,2,203426,1,10,3:2:0:0:
505,210,203605,1,2,0:0:0:0:
282,176,203784,6,0,B|269:251|353:266|353:266|356:232|386:213,1,175.499991966248,0|0,3:2|2:0,0:0:0:0:
428,277,204141,2,0,P|364:289|325:332,1,116.999994644165,8|0,3:2|0:0,0:0:0:0:
113,383,204498,5,2,3:2:0:0:
79,324,204587,1,2,0:0:0:0:
90,264,204676,1,2,0:0:0:0:
135,237,204766,1,2,0:0:0:0:
185,237,204855,1,10,3:2:0:0:
221,268,204944,1,2,0:0:0:0:
229,305,205034,1,2,0:0:0:0:
217,335,205123,1,2,0:0:0:0:
203,350,205212,6,0,L|159:75,2,270.000010299683,2|8|0,3:2|3:2|3:2,0:0:0:0:
160,83,206105,1,0,0:0:0:0:
64,223,206284,1,10,3:2:0:0:
12,21,206462,5,2,0:0:0:0:
12,21,206551,1,2,0:0:0:0:
12,21,206641,2,0,B|-4:63|37:104|84:102|84:102|76:75|92:48,1,175.499991966248,0|0,3:2|2:0,0:0:0:0:
146,11,206998,1,10,3:2:0:0:
185,238,207176,5,2,0:0:0:0:
227,183,207266,1,0,0:0:0:0:
289,175,207355,1,2,3:2:0:0:
342,194,207444,1,2,0:0:0:0:
370,234,207534,1,2,0:0:0:0:
406,264,207623,1,2,0:0:0:0:
450,271,207712,1,10,3:2:0:0:
484,258,207801,1,2,0:0:0:0:
501,230,207891,1,2,0:0:0:0:
504,206,207980,1,2,0:0:0:0:
497,187,208069,1,6,3:2:0:0:
185,238,217534,6,0,L|181:220,10,18,2|2|2|2|2|2|2|2|2|2|2,0:0|0:0|0:0|0:0|0:0|0:0|0:0|0:0|0:0|0:0|0:0,0:0:0:0:
165,205,218069,6,0,L|176:278,1,49.5000015106202,8|0,3:2|0:0,0:0:0:0:
181,356,218248,1,8,0:0:0:0:
181,356,218337,1,2,0:0:0:0:
181,356,218426,2,0,P|155:334|115:332,1,49.5000015106202,8|0,3:2|0:0,0:0:0:0:
6,357,218605,1,8,0:0:0:0:
21,365,218694,1,2,0:0:0:0:
32,373,218784,5,8,0:0:0:0:
63,351,218873,1,2,0:0:0:0:
79,315,218962,1,2,0:0:0:0:
69,268,219051,1,2,0:0:0:0:
26,238,219141,1,2,0:0:0:0:
0,181,219230,1,2,0:0:0:0:
19,120,219319,1,2,0:0:0:0:
75,88,219409,1,2,0:0:0:0:
137,104,219498,6,0,B|128:172|219:208|276:153|276:153|256:127|263:98,2,233.999989288331,6|8|0,3:2|3:2|3:2,0:0:0:0:
351,6,220391,2,0,P|340:60|335:107,1,99.0000030212403,2|8,0:0|3:2,0:0:0:0:
200,18,220748,1,0,0:0:0:0:
365,2,220926,6,0,P|354:56|349:103,1,99.0000030212403,2|0,3:2|2:0,0:0:0:0:
512,239,221284,2,0,B|453:273|398:231|398:231|365:164|306:179,2,233.999989288331,10|2|10,3:2|3:2|3:2,0:0:0:0:
310,178,222176,1,0,0:0:0:0:
512,239,222355,6,0,B|456:214|420:263|427:266|398:321|335:300,1,198.000006042481,2|8,3:2|3:2,0:0:0:0:
236,129,222891,2,0,P|287:140|311:201,1,99.0000030212403,2|0,0:0|3:2,0:0:0:0:
94,312,223248,1,2,0:0:0:0:
141,98,223426,1,10,3:2:0:0:
223,261,223605,1,2,0:0:0:0:
37,185,223784,6,0,L|101:174,1,49.5000015106202,2|0,3:2|0:0,0:0:0:0:
211,62,223962,2,0,P|175:23|121:21,1,99.0000030212403,2|8,0:0|3:2,0:0:0:0:
188,186,224319,1,2,0:0:0:0:
188,186,224409,1,2,0:0:0:0:
188,186,224498,1,2,3:2:0:0:
22,83,224676,1,2,0:0:0:0:
96,256,224855,1,10,3:2:0:0:
141,98,225034,1,2,0:0:0:0:
0,165,225212,6,0,P|12:235|24:318,1,148.50000453186,2|0,3:2|2:0,0:0:0:0:
37,384,225569,1,10,3:2:0:0:
173,240,225748,2,0,P|139:187|94:177,1,99.0000030212403,2|0,0:0|3:2,0:0:0:0:
205,384,226105,2,0,P|227:340|271:320,1,99.0000030212403,2|8,0:0|3:2,0:0:0:0:
285,187,226462,1,2,0:0:0:0:
406,315,226641,6,0,B|366:305|324:262|324:262|349:293|348:324,1,148.50000453186,0|0,3:2|2:0,0:0:0:0:
362,373,226998,2,0,L|388:214,1,148.50000453186,10|0,3:2|2:0,0:0:0:0:
392,195,227355,2,0,P|440:221|489:200,1,99.0000030212403,2|0,3:2|2:0,0:0:0:0:
250,63,227712,2,0,P|295:39|347:58,1,99.0000030212403,10|0,3:2|2:0,0:0:0:0:
100,217,228069,6,0,P|94:131|50:71,1,148.50000453186,2|0,3:2|2:0,0:0:0:0:
12,29,228426,1,10,3:2:0:0:
250,63,228605,2,0,P|227:106|223:155,1,99.0000030212403,2|0,0:0|3:2,0:0:0:0:
339,305,228962,2,0,B|335:281|345:255|345:255|330:279|303:284,1,99.0000030212403,2|8,0:0|3:2,0:0:0:0:
482,293,229319,1,2,0:0:0:0:
280,348,229498,6,0,P|337:302|416:291,1,148.50000453186,2|0,3:2|2:0,0:0:0:0:
482,293,229855,2,0,L|474:243,1,49.5000015106202,8|0,3:2|0:0,0:0:0:0:
454,100,230034,1,2,0:0:0:0:
454,100,230123,1,2,0:0:0:0:
454,100,230212,1,2,3:2:0:0:
337,209,230391,1,2,0:0:0:0:
463,176,230569,5,10,3:2:0:0:
426,173,230658,1,2,0:0:0:0:
394,153,230747,1,2,0:0:0:0:
375,122,230836,1,2,0:0:0:0:
373,85,230926,6,0,B|356:22|278:24|251:66|251:66|267:86|272:126,1,198.000006042481,2|8,3:2|3:2,0:0:0:0:
241,235,231462,2,0,L|344:206,1,99.0000030212403,2|0,0:0|3:2,0:0:0:0:
100,93,231819,2,0,L|203:121,1,99.0000030212403,2|8,0:0|3:2,0:0:0:0:
15,242,232176,1,0,0:0:0:0:
175,348,232355,6,0,B|141:331|134:284|161:252|161:252|165:273|176:288,1,148.50000453186,0|0,3:2|2:0,0:0:0:0:
240,316,232712,2,0,B|187:296|131:340|131:340|95:396|27:372,2,233.999989288331,10|2|10,3:2|3:2|3:2,0:0:0:0:
61,303,233605,1,0,0:0:0:0:
278,384,233784,6,0,L|242:157,1,198.000006042481,2|8,3:2|3:2,0:0:0:0:
383,358,234319,2,0,P|431:374|485:338,1,99.0000030212403,2|0,0:0|3:2,0:0:0:0:
335,227,234676,1,2,0:0:0:0:
491,138,234855,1,2,3:2:0:0:
426,296,235034,2,0,L|407:178,1,99.0000030212403,2|0,0:0|3:2,0:0:0:0:
384,29,235391,5,2,0:0:0:0:
366,91,235480,1,2,0:0:0:0:
322,127,235569,1,2,3:2:0:0:
274,137,235659,1,2,0:0:0:0:
230,132,235748,1,2,0:0:0:0:
193,113,235837,1,2,0:0:0:0:
175,87,235926,6,0,L|183:141,1,49.5000015106202,2|0,3:2|0:0,0:0:0:0:
205,262,236105,1,8,0:0:0:0:
55,144,236284,2,0,L|39:250,1,99.0000030212403,2|8,3:2|0:0,0:0:0:0:
26,31,236641,6,0,B|67:7|117:39|117:39|135:85|192:89,1,175.499991966248,2|0,3:2|2:0,0:0:0:0:
244,61,236998,1,10,3:2:0:0:
400,126,237176,2,0,L|383:19,1,99.0000030212403,2|0,0:0|3:2,0:0:0:0:
214,229,237534,2,0,L|230:122,1,99.0000030212403,2|8,0:0|3:2,0:0:0:0:
412,201,237891,1,2,0:0:0:0:
330,340,238069,6,0,B|300:362|244:343|245:304|245:304|272:288|282:262,1,148.50000453186,0|0,3:2|2:0,0:0:0:0:
347,260,238426,1,10,3:2:0:0:
132,267,238605,2,0,P|165:232|214:229,1,99.0000030212403,2|0,0:0|3:2,0:0:0:0:
86,384,238962,2,0,P|52:348|4:345,1,99.0000030212403,2|8,0:0|3:2,0:0:0:0:
12,204,239319,1,2,0:0:0:0:
183,355,239498,6,0,P|253:343|350:340,1,148.50000453186,2|0,3:2|2:0,0:0:0:0:
404,343,239855,1,10,3:2:0:0:
287,154,240034,2,0,P|296:203|302:254,1,99.0000030212403,2|0,0:0|3:2,0:0:0:0:
476,65,240391,2,0,P|466:114|460:165,1,99.0000030212403,2|8,0:0|3:2,0:0:0:0:
270,3,240748,1,2,0:0:0:0:
358,126,240926,6,0,P|327:86|258:80,1,99.0000030212403,2|2,3:2|2:0,0:0:0:0:
245,83,241194,1,2,0:0:0:0:
245,83,241284,1,10,3:2:0:0:
303,251,241462,1,0,0:0:0:0:
55,202,241641,2,0,L|217:176,1,148.50000453186,2|0,3:2|2:0,0:0:0:0:
275,165,241998,1,10,3:2:0:0:
106,41,242176,5,2,0:0:0:0:
106,41,242266,1,2,0:0:0:0:
106,41,242355,2,0,B|76:86|100:135|100:135|151:175|129:240,1,198.000006042481,2|8,3:2|3:2,0:0:0:0:
52,335,242891,2,0,L|156:318,1,99.0000030212403,2|0,0:0|3:2,0:0:0:0:
327,282,243248,2,0,L|222:265,1,99.0000030212403,2|8,0:0|3:2,0:0:0:0:
55,202,243605,1,0,0:0:0:0:
221,178,243784,1,0,3:2:0:0:
150,320,243962,6,0,L|132:207,1,99.0000030212403,2|8,0:0|3:2,0:0:0:0:
104,51,244319,1,0,0:0:0:0:
295,158,244498,2,0,P|260:111|215:101,1,99.0000030212403,2|0,3:2|2:0,0:0:0:0:
407,87,244855,2,0,P|442:40|487:30,1,99.0000030212403,10|0,3:2|2:0,0:0:0:0:
384,313,245212,6,0,B|339:344|278:301|288:237|288:237|321:238|347:214,1,198.000006042481,0|8,3:2|3:2,0:0:0:0:
502,284,245748,2,0,P|491:337|485:385,1,99.0000030212403,2|0,0:0|3:2,0:0:0:0:
312,129,246105,2,0,P|322:182|328:230,1,99.0000030212403,2|8,0:0|3:2,0:0:0:0:
488,81,246462,1,0,0:0:0:0:
502,284,246641,5,2,3:2:0:0:
327,226,246819,1,0,0:0:0:0:
341,338,246998,5,2,0:0:0:0:
496,178,247176,1,2,0:0:0:0:
510,384,247355,5,2,0:0:0:0:
419,276,247534,1,2,0:0:0:0:
341,338,247712,1,2,0:0:0:0:
424,361,247891,1,2,0:0:0:0:
510,384,248069,6,0,L|504:347,2,36,2|2|2,0:0|0:0|0:0,0:0:0:0:
316,257,250212,1,2,0:0:0:0:
316,257,250926,6,0,L|321:220,2,36,2|2|2,0:0|0:0|0:0,0:0:0:0:
485,178,253069,2,0,L|478:139,1,36,2|0,0:0|0:0,0:0:0:0:
485,178,253784,6,0,B|431:160|396:187|396:187|369:231|313:221,1,180,2|2,0:0|0:0,0:0:0:0:
322,222,254855,1,0,0:0:0:0:
259,124,255212,6,0,B|230:117|221:72|282:46|336:79|326:149,1,180,2|2,0:0|0:0,0:0:0:0:
327,147,256284,1,0,0:0:0:0:
173,318,256641,6,0,P|128:323|91:279,1,90,2|0,0:0|0:0,0:0:0:0:
78,217,257176,2,0,P|104:253|85:307,1,90,2|0,0:0|2:0,0:0:0:0:
38,351,257712,2,0,P|56:309|112:299,1,90,2|0,0:0|0:0,0:0:0:0:
214,362,258248,6,0,L|196:253,1,107.999996704102,2|0,0:0|2:0,0:0:0:0:
87,163,258784,2,0,L|77:225,1,53.9999983520508,2|0,0:0|0:0,0:0:0:0:
77,153,259141,2,0,L|67:215,1,53.9999983520508,2|0,0:0|0:0,0:0:0:0:
150,91,259498,5,2,3:2:0:0:
171,193,259676,1,0,0:0:0:0:
171,193,259766,1,0,0:0:0:0:
171,193,259855,1,10,0:0:0:0:
252,120,260034,1,2,0:0:0:0:
241,122,260123,1,2,0:0:0:0:
230,124,260212,1,2,0:0:0:0:
77,153,260391,1,10,0:0:0:0:
134,4,260569,5,2,0:0:0:0:
137,24,260658,1,2,0:0:0:0:
140,44,260747,1,2,0:0:0:0:
143,64,260836,1,2,0:0:0:0:
146,84,260926,5,2,3:2:0:0:
0,103,261105,1,10,0:0:0:0:
17,0,261284,1,10,0:0:0:0:
84,160,261462,1,0,0:0:0:0:
84,160,261551,1,0,0:0:0:0:
84,160,261641,1,10,0:0:0:0:
212,47,261819,1,10,0:0:0:0:
179,200,261998,5,2,0:0:0:0:
179,200,262087,1,0,0:0:0:0:
179,200,262176,1,2,0:0:0:0:
179,200,262266,1,2,0:0:0:0:
179,200,262355,6,0,L|273:184,1,80.9999975280763,2|0,3:2|2:0,0:0:0:0:
287,181,262712,1,10,0:0:0:0:
292,278,262891,1,2,0:0:0:0:
280,275,262980,1,2,0:0:0:0:
269,273,263069,1,10,0:0:0:0:
392,248,263248,2,0,L|381:313,1,53.9999983520508,2|0,0:0|0:0,0:0:0:0:
381,334,263516,1,2,0:0:0:0:
381,334,263605,1,2,3:2:0:0:
487,274,263784,5,2,3:2:0:0:
392,248,263962,1,2,0:0:0:0:
413,160,264141,1,10,0:0:0:0:
512,189,264319,1,2,0:0:0:0:
512,189,264409,1,2,0:0:0:0:
512,189,264498,5,10,0:0:0:0:
392,248,264676,1,10,0:0:0:0:
487,274,264855,1,2,0:0:0:0:
413,160,265034,1,10,0:0:0:0:
381,334,265212,6,0,P|348:310|301:307,1,80.9999975280763,2|0,3:2|2:0,0:0:0:0:
275,318,265569,1,10,0:2:0:0:
210,383,265748,1,2,0:0:0:0:
114,267,265926,1,2,0:0:0:0:
125,353,266105,1,10,0:0:0:0:
175,212,266284,1,2,0:0:0:0:
257,240,266462,1,10,0:0:0:0:
257,240,266551,1,2,0:0:0:0:
257,240,266641,5,2,0:0:0:0:
210,383,266819,1,2,0:0:0:0:
275,318,266998,1,10,0:0:0:0:
232,305,267087,1,2,0:0:0:0:
193,296,267176,1,2,0:0:0:0:
156,323,267266,1,2,0:0:0:0:
125,353,267355,6,0,L|115:295,1,53.9999983520508,2|10,0:0|0:0,0:0:0:0:
28,236,267712,2,0,L|18:294,1,53.9999983520508,2|10,0:0|0:0,0:0:0:0:
140,363,268069,6,0,L|125:272,1,80.9999975280763,2|0,0:0|2:0,0:0:0:0:
122,250,268426,2,0,P|148:265|179:260,1,53.9999983520508,10|2,0:0|0:0,0:0:0:0:
105,161,268784,1,10,0:0:0:0:
203,186,268962,2,0,L|192:117,1,53.9999983520508,10|2,0:0|0:0,0:0:0:0:
190,105,269230,1,2,0:0:0:0:
190,105,269319,1,10,0:0:0:0:
318,159,269498,6,0,L|265:143,1,53.9999983520508,2|2,0:0|0:0,0:0:0:0:
281,49,269855,1,2,0:0:0:0:
425,84,270034,1,2,0:0:0:0:
425,84,270123,1,2,0:0:0:0:
425,84,270212,2,0,L|372:99,1,53.9999983520508,2|10,0:0|0:0,0:0:0:0:
512,185,270569,2,0,L|459:170,1,53.9999983520508,2|2,0:0|0:0,0:0:0:0:
389,171,270837,6,0,L|394:194,1,13.4999995880127
483,362,271641,5,2,0:0:0:0:
430,383,271730,1,2,0:0:0:0:
373,378,271819,1,2,0:0:0:0:
324,333,271909,1,2,0:0:0:0:
279,281,271998,1,10,0:0:0:0:
213,255,272087,1,2,0:0:0:0:
142,254,272176,1,2,0:0:0:0:
83,292,272266,1,2,0:0:0:0:
60,359,272355,6,0,P|172:372|267:294,1,216,4|0,3:2|2:0,0:0:0:0:
280,205,272712,2,0,P|316:213|342:239,1,62.9999980773926,8|0,3:2|0:0,0:0:0:0:
483,362,272891,2,0,L|504:235,1,125.999996154785,2|0,0:0|3:2,0:0:0:0:
451,379,273248,2,0,L|472:252,1,125.999996154785,2|8,0:0|3:2,0:0:0:0:
358,348,273605,1,2,0:0:0:0:
280,205,273784,6,0,B|336:220|378:181|370:124|370:124|347:138|311:128,1,188.999994232178,0|0,3:2|2:0,0:0:0:0:
324,41,274141,2,0,P|371:113|484:104,1,188.999994232178,8|0,3:2|2:0,0:0:0:0:
512,52,274498,1,2,3:2:0:0:
471,254,274676,1,2,0:0:0:0:
329,131,274855,2,0,B|266:106|223:145|223:145|203:191|154:191,1,188.999994232178,10|0,3:2|2:0,0:0:0:0:
76,101,275212,6,0,B|132:91|171:46|171:46|144:90|153:123,1,188.999994232178,2|0,3:2|2:0,0:0:0:0:
92,174,275569,2,0,P|92:212|110:240,1,62.9999980773926,8|0,3:2|0:0,0:0:0:0:
368,273,275748,2,0,P|335:216|263:209,1,125.999996154785,2|0,0:0|3:2,0:0:0:0:
368,273,276105,2,0,P|308:258|279:204,1,125.999996154785,2|8,0:0|3:2,0:0:0:0:
434,321,276462,1,2,0:0:0:0:
219,153,276641,1,0,3:2:0:0:
441,247,276819,6,0,L|431:185,1,62.9999980773926,2|0,0:0|0:0,0:0:0:0:
405,0,276998,1,8,3:2:0:0:
198,293,277176,2,0,L|207:231,1,62.9999980773926,2|2,0:0|0:0,0:0:0:0:
234,46,277355,5,2,3:2:0:0:
226,31,277444,1,2,0:0:0:0:
200,23,277534,1,2,0:0:0:0:
168,30,277623,1,2,0:0:0:0:
144,58,277712,1,10,3:2:0:0:
117,103,277801,1,2,0:0:0:0:
57,120,277891,1,2,0:0:0:0:
1,81,277980,1,2,0:0:0:0:
13,14,278069,6,0,P|110:68|136:152,1,188.999994232178,0|0,3:2|2:0,0:0:0:0:
125,256,278426,2,0,P|105:228|110:180,1,62.9999980773926,10|0,3:2|0:0,0:0:0:0:
204,160,278605,2,0,P|223:187|218:235,1,62.9999980773926,2|0,0:0|0:0,0:0:0:0:
138,375,278784,2,0,B|95:342|25:364|25:364|67:335|70:306,1,188.999994232178,0|0,3:2|2:0,0:0:0:0:
67,237,279141,2,0,P|98:239|124:255,1,62.9999980773926,10|0,3:2|0:0,0:0:0:0:
235,381,279319,2,0,P|266:378|292:362,1,62.9999980773926,2|0,0:0|0:0,0:0:0:0:
349,220,279498,6,0,P|439:229|481:329,1,188.999994232178,0|0,3:2|2:0,0:0:0:0:
484,132,279855,2,0,P|440:211|350:221,1,188.999994232178,10|0,3:2|2:0,0:0:0:0:
277,154,280212,2,0,P|325:124|410:150,1,125.999996154785,2|0,3:2|0:0,0:0:0:0:
125,256,280569,2,0,P|173:286|258:260,1,125.999996154785,10|0,3:2|0:0,0:0:0:0:
0,83,280926,6,0,B|-1:0|106:-18|150:40|150:40|111:74|127:128,2,288,2|8|0,3:2|3:2|3:2,0:0:0:0:
201,104,281819,1,0,0:0:0:0:
5,167,281998,1,10,3:2:0:0:
150,40,282176,1,2,0:0:0:0:
109,268,282355,5,0,3:2:0:0:
7,90,282534,1,2,0:0:0:0:
7,90,282623,1,2,0:0:0:0:
7,90,282712,2,0,L|83:77,1,62.9999980773926,8|0,3:2|0:0,0:0:0:0:
257,51,282891,1,2,0:0:0:0:
123,154,283069,5,2,3:2:0:0:
144,179,283159,1,2,0:0:0:0:
184,192,283248,1,2,0:0:0:0:
235,188,283337,1,2,0:0:0:0:
278,154,283426,1,10,3:2:0:0:
317,104,283516,1,2,0:0:0:0:
383,85,283605,1,2,0:0:0:0:
450,106,283694,1,2,0:0:0:0:
481,171,283784,6,0,B|418:164|371:222|395:291|395:291|447:298|462:346,1,251.999992309571,2|8,3:2|3:2,0:0:0:0:
235,188,284319,1,2,0:0:0:0:
388,369,284498,1,2,3:2:0:0:
167,329,284676,1,2,0:0:0:0:
377,198,284855,5,10,3:2:0:0:
369,223,284944,1,2,0:0:0:0:
363,250,285033,1,2,0:0:0:0:
359,277,285122,1,2,0:0:0:0:
358,304,285212,6,0,B|297:329|252:283|252:283|247:290|247:290|179:221|117:266,1,251.999992309571,2|8,3:2|3:2,0:0:0:0:
0,384,285748,1,2,0:0:0:0:
0,384,285837,1,2,0:0:0:0:
0,384,285926,1,0,3:2:0:0:
0,163,286105,1,2,0:0:0:0:
167,329,286284,1,10,3:2:0:0:
0,261,286462,1,2,0:0:0:0:
137,88,286641,6,0,L|106:280,1,188.999994232178,2|0,3:2|2:0,0:0:0:0:
89,353,286998,1,10,3:2:0:0:
319,213,287176,2,0,P|257:197|197:180,1,125.999996154785,2|0,0:0|3:2,0:0:0:0:
494,288,287534,2,0,P|432:303|372:320,1,125.999996154785,2|8,0:0|3:2,0:0:0:0:
97,360,287891,1,2,0:0:0:0:
97,360,287980,1,2,0:0:0:0:
96,359,288069,2,0,P|156:342|218:327,1,125.999996154785,0|0,3:2|0:0,0:0:0:0:
426,223,288426,5,10,3:2:0:0:
436,210,288516,1,2,0:0:0:0:
425,195,288605,1,2,0:0:0:0:
404,196,288694,1,2,0:0:0:0:
393,220,288784,5,2,3:2:0:0:
436,210,288873,1,2,0:0:0:0:
477,170,288962,1,2,0:0:0:0:
473,96,289051,1,2,0:0:0:0:
407,59,289141,1,10,3:2:0:0:
347,72,289230,1,2,0:0:0:0:
305,110,289319,1,2,0:0:0:0:
257,137,289409,1,2,0:0:0:0:
209,135,289498,6,0,P|159:91|83:97,1,125.999996154785,2|0,3:2|0:0,0:0:0:0:
60,236,289855,1,8,3:2:0:0:
13,28,290034,1,2,0:0:0:0:
13,28,290123,1,2,0:0:0:0:
13,28,290212,2,0,L|144:7,1,125.999996154785,2|0,3:2|0:0,0:0:0:0:
334,155,290569,2,0,L|203:134,1,125.999996154785,10|0,3:2|0:0,0:0:0:0:
325,19,290926,6,0,P|410:28|410:114,1,188.999994232178,2|0,3:2|2:0,0:0:0:0:
410,196,291284,2,0,P|398:257|417:316,1,125.999996154785,8|0,3:2|0:0,0:0:0:0:
190,384,291641,2,0,P|244:324|343:349,1,188.999994232178,2|0,3:2|2:0,0:0:0:0:
417,316,291998,2,0,P|398:257|410:196,1,125.999996154785,8|0,3:2|0:0,0:0:0:0:
251,61,292355,6,0,B|180:24|116:84|116:84|73:165|4:150,2,288,2|8|0,3:2|3:2|3:2,0:0:0:0:
5,151,293248,1,2,0:0:0:0:
234,159,293426,1,10,3:2:0:0:
21,66,293605,1,2,0:0:0:0:
173,232,293784,6,0,L|161:161,1,62.9999980773926,8|0,3:2|0:0,0:0:0:0:
138,0,293962,1,8,0:0:0:0:
327,152,294141,2,0,L|315:222,1,62.9999980773926,8|0,3:2|0:0,0:0:0:0:
292,384,294319,1,8,0:0:0:0:
81,280,294498,5,2,3:2:0:0:
99,246,294587,1,2,0:0:0:0:
135,230,294676,1,2,0:0:0:0:
173,232,294766,1,2,0:0:0:0:
212,255,294855,1,10,3:2:0:0:
246,300,294944,1,2,0:0:0:0:
306,316,295034,1,2,0:0:0:0:
367,301,295123,1,2,0:0:0:0:
395,240,295212,6,0,P|291:241|182:321,1,216,6|0,3:2|2:0,0:0:0:0:
153,384,295569,2,0,P|123:363|84:358,1,62.9999980773926,10|0,3:2|0:0,0:0:0:0:
30,183,295748,2,0,L|165:161,1,125.999996154785,2|0,0:0|3:2,0:0:0:0:
0,167,296105,2,0,L|135:145,1,125.999996154785,2|8,0:0|3:2,0:0:0:0:
32,7,296462,1,2,0:0:0:0:
203,89,296641,6,0,B|264:76|299:18|299:18|286:61|307:91,1,188.999994232178,0|0,3:2|2:0,0:0:0:0:
370,51,296998,2,0,L|167:18,1,188.999994232178,8|0,3:2|2:0,0:0:0:0:
111,10,297355,1,2,3:2:0:0:
139,234,297534,1,2,0:0:0:0:
301,82,297712,2,0,P|285:171|266:297,1,188.999994232178,10|0,3:2|2:0,0:0:0:0:
337,303,298069,6,0,B|365:244|437:268|437:268|441:319|406:329,1,188.999994232178,2|0,3:2|2:0,0:0:0:0:
316,378,298426,2,0,P|282:366|264:332,1,62.9999980773926,10|0,3:2|0:0,0:0:0:0:
172,158,298605,2,0,P|110:158|65:200,1,125.999996154785,2|0,0:0|3:2,0:0:0:0:
172,158,298962,2,0,P|126:199|65:200,1,125.999996154785,2|0,0:0|3:2,0:0:0:0:
90,6,299319,6,0,L|124:70,1,62.9999980773926,2|0,0:0|0:0,0:0:0:0:
172,158,299498,1,0,3:2:0:0:
345,163,299676,2,0,L|272:160,1,62.9999980773926,2|0,0:0|0:0,0:0:0:0:
172,158,299855,1,8,3:2:0:0:
82,306,300034,2,0,L|120:244,1,62.9999980773926,2|0,0:0|0:0,0:0:0:0:
172,158,300213,1,0,3:2:0:0:
62,156,300391,6,0,L|0:153,1,62.9999980773926,2|0,0:0|0:0,0:0:0:0:
225,254,300569,2,0,L|254:310,1,62.9999980773926,10|0,0:0|0:0,0:0:0:0:
229,64,300748,2,0,L|263:10,1,62.9999980773926,2|0,0:0|0:0,0:0:0:0:
116,253,300926,6,0,B|125:214|173:182|224:201|224:201|218:225|226:257,1,188.999994232178,2|0,3:2|2:0,0:0:0:0:
338,268,301284,2,0,P|321:241|294:226,1,62.9999980773926,10|0,3:2|0:0,0:0:0:0:
190,337,301462,2,0,P|206:363|233:378,1,62.9999980773926,2|0,0:0|0:0,0:0:0:0:
451,377,301641,2,0,L|417:168,1,188.999994232178,0|0,3:2|2:0,0:0:0:0:
402,112,301998,2,0,P|365:115|341:142,1,62.9999980773926,10|0,3:2|0:0,0:0:0:0:
225,254,302176,2,0,P|188:251|164:224,1,62.9999980773926,2|0,0:0|0:0,0:0:0:0:
54,58,302355,6,0,B|60:11|123:-6|166:32|166:32|147:48|145:79,1,188.999994232178,0|0,3:2|2:0,0:0:0:0:
217,87,302712,2,0,P|151:100|119:152,1,125.999996154785,10|2,3:2|0:0,0:0:0:0:
2,183,302980,1,2,0:0:0:0:
2,183,303069,2,0,P|65:194|95:249,1,125.999996154785,2|0,3:2|0:0,0:0:0:0:
0,382,303426,2,0,L|22:240,1,125.999996154785,2|0,3:2|0:0,0:0:0:0:
121,384,303784,5,2,3:2:0:0:
270,150,303962,2,0,B|290:137|306:143|306:143|302:159|287:161,1,62.9999980773926,2|0,0:0|0:0,0:0:0:0:
168,226,304140,2,0,B|146:215|144:198|144:198|160:193|169:205,1,62.9999980773926,10|0,3:2|0:0,0:0:0:0:
286,276,304319,2,0,B|287:299|273:310|273:310|261:299|267:285,1,62.9999980773926,2|0,0:0|0:0,0:0:0:0:
197,134,304498,6,0,P|181:91|181:91,1,40.4999987640381,2|0,3:2|0:0,0:0:0:0:
338,219,304676,2,0,P|383:226|383:226,1,40.4999987640381,2|0,0:0|0:0,0:0:0:0:
193,298,304855,2,0,P|163:333|163:333,1,40.4999987640381,10|0,3:2|0:0,0:0:0:0:
246,220,305034,5,2,0:0:0:0:
246,220,305123,1,2,0:0:0:0:
246,220,305212,1,2,3:2:0:0:
360,369,305391,1,0,0:0:0:0:
367,147,305569,1,8,3:2:0:0:
193,298,305748,1,2,0:0:0:0:
430,319,305926,5,2,3:2:0:0:
408,289,306016,1,2,0:0:0:0:
370,274,306105,1,2,0:0:0:0:
327,281,306194,1,2,0:0:0:0:
284,315,306283,1,10,3:2:0:0:
245,365,306373,1,2,0:0:0:0:
175,380,306462,1,2,0:0:0:0:
117,342,306551,1,2,0:0:0:0:
94,273,306641,6,0,B|81:194|145:164|145:164|228:165|241:81,1,251.999992309571,2|8,3:2|3:2,0:0:0:0:
2,1,307176,1,2,0:0:0:0:
13,248,307355,1,2,3:2:0:0:
162,85,307534,1,2,0:0:0:0:
0,162,307712,5,2,3:2:0:0:
43,159,307802,1,2,0:0:0:0:
83,183,307891,1,2,0:0:0:0:
102,226,307980,1,2,0:0:0:0:
93,272,308069,6,0,B|80:359|161:388|222:354|222:354|207:318|228:275,1,251.999992309571,2|8,3:2|3:2,0:0:0:0:
34,370,308605,1,2,0:0:0:0:
34,370,308694,1,2,0:0:0:0:
34,370,308784,1,2,3:2:0:0:
202,207,308962,1,2,0:0:0:0:
13,248,309141,1,10,3:2:0:0:
147,384,309319,1,2,0:0:0:0:
47,176,309498,6,0,B|62:122|124:108|158:140|158:140|129:158|125:199,1,188.999994232178,2|0,3:2|2:0,0:0:0:0:
134,252,309855,1,10,3:2:0:0:
312,243,310034,2,0,P|252:246|198:199,1,125.999996154785,2|0,0:0|3:2,0:0:0:0:
436,81,310391,2,0,P|378:104|350:159,1,125.999996154785,2|0,0:0|3:2,0:0:0:0:
426,346,310748,2,0,P|435:285|403:233,1,125.999996154785,2|2,0:0|3:2,0:0:0:0:
264,378,311105,5,2,0:0:0:0:
238,312,311194,1,2,0:0:0:0:
181,281,311284,1,10,3:2:0:0:
126,278,311373,1,2,0:0:0:0:
79,297,311462,1,2,0:0:0:0:
50,331,311551,1,2,0:0:0:0:
38,369,311641,5,2,3:2:0:0:
68,370,311730,1,2,0:0:0:0:
99,357,311819,1,2,0:0:0:0:
121,326,311909,1,2,0:0:0:0:
126,278,311998,1,10,3:2:0:0:
93,229,312087,1,2,0:0:0:0:
44,190,312176,1,2,0:0:0:0:
27,122,312266,1,2,0:0:0:0:
52,55,312355,6,0,B|105:22|160:82|160:82|166:77|166:77|216:134|280:106,1,251.999992309571,2|8,3:2|3:2,0:0:0:0:
499,154,312891,2,0,L|478:23,1,125.999996154785,0|0,0:0|3:2,0:0:0:0:
331,215,313248,1,0,0:0:0:0:
364,0,313426,1,10,3:2:0:0:
425,206,313605,1,2,0:0:0:0:
240,43,313784,6,0,B|181:8|118:55|118:55|89:127|12:121,1,251.999992309571,0|8,3:2|3:2,0:0:0:0:
5,0,314319,1,2,0:0:0:0:
15,27,314409,1,2,0:0:0:0:
34,48,314498,1,2,3:2:0:0:
67,67,314587,1,2,0:0:0:0:
111,81,314676,1,2,0:0:0:0:
180,79,314766,1,2,0:0:0:0:
240,43,314855,1,10,3:2:0:0:
303,7,314944,1,2,0:0:0:0:
376,0,315034,1,2,0:0:0:0:
449,19,315123,1,2,0:0:0:0:
487,81,315212,6,0,B|398:89|402:193|402:193|462:261|425:343,2,288,0|10|0,3:2|3:2|3:2,0:0:0:0:
435,311,316105,1,0,0:0:0:0:
297,113,316284,1,2,3:2:0:0:
255,309,316462,5,2,0:0:0:0:
255,309,316551,1,2,0:0:0:0:
255,309,316641,2,0,B|264:261|318:244|362:269|362:269|348:300|357:333,1,188.999994232178,2|0,3:2|2:0,0:0:0:0:
405,384,316998,1,10,3:2:0:0:
328,183,317176,1,2,0:0:0:0:
247,384,317355,5,2,3:2:0:0:
223,384,317444,1,2,0:0:0:0:
198,372,317534,1,2,0:0:0:0:
183,347,317623,1,2,0:0:0:0:
176,305,317712,1,10,3:2:0:0:
155,265,317801,1,2,0:0:0:0:
106,238,317891,1,2,0:0:0:0:
46,250,317980,1,2,0:0:0:0:
18,305,318069,6,0,P|144:284|298:260,1,251.999992309571,6|8,3:2|3:2,0:0:0:0:
507,240,318605,1,0,0:0:0:0:
341,235,318784,1,0,3:2:0:0:
494,320,318962,1,0,0:0:0:0:
414,152,319141,2,0,L|436:291,1,116.999994644165,8|0,3:2|0:0,0:0:0:0:
249,381,319498,6,0,L|271:241,1,116.999994644165,2|0,3:2|0:0,0:0:0:0:
384,341,319855,1,8,3:2:0:0:
348,101,320034,1,0,0:0:0:0:
168,281,320212,2,0,B|113:281|96:322|96:322|91:277|41:261,1,175.499991966248,2|0,3:2|2:0,0:0:0:0:
0,333,320569,2,0,P|95:309|177:363,1,202.500007724762,10|0,3:2|2:0,0:0:0:0:
249,381,320926,6,0,L|279:190,1,175.499991966248,2|0,3:2|2:0,0:0:0:0:
348,101,321284,2,0,L|368:227,1,116.999994644165,8|0,3:2|0:0,0:0:0:0:
210,178,321641,2,0,P|231:151|276:141,1,58.4999973220826,2|0,3:2|0:0,0:0:0:0:
429,181,321819,2,0,P|441:212|428:256,1,58.4999973220826,2|0,0:0|0:0,0:0:0:0:
316,369,321998,2,0,P|282:364|250:330,1,58.4999973220826,10|0,3:2|0:0,0:0:0:0:
137,214,322176,6,0,L|2:242,1,116.999994644165,2|0,0:2|3:2,0:0:0:0:
321,288,322534,2,0,L|186:259,1,116.999994644165,2|8,0:0|3:2,0:0:0:0:
480,192,322891,2,0,L|345:220,1,116.999994644165,2|0,0:0|3:2,0:0:0:0:
117,315,323248,5,2,0:0:0:0:
159,373,323337,1,2,0:0:0:0:
223,384,323426,1,10,3:2:0:0:
282,365,323516,1,2,0:0:0:0:
309,339,323605,1,2,0:0:0:0:
320,313,323694,1,2,0:0:0:0:
321,288,323784,6,0,B|323:222|257:182|194:210|194:210|210:244|205:284,1,233.999989288331,2|8,3:2|3:2,0:0:0:0:
30,381,324319,1,2,0:0:0:0:
30,381,324409,1,2,0:0:0:0:
30,381,324498,2,0,L|157:353,1,116.999994644165,2|0,3:2|0:0,0:0:0:0:
321,288,324855,2,0,L|193:260,1,116.999994644165,8|0,3:2|0:0,0:0:0:0:
6,82,325212,6,0,B|61:91|99:130|99:130|73:100|67:60,1,175.499991966248,2|0,3:2|2:0,0:0:0:0:
27,9,325569,2,0,L|66:259,1,233.999989288331,10|2,3:2|3:2,0:0:0:0:
249,83,326105,1,2,0:0:0:0:
249,83,326194,1,2,0:0:0:0:
249,83,326284,2,0,P|204:48|147:57,1,116.999994644165,10|0,3:2|0:0,0:0:0:0:
63,240,326641,6,0,B|137:207|182:138|182:138|171:192|194:227,1,233.999989288331,2|8,3:2|3:2,0:0:0:0:
403,125,327176,1,2,0:0:0:0:
403,125,327266,1,2,0:0:0:0:
403,125,327355,2,0,P|323:179|222:152,1,175.499991966248,2|0,3:2|2:0,0:0:0:0:
167,96,327712,2,0,L|188:233,1,116.999994644165,8|0,3:2|0:0,0:0:0:0:
4,339,328069,6,0,B|60:284|120:338|120:338|149:398|219:380,1,233.999989288331,2|8,3:2|3:2,0:0:0:0:
443,337,328605,1,2,0:0:0:0:
443,337,328694,1,2,0:0:0:0:
443,337,328784,1,2,3:2:0:0:
403,338,328873,1,2,0:0:0:0:
374,297,328962,1,2,0:0:0:0:
384,241,329051,1,2,0:0:0:0:
428,197,329141,1,10,3:2:0:0:
489,158,329230,1,2,0:0:0:0:
502,87,329319,1,2,0:0:0:0:
447,38,329409,1,2,0:0:0:0:
377,50,329498,6,0,B|372:108|306:142|242:109|242:109|250:45|181:15,1,270.000010299683,6|8,3:2|3:2,0:0:0:0:
19,163,330034,1,0,0:0:0:0:
166,91,330212,1,0,3:2:0:0:
0,19,330391,1,0,0:0:0:0:
106,171,330569,2,0,L|86:50,1,116.999994644165,8|0,3:2|0:0,0:0:0:0:
287,256,330926,6,0,P|248:209|176:211,1,116.999994644165,2|0,3:2|0:0,0:0:0:0:
38,342,331284,1,8,3:2:0:0:
0,160,331462,1,0,0:0:0:0:
191,380,331641,2,0,B|137:369|111:311|111:311|123:357|97:394,1,175.499991966248,2|0,3:2|2:0,0:0:0:0:
38,342,331998,2,0,L|239:311,1,175.499991966248,10|0,3:2|2:0,0:0:0:0:
287,256,332355,6,0,B|336:226|382:264|382:264|395:313|450:320,1,175.499991966248,2|0,3:2|2:0,0:0:0:0:
463,381,332712,2,0,L|482:260,1,116.999994644165,8|0,3:2|0:0,0:0:0:0:
343,171,333069,2,0,L|353:234,1,58.4999973220826,2|0,3:2|0:0,0:0:0:0:
500,78,333248,2,0,L|489:141,1,58.4999973220826,2|0,0:0|0:0,0:0:0:0:
318,22,333426,2,0,L|328:85,1,58.4999973220826,10|0,3:2|0:0,0:0:0:0:
361,286,333605,6,0,L|340:153,1,116.999994644165,2|0,0:2|3:2,0:0:0:0:
182,314,333962,2,0,L|260:205,1,116.999994644165,2|8,0:0|3:2,0:0:0:0:
35,207,334319,2,0,L|167:186,1,116.999994644165,2|0,0:0|3:2,0:0:0:0:
318,22,334676,5,2,0:0:0:0:
247,5,334766,1,2,0:0:0:0:
185,24,334855,1,10,3:2:0:0:
151,64,334944,1,2,0:0:0:0:
120,95,335034,1,2,0:0:0:0:
72,98,335123,1,2,0:0:0:0:
38,81,335212,6,0,B|77:23|172:50|180:112|180:112|149:135|149:177,1,233.999989288331,2|8,3:2|3:2,0:0:0:0:
89,306,335748,1,2,0:0:0:0:
89,306,335837,1,2,0:0:0:0:
89,306,335926,2,0,P|71:247|30:203,1,116.999994644165,2|0,3:2|0:0,0:0:0:0:
223,384,336284,2,0,P|240:325|282:281,1,116.999994644165,8|0,3:2|0:0,0:0:0:0:
432,277,336641,6,0,B|368:269|334:231|334:231|363:269|351:313,1,175.499991966248,2|0,3:2|2:0,0:0:0:0:
277,285,336998,2,0,P|389:259|450:159,1,233.999989288331,10|2,3:2|3:2,0:0:0:0:
242,82,337534,1,2,0:0:0:0:
242,82,337623,1,2,0:0:0:0:
242,82,337712,2,0,L|261:207,1,116.999994644165,10|0,3:2|0:0,0:0:0:0:
111,370,338069,6,0,B|83:318|133:253|201:267|201:267|190:307|218:335,1,233.999989288331,2|8,3:2|3:2,0:0:0:0:
430,347,338605,1,2,0:0:0:0:
430,347,338694,1,2,0:0:0:0:
430,347,338784,2,0,P|366:294|256:290,1,175.499991966248,2|0,3:2|2:0,0:0:0:0:
325,383,339141,2,0,P|385:379|437:337,1,116.999994644165,8|0,3:2|0:0,0:0:0:0:
224,183,339498,6,0,B|267:205|276:284|276:284|324:224|383:225,1,233.999989288331,2|8,3:2|3:2,0:0:0:0:
179,126,340034,5,2,0:0:0:0:
190,70,340123,1,2,0:0:0:0:
237,40,340212,1,2,3:2:0:0:
294,54,340301,1,2,0:0:0:0:
319,106,340391,1,2,0:0:0:0:
365,80,340480,1,2,0:0:0:0:
418,84,340569,1,10,3:2:0:0:
451,123,340659,1,2,0:0:0:0:
451,177,340748,1,2,0:0:0:0:
417,216,340837,1,2,0:0:0:0:
372,226,340926,6,0,P|337:234|308:255,1,72,6|2,3:2|0:0,0:0:0:0:
154,286,341284,2,0,B|193:256|236:291|236:291|249:325|297:337,1,144,2|0,0:0|0:0,0:0:0:0:
364,367,341819,2,0,L|354:306,2,45,2|0|0,0:0|0:0|0:0,0:0:0:0:
464,300,342355,5,2,0:0:0:0:
464,300,342534,2,0,L|472:247,1,45
361,231,342891,1,2,0:0:0:0:
361,231,343070,2,0,L|353:178,1,45,0|0,0:0|2:0,0:0:0:0:
466,95,343426,2,0,L|458:148,1,45,2|2,0:0|0:0,0:0:0:0:
400,43,343784,5,2,0:0:0:0:
473,18,343962,1,2,0:0:0:0:
391,118,344141,2,0,P|320:94|246:94,1,144,2|0,0:0|0:0,0:0:0:0:
148,70,344676,2,0,P|175:60|191:30,2,45,2|0|0,0:0|0:0|0:0,0:0:0:0:
38,35,345212,5,2,0:0:0:0:
38,35,345391,2,0,L|46:87,1,45
105,156,345748,1,2,0:0:0:0:
105,156,345927,2,0,L|97:208,1,45,0|0,0:0|2:0,0:0:0:0:
29,298,346284,2,0,L|22:253,1,45,2|0,0:0|2:0,0:0:0:0:
95,353,346641,5,2,0:0:0:0:
23,382,346819,1,2,0:0:0:0:
107,275,346998,2,0,P|182:284|251:329,1,144,2|0,0:0|0:0,0:0:0:0:
367,365,347534,2,0,P|338:374|324:397,2,45,2|0|0,0:0|0:0|0:0,0:0:0:0:
334,256,348069,5,2,0:0:0:0:
334,256,348248,2,0,L|389:247,1,45
220,193,348605,1,2,0:0:0:0:
220,193,348784,2,0,L|275:202,1,45,0|0,0:0|2:0,0:0:0:0:
107,275,349141,2,0,L|162:266,1,45,2|2,0:0|0:0,0:0:0:0:
59,208,349498,5,2,0:0:0:0:
31,276,349676,1,2,0:0:0:0:
132,199,349855,2,0,P|111:118|108:47,1,144,2|0,0:0|0:0,0:0:0:0:
0,10,350391,2,0,P|18:28|29:60,2,45,2|0|0,0:0|0:0|0:0,0:0:0:0:
47,126,350926,5,2,0:0:0:0:
107,58,351105,1,0,0:0:0:0:
185,107,351284,1,0,0:0:0:0:
323,126,351462,5,2,0:0:0:0:
263,58,351641,1,0,0:0:0:0:
185,107,351820,1,0,0:0:0:0:
157,249,351998,6,0,B|173:253|191:269|191:269|206:249|237:240,1,72,2|0,0:0|2:0,0:0:0:0:
323,126,352355,6,0,B|340:103|375:98|408:117|417:154|417:154|447:124|507:119|545:160|542:245|482:281|452:246|412:246|385:283|385:283|378:238|337:233|307:205|306:174|314:149,1,585,2|0,0:0|0:0,0:0:0:0:
