osu file format v14

[General]
AudioFilename: audio.mp3
AudioLeadIn: 0
PreviewTime: 56585
Countdown: 0
SampleSet: None
StackLeniency: 0.7
Mode: 0
LetterboxInBreaks: 0
WidescreenStoryboard: 0

[Editor]
Bookmarks: 22299
DistanceSpacing: 0.8
BeatDivisor: 4
GridSize: 4
TimelineZoom: 1

[Metadata]
Title:Jeg onskerikke a skade deg
TitleUnicode:Jeg onskerikke a skade deg
Artist:Subplaid
ArtistUnicode:Subplaid
Creator:Dunced
Version:Sorrow
Source:
Tags:
BeatmapID:1728768
BeatmapSetID:824985

[Difficulty]
HPDrainRate:8
CircleSize:4
OverallDifficulty:7
ApproachRate:9
SliderMultiplier:1.6
SliderTickRate:1

[Events]
//Background and Video events
0,0,"jeg.jpg",0,0
//Break Periods
//Storyboard Layer 0 (Background)
//Storyboard Layer 1 (Fail)
//Storyboard Layer 2 (Pass)
//Storyboard Layer 3 (Foreground)
//Storyboard Sound Samples

[TimingPoints]
357,342.857142857143,4,3,0,50,1,0
66185,-100,4,3,0,50,0,1

[Colours]
Combo1 : 0,128,128
Combo2 : 121,0,0
Combo3 : 0,0,111
Combo4 : 128,128,255

[HitObjects]
104,12,22299,6,0,P|116:56|156:76,1,80
148,128,22642,2,0,L|100:168,10,40
232,248,23671,1,8,0:0:0:0:
436,108,24014,1,8,0:0:0:0:
460,292,24185,2,0,B|408:344|360:316|360:316|352:244|352:244,1,160
256,32,24699,6,0,L|288:92,2,40
216,128,25042,2,0,P|264:144|368:92,1,160
424,180,25728,1,8,0:0:0:0:
320,248,26071,2,0,L|284:276,4,40
148,80,26757,1,8,0:0:0:0:
268,152,27099,5,8,0:0:0:0:
160,260,27271,1,8,0:0:0:0:
228,332,27442,1,0,0:0:0:0:
236,128,27785,2,0,P|76:48|76:48,1,160
60,64,28214,1,0,0:0:0:0:
40,76,28299,1,0,0:0:0:0:
32,96,28385,1,0,0:0:0:0:
36,120,28471,1,0,0:0:0:0:
48,136,28557,1,0,0:0:0:0:
64,148,28642,1,0,0:0:0:0:
56,164,28728,1,0,0:0:0:0:
44,176,28814,1,0,0:0:0:0:
32,196,28899,1,0,0:0:0:0:
20,216,28985,1,0,0:0:0:0:
72,304,29157,5,4,0:0:0:0:
200,316,29499,2,0,P|244:312|340:236,1,160
368,104,30014,1,0,0:0:0:0:
248,8,30185,2,0,P|184:8|92:68,1,160
44,124,30699,1,0,0:0:0:0:
52,140,30785,1,0,0:0:0:0:
64,152,30871,1,0,0:0:0:0:
80,164,30957,1,0,0:0:0:0:
100,176,31042,1,0,0:0:0:0:
120,180,31128,1,0,0:0:0:0:
104,308,31214,5,8,0:0:0:0:
220,224,31557,1,0,0:0:0:0:
236,216,31642,1,0,0:0:0:0:
248,200,31728,1,0,0:0:0:0:
260,176,31814,1,0,0:0:0:0:
256,160,31899,5,8,0:0:0:0:
256,136,31985,1,8,0:0:0:0:
264,120,32071,1,8,0:0:0:0:
280,104,32157,1,8,0:0:0:0:
300,92,32242,1,8,0:0:0:0:
320,92,32328,1,8,0:0:0:0:
336,100,32414,1,8,0:0:0:0:
352,112,32499,1,8,0:0:0:0:
364,136,32585,1,0,0:0:0:0:
284,264,32928,5,8,0:0:0:0:
148,60,33271,2,0,P|100:92|104:196,1,160,8|0,0:0|0:0,0:0:0:0:
168,136,33785,2,0,L|268:156,5,80,0|0|0|0|0|2,0:0|0:0|0:0|0:0|0:0|0:0,0:0:0:0:
344,288,34985,1,0,0:0:0:0:
320,284,35071,1,0,0:0:0:0:
296,268,35157,1,0,0:0:0:0:
288,244,35242,1,0,0:0:0:0:
272,224,35328,1,0,0:0:0:0:
248,216,35414,1,0,0:0:0:0:
216,216,35499,1,0,0:0:0:0:
192,232,35585,1,0,0:0:0:0:
176,256,35671,1,0,0:0:0:0:
156,280,35757,5,0,0:0:0:0:
136,296,35842,1,0,0:0:0:0:
104,304,35928,1,0,0:0:0:0:
80,296,36014,1,4,0:0:0:0:
320,20,36357,1,8,0:0:0:0:
388,232,36699,1,0,0:0:0:0:
88,52,36871,1,4,0:0:0:0:
228,176,37042,6,0,P|228:220|188:280,1,80
228,176,37385,2,0,P|192:216|144:224,1,80
228,176,37728,2,0,P|184:180|132:160,1,80
228,176,38071,2,0,P|180:136|180:96,1,80
96,88,38414,5,0,0:0:0:0:
76,124,38499,1,0,0:0:0:0:
72,168,38585,1,0,0:0:0:0:
80,216,38671,1,0,0:0:0:0:
96,256,38757,1,0,0:0:0:0:
124,296,38842,1,0,0:0:0:0:
156,328,38928,1,0,0:0:0:0:
196,344,39014,1,0,0:0:0:0:
240,344,39099,1,0,0:0:0:0:
268,320,39185,1,0,0:0:0:0:
288,272,39271,1,0,0:0:0:0:
288,216,39357,1,0,0:0:0:0:
256,168,39442,5,0,0:0:0:0:
240,112,39528,1,0,0:0:0:0:
272,64,39614,1,0,0:0:0:0:
320,32,39699,1,0,0:0:0:0:
376,36,39785,1,0,0:0:0:0:
424,68,39871,1,0,0:0:0:0:
456,116,39957,1,0,0:0:0:0:
448,172,40042,1,0,0:0:0:0:
420,224,40128,5,8,0:0:0:0:
160,136,40471,1,8,0:0:0:0:
120,268,40642,2,0,L|192:328,3,80,0|0|0|8,0:0|0:0|0:0|0:0,0:0:0:0:
64,68,41499,1,0,0:0:0:0:
144,184,41671,2,0,B|180:168|184:168|188:192|188:192|192:196|216:204|216:204|224:200|244:200,15,80
396,96,44928,5,0,0:0:0:0:
416,120,45014,1,0,0:0:0:0:
420,152,45099,1,0,0:0:0:0:
408,176,45185,1,0,0:0:0:0:
384,204,45271,2,0,P|336:148|380:88,1,160,0|4,0:0|0:0,0:0:0:0:
192,32,45957,1,8,0:0:0:0:
96,168,46128,5,0,0:0:0:0:
88,184,46214,1,0,0:0:0:0:
76,204,46299,1,0,0:0:0:0:
64,224,46385,1,0,0:0:0:0:
48,248,46471,1,0,0:0:0:0:
32,272,46557,1,0,0:0:0:0:
16,296,46642,2,0,B|-15:348|-15:348|248:344,1,320
300,276,47414,5,0,0:0:0:0:
316,252,47499,1,0,0:0:0:0:
328,224,47585,1,0,0:0:0:0:
332,192,47671,1,0,0:0:0:0:
312,160,47757,1,0,0:0:0:0:
288,136,47842,1,0,0:0:0:0:
252,112,47928,1,0,0:0:0:0:
220,100,48014,1,0,0:0:0:0:
176,100,48099,1,0,0:0:0:0:
136,120,48185,1,0,0:0:0:0:
104,152,48271,1,0,0:0:0:0:
80,192,48357,1,0,0:0:0:0:
64,232,48442,5,8,0:0:0:0:
60,288,48528,1,8,0:0:0:0:
88,332,48614,1,8,0:0:0:0:
136,356,48699,1,8,0:0:0:0:
192,352,48785,1,8,0:0:0:0:
244,320,48871,1,8,0:0:0:0:
276,264,48957,1,8,0:0:0:0:
288,200,49042,1,4,0:0:0:0:
92,84,49385,5,8,0:0:0:0:
176,44,49728,2,0,P|200:64|128:152,1,160,8|0,0:0|0:0,0:0:0:0:
144,44,50414,2,0,L|208:44,3,53.3333333333333
484,320,51099,2,0,B|400:312|400:312|324:360,1,160
196,228,51614,1,0,0:0:0:0:
380,52,51785,6,0,B|340:20|304:56|376:120|432:68|352:4|344:152|412:168|496:120,1,240,4|0,0:0|0:0,0:0:0:0:
512,152,52471,2,0,B|484:256|264:392|464:240|308:208,1,320,0|8,0:0|0:0,0:0:0:0:
276,224,53242,1,0,0:0:0:0:
252,220,53328,1,0,0:0:0:0:
232,204,53414,1,0,0:0:0:0:
220,176,53499,1,8,0:0:0:0:
224,152,53585,1,8,0:0:0:0:
208,128,53671,1,8,0:0:0:0:
180,108,53757,1,8,0:0:0:0:
148,108,53842,1,8,0:0:0:0:
116,128,53928,1,0,0:0:0:0:
100,160,54014,1,0,0:0:0:0:
104,196,54099,5,0,0:0:0:0:
136,224,54185,1,0,0:0:0:0:
168,236,54271,1,8,0:0:0:0:
212,224,54357,1,8,0:0:0:0:
240,204,54442,1,8,0:0:0:0:
280,192,54528,1,4,0:0:0:0:
48,48,54871,1,8,0:0:0:0:
192,144,55214,6,0,B|156:184|156:184|176:248|176:248|228:272,1,160
328,208,55899,1,8,0:0:0:0:
352,192,55985,1,8,0:0:0:0:
368,164,56071,1,8,0:0:0:0:
368,128,56157,1,8,0:0:0:0:
348,104,56242,1,8,0:0:0:0:
116,308,56585,5,4,0:0:0:0:
404,180,56928,1,0,0:0:0:0:
212,88,57099,1,0,0:0:0:0:
188,100,57185,1,0,0:0:0:0:
172,128,57271,1,0,0:0:0:0:
164,160,57357,1,0,0:0:0:0:
168,196,57442,1,0,0:0:0:0:
192,224,57528,1,0,0:0:0:0:
228,232,57614,1,8,0:0:0:0:
64,300,57957,5,0,0:0:0:0:
280,256,58128,2,0,L|324:240,9,26.6666666666667
328,200,58728,2,0,L|348:152,1,40,0|8,0:0|0:0,0:0:0:0:
328,128,58899,2,0,L|288:96,5,40,0|0|0|0|0|8,0:0|0:0|0:0|0:0|0:0|0:0,0:0:0:0:
348,32,59499,5,8,0:0:0:0:
140,152,59671,1,8,0:0:0:0:
372,188,59842,1,8,0:0:0:0:
152,312,60014,1,4,0:0:0:0:
348,32,60357,1,8,0:0:0:0:
320,68,60699,1,0,0:0:0:0:
184,180,61385,5,0,0:0:0:0:
160,200,61471,1,8,0:0:0:0:
180,228,61557,1,0,0:0:0:0:
156,248,61642,1,8,0:0:0:0:
176,272,61728,1,0,0:0:0:0:
340,124,62071,5,8,0:0:0:0:
96,40,62414,1,8,0:0:0:0:
280,220,62585,1,0,0:0:0:0:
32,136,62757,1,0,0:0:0:0:
96,272,62928,2,0,B|144:200|144:200|136:376|136:376|228:376,1,320,0|2,0:0|0:0,0:0:0:0:
296,284,63957,1,2,0:0:0:0:
212,68,64128,5,8,0:0:0:0:
336,120,64299,2,0,B|360:160|368:208|488:176|488:104|488:104|452:44|524:280,1,400,8|8,0:0|0:0,0:0:0:0:
304,352,65499,2,4,P|272:340|240:300,1,80
240,80,65842,1,8,0:0:0:0:
380,128,66185,6,0,L|400:184,8,40,0|0|0|0|0|0|0|0|8,0:0|0:0|0:0|0:0|0:0|0:0|0:0|0:0|0:0,0:0:0:0:
380,204,66957,1,0,0:0:0:0:
364,232,67042,1,0,0:0:0:0:
336,256,67128,1,0,0:0:0:0:
304,268,67214,1,0,0:0:0:0:
272,272,67299,1,0,0:0:0:0:
236,264,67385,1,0,0:0:0:0:
212,240,67471,1,0,0:0:0:0:
208,204,67557,1,0,0:0:0:0:
224,172,67642,1,0,0:0:0:0:
252,152,67728,1,0,0:0:0:0:
284,144,67814,1,0,0:0:0:0:
320,148,67899,5,0,0:0:0:0:
348,176,67985,1,0,0:0:0:0:
364,200,68071,1,0,0:0:0:0:
372,236,68157,1,0,0:0:0:0:
360,268,68242,1,8,0:0:0:0:
320,288,68328,2,0,P|296:280|260:256,15,40,0|0|0|0|0|0|0|0|0|0|0|0|0|0|0|8,0:0|0:0|0:0|0:0|0:0|0:0|0:0|0:0|0:0|0:0|0:0|0:0|0:0|0:0|0:0|0:0,0:0:0:0:
272,240,69699,1,0,0:0:0:0:
256,208,69785,1,0,0:0:0:0:
232,184,69871,1,0,0:0:0:0:
196,176,69957,1,0,0:0:0:0:
164,196,70042,1,0,0:0:0:0:
152,224,70128,1,0,0:0:0:0:
144,256,70214,5,0,0:0:0:0:
120,288,70299,1,0,0:0:0:0:
80,300,70385,1,0,0:0:0:0:
40,288,70471,1,0,0:0:0:0:
8,260,70557,1,0,0:0:0:0:
8,216,70642,1,0,0:0:0:0:
28,184,70728,1,0,0:0:0:0:
56,164,70814,1,0,0:0:0:0:
96,156,70899,1,0,0:0:0:0:
128,168,70985,1,8,0:0:0:0:
156,196,71071,6,0,P|176:208|216:208,15,40,0|0|0|0|0|0|0|0|0|0|0|0|0|0|0|8,0:0|0:0|0:0|0:0|0:0|0:0|0:0|0:0|0:0|0:0|0:0|0:0|0:0|0:0|0:0|0:0,0:0:0:0:
228,212,72442,5,0,0:0:0:0:
256,204,72528,1,0,0:0:0:0:
284,184,72614,1,0,0:0:0:0:
296,152,72699,1,0,0:0:0:0:
300,116,72785,1,0,0:0:0:0:
320,88,72871,1,0,0:0:0:0:
352,80,72957,1,0,0:0:0:0:
384,84,73042,1,0,0:0:0:0:
416,104,73128,1,0,0:0:0:0:
432,140,73214,1,0,0:0:0:0:
432,176,73299,1,0,0:0:0:0:
416,204,73385,5,0,0:0:0:0:
380,224,73471,1,0,0:0:0:0:
344,224,73557,1,0,0:0:0:0:
308,212,73642,1,0,0:0:0:0:
284,176,73728,2,0,P|272:152|288:124,16,40
252,104,75185,1,0,0:0:0:0:
216,92,75271,1,0,0:0:0:0:
180,96,75357,1,0,0:0:0:0:
152,112,75442,1,0,0:0:0:0:
132,136,75528,1,0,0:0:0:0:
120,168,75614,1,0,0:0:0:0:
120,212,75699,5,0,0:0:0:0:
144,240,75785,1,0,0:0:0:0:
176,256,75871,1,0,0:0:0:0:
212,264,75957,1,0,0:0:0:0:
248,256,76042,1,0,0:0:0:0:
280,232,76128,1,0,0:0:0:0:
300,196,76214,1,0,0:0:0:0:
320,160,76299,1,0,0:0:0:0:
356,148,76385,1,0,0:0:0:0:
392,172,76471,1,0,0:0:0:0:
416,200,76557,1,0,0:0:0:0:
424,240,76642,1,0,0:0:0:0:
424,284,76728,5,0,0:0:0:0:
400,320,76814,1,0,0:0:0:0:
352,320,76899,1,0,0:0:0:0:
312,296,76985,1,0,0:0:0:0:
296,264,77071,1,0,0:0:0:0:
296,224,77157,2,0,B|220:104|220:104|184:184|184:184|92:184,1,320
32,40,78185,6,0,L|112:88,1,80
512,48,78528,2,0,L|436:80,1,80
16,348,78871,2,0,L|104:292,1,80
508,340,79214,2,0,L|408:284,1,80
176,152,79557,5,8,0:0:0:0:
312,72,79728,1,0,0:0:0:0:
340,92,79814,1,0,0:0:0:0:
364,120,79899,1,0,0:0:0:0:
376,160,79985,1,0,0:0:0:0:
364,200,80071,1,0,0:0:0:0:
336,228,80157,1,0,0:0:0:0:
296,240,80242,1,0,0:0:0:0:
264,264,80328,1,0,0:0:0:0:
256,304,80414,1,0,0:0:0:0:
276,344,80499,1,0,0:0:0:0:
312,360,80585,2,0,P|376:368|416:352,1,80
388,242,81099,5,0,0:0:0:0:
103,79,81271,1,0,0:0:0:0:
90,113,81357,5,4,0:0:0:0:
110,146,81442,1,0,0:0:0:0:
144,165,81528,1,0,0:0:0:0:
182,178,81614,1,0,0:0:0:0:
221,187,81699,1,0,0:0:0:0:
226,226,81785,1,0,0:0:0:0:
244,261,81871,1,0,0:0:0:0:
280,276,81957,1,0,0:0:0:0:
283,248,82042,1,0,0:0:0:0:
285,227,82128,1,0,0:0:0:0:
288,209,82214,1,0,0:0:0:0:
300,197,82299,1,0,0:0:0:0:
179,107,82642,6,0,P|150:111|126:110,11,40
332,112,83671,1,0,0:0:0:0:
74,338,83757,1,0,0:0:0:0:
333,297,84357,5,0,0:0:0:0:
362,270,84442,1,0,0:0:0:0:
372,232,84528,1,0,0:0:0:0:
357,195,84614,1,0,0:0:0:0:
381,186,84699,1,0,0:0:0:0:
421,186,84785,1,0,0:0:0:0:
461,186,84871,1,0,0:0:0:0:
471,222,84957,1,0,0:0:0:0:
444,250,85042,1,0,0:0:0:0:
405,257,85128,1,8,0:0:0:0:
365,255,85214,1,0,0:0:0:0:
326,250,85299,1,0,0:0:0:0:
286,254,85385,5,0,0:0:0:0:
254,233,85471,1,0,0:0:0:0:
281,207,85556,1,0,0:0:0:0:
320,210,85642,1,0,0:0:0:0:
359,222,85728,1,0,0:0:0:0:
369,254,85813,1,0,0:0:0:0:
387,237,85899,1,0,0:0:0:0:
386,202,85985,1,0,0:0:0:0:
370,169,86071,2,0,P|334:157|320:138,24,40
