osu file format v14

[General]
AudioFilename: audio.mp3
AudioLeadIn: 0
PreviewTime: 25640
Countdown: 0
SampleSet: None
StackLeniency: 0.7
Mode: 3
LetterboxInBreaks: 0
SpecialStyle: 0
WidescreenStoryboard: 0

[Editor]
Bookmarks: 21424
DistanceSpacing: 0.8
BeatDivisor: 4
GridSize: 4
TimelineZoom: 1.8

[Metadata]
Title:If you went out with friends in a way
TitleUnicode:If you went out with friends in a way
Artist:Subplaid
ArtistUnicode:Subplaid
Creator:Hydria
Version:Insane
Source:
Tags:breakcore jungle choir Russian Если с другом вышел в путь esli s drugom vishel v put' remix soviet ussr remix Ukraine
BeatmapID:1168833
BeatmapSetID:551864

[Difficulty]
HPDrainRate:8
CircleSize:7
OverallDifficulty:9
ApproachRate:5
SliderMultiplier:1.4
SliderTickRate:1

[Events]
//Background and Video events
0,0,"195483-1024x768.jpg",0,0
//Break Periods
//Storyboard Layer 0 (Background)
//Storyboard Layer 1 (Fail)
//Storyboard Layer 2 (Pass)
//Storyboard Layer 3 (Foreground)
//Storyboard Sound Samples

[TimingPoints]
668,324.324324324324,4,3,0,40,1,0
25965,324.324324324324,4,3,0,40,1,0

[HitObjects]
109,192,262,5,0,0:0:0:0:
402,192,465,1,0,0:0:0:0:
109,192,668,1,4,0:0:0:0:
182,192,668,1,4,0:0:0:0:
475,192,668,1,0,0:0:0:0:
329,192,830,1,0,0:0:0:0:
109,192,830,1,4,0:0:0:0:
182,192,830,1,4,0:0:0:0:
402,192,992,1,8,0:0:0:0:
36,192,992,1,0,0:0:0:0:
109,192,1154,1,0,0:0:0:0:
182,192,1235,1,0,0:0:0:0:
475,192,1316,1,8,0:0:0:0:
256,192,1316,1,0,0:0:0:0:
402,192,1478,1,0,0:0:0:0:
329,192,1559,1,0,0:0:0:0:
256,192,1640,1,0,0:0:0:0:
109,192,1803,1,4,0:0:0:0:
402,192,1803,1,0,0:0:0:0:
36,192,1803,1,4,0:0:0:0:
109,192,1965,1,4,0:0:0:0:
36,192,1965,1,4,0:0:0:0:
329,192,1965,1,0,0:0:0:0:
182,192,2046,1,4,0:0:0:0:
402,192,2046,1,0,0:0:0:0:
475,192,2127,1,0,0:0:0:0:
256,192,2127,1,4,0:0:0:0:
109,192,2289,1,8,0:0:0:0:
402,192,2289,1,0,0:0:0:0:
329,192,2451,1,0,0:0:0:0:
256,192,2532,1,0,0:0:0:0:
182,192,2613,1,0,0:0:0:0:
109,192,2613,1,8,0:0:0:0:
329,192,2776,1,0,0:0:0:0:
256,192,2857,1,0,0:0:0:0:
182,192,2938,1,0,0:0:0:0:
329,192,3100,1,0,0:0:0:0:
256,192,3262,1,4,0:0:0:0:
475,192,3262,1,0,0:0:0:0:
109,192,3262,1,4,0:0:0:0:
109,192,3424,1,4,0:0:0:0:
256,192,3424,1,4,0:0:0:0:
475,192,3424,1,0,0:0:0:0:
475,192,3586,1,0,0:0:0:0:
402,192,3586,1,8,0:0:0:0:
329,192,3749,1,0,0:0:0:0:
256,192,3830,1,0,0:0:0:0:
182,192,3911,1,8,0:0:0:0:
475,192,3911,1,0,0:0:0:0:
402,192,4073,1,0,0:0:0:0:
109,192,4073,1,8,0:0:0:0:
36,192,4235,1,12,0:0:0:0:
329,192,4235,1,0,0:0:0:0:
182,192,4397,1,8,0:0:0:0:
475,192,4397,1,0,0:0:0:0:
329,192,4559,1,8,0:0:0:0:
402,192,4559,1,0,0:0:0:0:
256,192,4722,1,0,0:0:0:0:
182,192,4803,1,0,0:0:0:0:
109,192,4884,1,0,0:0:0:0:
182,192,5046,1,4,0:0:0:0:
402,192,5046,1,4,0:0:0:0:
36,192,5046,1,0,0:0:0:0:
256,192,5208,1,0,0:0:0:0:
329,192,5289,1,0,0:0:0:0:
402,192,5370,1,0,0:0:0:0:
109,192,5370,1,8,0:0:0:0:
182,192,5532,1,0,0:0:0:0:
329,192,5695,1,0,0:0:0:0:
256,192,5695,1,4,0:0:0:0:
109,192,5695,1,4,0:0:0:0:
402,192,5857,1,0,0:0:0:0:
182,192,5857,1,8,0:0:0:0:
402,192,6019,1,0,0:0:0:0:
182,192,6019,1,8,0:0:0:0:
256,192,6181,1,4,0:0:0:0:
36,192,6181,1,0,0:0:0:0:
329,192,6181,1,4,0:0:0:0:
256,192,6343,1,4,0:0:0:0:
36,192,6343,1,0,0:0:0:0:
329,192,6343,1,4,0:0:0:0:
36,192,6505,1,0,0:0:0:0:
256,192,6505,1,4,0:0:0:0:
329,192,6505,1,4,0:0:0:0:
182,192,6667,1,0,0:0:0:0:
256,192,6749,1,0,0:0:0:0:
329,192,6830,1,0,0:0:0:0:
182,192,6992,1,0,0:0:0:0:
109,192,7154,1,0,0:0:0:0:
475,192,7154,1,8,0:0:0:0:
402,192,7316,1,0,0:0:0:0:
329,192,7397,1,0,0:0:0:0:
256,192,7478,1,0,0:0:0:0:
109,192,7640,1,4,0:0:0:0:
182,192,7640,1,4,0:0:0:0:
402,192,7640,1,0,0:0:0:0:
109,192,7803,1,4,0:0:0:0:
182,192,7803,1,4,0:0:0:0:
402,192,7803,1,0,0:0:0:0:
329,192,7965,1,0,0:0:0:0:
475,192,8127,1,0,0:0:0:0:
256,192,8127,1,8,0:0:0:0:
109,192,8289,1,0,0:0:0:0:
256,192,8451,1,8,0:0:0:0:
475,192,8451,1,0,0:0:0:0:
402,192,8532,1,0,0:0:0:0:
182,192,8532,1,8,0:0:0:0:
329,192,8613,1,0,0:0:0:0:
109,192,8613,1,8,0:0:0:0:
256,192,8695,1,8,0:0:0:0:
36,192,8695,1,0,0:0:0:0:
182,192,8776,1,8,0:0:0:0:
109,192,8857,1,8,0:0:0:0:
36,192,8938,1,8,0:0:0:0:
256,192,9019,1,8,0:0:0:0:
182,192,9100,1,0,0:0:0:0:
329,192,9100,1,4,0:0:0:0:
402,192,9100,1,4,0:0:0:0:
109,192,9262,1,0,0:0:0:0:
182,192,9343,1,0,0:0:0:0:
256,192,9424,1,0,0:0:0:0:
109,192,9586,1,4,0:0:0:0:
36,192,9586,1,4,0:0:0:0:
402,192,9586,1,0,0:0:0:0:
182,192,9749,1,8,0:0:0:0:
475,192,9749,1,0,0:0:0:0:
402,192,9911,1,0,0:0:0:0:
329,192,9992,1,0,0:0:0:0:
256,192,10073,1,8,0:0:0:0:
36,192,10073,1,0,0:0:0:0:
182,192,10235,1,0,0:0:0:0:
256,192,10316,1,0,0:0:0:0:
475,192,10397,1,0,0:0:0:0:
36,192,10478,1,0,0:0:0:0:
109,192,10559,1,0,0:0:0:0:
329,192,10640,1,0,0:0:0:0:
182,192,10722,1,0,0:0:0:0:
256,192,10884,1,0,0:0:0:0:
36,192,11046,1,4,0:0:0:0:
109,192,11046,1,4,0:0:0:0:
402,192,11046,1,0,0:0:0:0:
329,192,11208,1,0,0:0:0:0:
256,192,11289,1,0,0:0:0:0:
182,192,11370,1,0,0:0:0:0:
109,192,11370,1,0,0:0:0:0:
402,192,11532,1,0,0:0:0:0:
329,192,11613,1,8,0:0:0:0:
36,192,11613,1,0,0:0:0:0:
109,192,11695,1,0,0:0:0:0:
256,192,11695,1,8,0:0:0:0:
329,192,11857,1,0,0:0:0:0:
475,192,12019,1,0,0:0:0:0:
182,192,12019,1,0,0:0:0:0:
402,192,12181,1,0,0:0:0:0:
329,192,12262,1,0,0:0:0:0:
256,192,12343,1,4,0:0:0:0:
182,192,12343,1,4,0:0:0:0:
109,192,12343,1,0,0:0:0:0:
109,192,12505,1,0,0:0:0:0:
402,192,12505,1,4,0:0:0:0:
475,192,12505,1,4,0:0:0:0:
402,192,12667,1,4,0:0:0:0:
36,192,12667,1,0,0:0:0:0:
475,192,12667,1,4,0:0:0:0:
109,192,12708,1,0,0:0:0:0:
182,192,12749,1,0,0:0:0:0:
256,192,12789,1,0,0:0:0:0:
329,192,12830,1,0,0:0:0:0:
402,192,12870,1,0,0:0:0:0:
475,192,12911,1,0,0:0:0:0:
182,192,12951,1,0,0:0:0:0:
256,192,12992,1,0,0:0:0:0:
36,192,12992,1,8,0:0:0:0:
402,192,13154,1,8,0:0:0:0:
109,192,13154,1,0,0:0:0:0:
36,192,13316,1,0,0:0:0:0:
329,192,13316,1,4,0:0:0:0:
256,192,13316,1,4,0:0:0:0:
36,192,13478,1,0,0:0:0:0:
329,192,13478,1,4,0:0:0:0:
256,192,13478,1,4,0:0:0:0:
109,192,13640,1,4,0:0:0:0:
182,192,13640,1,4,0:0:0:0:
402,192,13640,1,0,0:0:0:0:
256,192,13722,1,0,0:0:0:0:
329,192,13803,1,0,0:0:0:0:
109,192,13884,1,0,0:0:0:0:
182,192,13965,1,0,0:0:0:0:
402,192,14046,1,0,0:0:0:0:
329,192,14127,1,0,0:0:0:0:
36,192,14127,1,8,0:0:0:0:
109,192,14289,1,8,0:0:0:0:
475,192,14289,1,0,0:0:0:0:
402,192,14451,1,0,0:0:0:0:
256,192,14613,1,0,0:0:0:0:
109,192,14776,1,4,0:0:0:0:
182,192,14776,1,4,0:0:0:0:
402,192,14776,1,0,0:0:0:0:
36,192,14938,1,4,0:0:0:0:
329,192,14938,1,4,0:0:0:0:
475,192,14938,1,0,0:0:0:0:
402,192,15262,1,0,0:0:0:0:
256,192,15262,1,0,0:0:0:0:
109,192,15424,1,4,0:0:0:0:
402,192,15424,1,0,0:0:0:0:
182,192,15424,1,4,0:0:0:0:
329,192,15586,1,0,0:0:0:0:
182,192,15586,1,8,0:0:0:0:
36,192,15749,1,0,0:0:0:0:
256,192,15749,1,8,0:0:0:0:
402,192,15911,1,8,0:0:0:0:
475,192,15911,1,0,0:0:0:0:
329,192,15992,1,0,0:0:0:0:
182,192,16073,1,0,0:0:0:0:
256,192,16154,1,0,0:0:0:0:
109,192,16235,1,4,0:0:0:0:
402,192,16235,1,0,0:0:0:0:
36,192,16235,1,4,0:0:0:0:
182,192,16397,1,0,0:0:0:0:
256,192,16478,1,0,0:0:0:0:
329,192,16559,1,8,0:0:0:0:
475,192,16559,1,0,0:0:0:0:
109,192,16722,1,4,0:0:0:0:
36,192,16722,1,4,0:0:0:0:
402,192,16722,1,0,0:0:0:0:
402,192,16884,1,0,0:0:0:0:
329,192,17046,1,0,0:0:0:0:
109,192,17046,1,8,0:0:0:0:
182,192,17208,1,0,0:0:0:0:
256,192,17289,1,0,0:0:0:0:
402,192,17370,1,0,0:0:0:0:
329,192,17451,1,0,0:0:0:0:
182,192,17532,1,4,0:0:0:0:
109,192,17532,1,4,0:0:0:0:
475,192,17532,1,0,0:0:0:0:
256,192,17695,1,0,0:0:0:0:
329,192,17776,1,0,0:0:0:0:
402,192,17857,1,0,0:0:0:0:
36,192,17857,1,8,0:0:0:0:
182,192,18019,1,4,0:0:0:0:
109,192,18019,1,4,0:0:0:0:
329,192,18019,1,0,0:0:0:0:
475,192,18181,1,0,0:0:0:0:
402,192,18343,1,8,0:0:0:0:
109,192,18343,1,0,0:0:0:0:
329,192,18505,1,4,0:0:0:0:
109,192,18505,1,0,0:0:0:0:
256,192,18505,1,4,0:0:0:0:
182,192,18667,1,0,0:0:0:0:
256,192,18830,1,0,0:0:0:0:
402,192,18830,1,8,0:0:0:0:
36,192,18992,1,4,0:0:0:0:
182,192,18992,1,4,0:0:0:0:
402,192,18992,1,0,0:0:0:0:
475,192,19154,1,0,0:0:0:0:
329,192,19316,1,8,0:0:0:0:
109,192,19316,1,0,0:0:0:0:
182,192,19478,1,4,0:0:0:0:
256,192,19478,1,4,0:0:0:0:
475,192,19478,1,0,0:0:0:0:
402,192,19640,1,8,0:0:0:0:
329,192,19640,1,0,0:0:0:0:
402,192,19803,1,8,0:0:0:0:
329,192,19803,1,0,0:0:0:0:
182,192,19965,1,0,0:0:0:0:
109,192,20046,1,0,0:0:0:0:
36,192,20127,1,0,0:0:0:0:
329,192,20127,1,0,0:0:0:0:
256,192,20208,1,0,0:0:0:0:
182,192,20289,1,0,0:0:0:0:
329,192,20370,1,0,0:0:0:0:
402,192,20451,1,8,0:0:0:0:
36,192,20451,1,0,0:0:0:0:
109,192,20613,1,4,0:0:0:0:
256,192,20613,1,4,0:0:0:0:
475,192,20613,1,0,0:0:0:0:
182,192,20776,1,0,0:0:0:0:
36,192,20776,1,8,0:0:0:0:
256,192,20857,1,0,0:0:0:0:
402,192,20938,1,0,0:0:0:0:
329,192,20938,1,8,0:0:0:0:
109,192,21019,1,0,0:0:0:0:
256,192,21100,1,0,0:0:0:0:
182,192,21100,1,8,0:0:0:0:
475,192,21100,1,0,0:0:0:0:
36,192,21181,1,0,0:0:0:0:
329,192,21262,1,8,0:0:0:0:
402,192,21262,1,0,0:0:0:0:
256,192,21343,1,0,0:0:0:0:
182,192,21424,128,0,21911:0:0:0:0:
182,192,23370,128,0,24181:0:0:0:0:
402,192,25316,128,0,25965:0:0:0:0:
36,192,25640,1,0,0:0:0:0:
109,192,25803,1,0,0:0:0:0:
256,192,25965,1,0,0:0:0:0:
329,192,25965,1,4,0:0:0:0:
182,192,25965,1,0,0:0:0:0:
109,192,26127,1,0,0:0:0:0:
475,192,26127,1,8,0:0:0:0:
36,192,26289,1,4,0:0:0:0:
329,192,26289,1,0,0:0:0:0:
402,192,26289,1,0,0:0:0:0:
256,192,26451,1,0,0:0:0:0:
329,192,26532,1,0,0:0:0:0:
36,192,26613,1,0,0:0:0:0:
109,192,26613,1,4,0:0:0:0:
402,192,26613,1,0,0:0:0:0:
329,192,26775,1,0,0:0:0:0:
182,192,26937,1,4,0:0:0:0:
475,192,26937,1,0,0:0:0:0:
256,192,26937,1,0,0:0:0:0:
402,192,27100,1,8,0:0:0:0:
36,192,27100,1,0,0:0:0:0:
109,192,27262,1,0,0:0:0:0:
182,192,27262,1,4,0:0:0:0:
256,192,27262,1,0,0:0:0:0:
329,192,27343,1,4,0:0:0:0:
402,192,27343,1,0,0:0:0:0:
182,192,27424,1,0,0:0:0:0:
109,192,27424,1,4,0:0:0:0:
36,192,27586,1,4,0:0:0:0:
256,192,27586,1,4,0:0:0:0:
402,192,27586,1,0,0:0:0:0:
329,192,27748,1,0,0:0:0:0:
36,192,27910,1,0,0:0:0:0:
256,192,27910,1,4,0:0:0:0:
182,192,27910,1,4,0:0:0:0:
402,192,28073,1,0,0:0:0:0:
109,192,28235,1,0,0:0:0:0:
329,192,28235,1,4,0:0:0:0:
475,192,28235,1,4,0:0:0:0:
182,192,28397,1,0,0:0:0:0:
402,192,28559,1,4,0:0:0:0:
329,192,28559,1,4,0:0:0:0:
256,192,28559,1,0,0:0:0:0:
109,192,28721,1,0,0:0:0:0:
475,192,28721,1,8,0:0:0:0:
36,192,28883,1,0,0:0:0:0:
256,192,28883,1,4,0:0:0:0:
402,192,28883,1,4,0:0:0:0:
182,192,29046,1,0,0:0:0:0:
109,192,29208,1,0,0:0:0:0:
402,192,29208,1,4,0:0:0:0:
36,192,29208,1,4,0:0:0:0:
182,192,29370,1,0,0:0:0:0:
475,192,29370,1,8,0:0:0:0:
36,192,29532,1,0,0:0:0:0:
402,192,29532,1,4,0:0:0:0:
329,192,29532,1,4,0:0:0:0:
256,192,29694,1,8,0:0:0:0:
109,192,29694,1,0,0:0:0:0:
182,192,29856,1,0,0:0:0:0:
402,192,29856,1,4,0:0:0:0:
475,192,29856,1,4,0:0:0:0:
256,192,30019,1,0,0:0:0:0:
36,192,30181,1,4,0:0:0:0:
109,192,30181,1,4,0:0:0:0:
402,192,30181,1,0,0:0:0:0:
329,192,30343,1,8,0:0:0:0:
182,192,30343,1,0,0:0:0:0:
256,192,30505,1,0,0:0:0:0:
475,192,30505,1,4,0:0:0:0:
402,192,30505,1,4,0:0:0:0:
182,192,30586,1,0,0:0:0:0:
109,192,30667,1,0,0:0:0:0:
329,192,30667,1,8,0:0:0:0:
36,192,30829,1,0,0:0:0:0:
182,192,30829,1,4,0:0:0:0:
256,192,30829,1,4,0:0:0:0:
182,192,30992,1,4,0:0:0:0:
256,192,30992,1,4,0:0:0:0:
402,192,30992,1,0,0:0:0:0:
475,192,31154,1,0,0:0:0:0:
329,192,31154,1,4,0:0:0:0:
109,192,31154,1,4,0:0:0:0:
182,192,31316,1,8,0:0:0:0:
402,192,31316,1,0,0:0:0:0:
329,192,31478,1,0,0:0:0:0:
256,192,31478,1,4,0:0:0:0:
36,192,31478,1,4,0:0:0:0:
109,192,31640,1,4,0:0:0:0:
182,192,31640,1,4,0:0:0:0:
475,192,31640,1,0,0:0:0:0:
182,192,31802,1,4,0:0:0:0:
109,192,31802,1,4,0:0:0:0:
475,192,31802,1,0,0:0:0:0:
329,192,31964,1,0,0:0:0:0:
256,192,32127,1,4,0:0:0:0:
36,192,32127,1,0,0:0:0:0:
182,192,32127,1,4,0:0:0:0:
109,192,32289,1,8,0:0:0:0:
475,192,32289,1,0,0:0:0:0:
402,192,32451,1,4,0:0:0:0:
329,192,32451,1,4,0:0:0:0:
182,192,32451,1,0,0:0:0:0:
256,192,32613,1,8,0:0:0:0:
109,192,32613,1,0,0:0:0:0:
36,192,32775,1,4,0:0:0:0:
182,192,32775,1,4,0:0:0:0:
475,192,32775,1,0,0:0:0:0:
402,192,32937,1,0,0:0:0:0:
256,192,32937,1,4,0:0:0:0:
109,192,32937,1,4,0:0:0:0:
475,192,33100,1,0,0:0:0:0:
329,192,33100,1,4,0:0:0:0:
109,192,33100,1,4,0:0:0:0:
182,192,33262,1,0,0:0:0:0:
36,192,33424,1,0,0:0:0:0:
329,192,33424,1,4,0:0:0:0:
256,192,33424,1,4,0:0:0:0:
182,192,33586,1,0,0:0:0:0:
329,192,33667,1,0,0:0:0:0:
475,192,33748,1,4,0:0:0:0:
109,192,33748,1,0,0:0:0:0:
36,192,33748,1,4,0:0:0:0:
402,192,33829,1,0,0:0:0:0:
256,192,33910,1,0,0:0:0:0:
109,192,33992,1,0,0:0:0:0:
475,192,34073,1,4,0:0:0:0:
36,192,34073,1,0,0:0:0:0:
402,192,34073,1,4,0:0:0:0:
329,192,34154,1,0,0:0:0:0:
109,192,34235,1,0,0:0:0:0:
182,192,34316,1,0,0:0:0:0:
36,192,34397,1,0,0:0:0:0:
475,192,34397,1,4,0:0:0:0:
256,192,34397,1,4,0:0:0:0:
402,192,34559,1,0,0:0:0:0:
329,192,34640,1,0,0:0:0:0:
109,192,34721,1,4,0:0:0:0:
182,192,34721,1,4,0:0:0:0:
256,192,34721,1,0,0:0:0:0:
402,192,34883,1,8,0:0:0:0:
36,192,34883,1,0,0:0:0:0:
475,192,34883,1,0,0:0:0:0:
109,192,35046,1,4,0:0:0:0:
256,192,35046,1,4,0:0:0:0:
475,192,35046,1,0,0:0:0:0:
329,192,35208,1,0,0:0:0:0:
256,192,35289,1,0,0:0:0:0:
36,192,35370,1,4,0:0:0:0:
475,192,35370,1,4,0:0:0:0:
182,192,35370,1,0,0:0:0:0:
329,192,35532,1,0,0:0:0:0:
402,192,35613,1,0,0:0:0:0:
109,192,35694,1,0,0:0:0:0:
182,192,35775,1,0,0:0:0:0:
329,192,35856,1,0,0:0:0:0:
256,192,36019,1,0,0:0:0:0:
109,192,36181,1,0,0:0:0:0:
182,192,36262,1,0,0:0:0:0:
475,192,36343,1,4,0:0:0:0:
402,192,36343,1,4,0:0:0:0:
256,192,36343,1,0,0:0:0:0:
36,192,36667,1,4,0:0:0:0:
109,192,36667,1,4,0:0:0:0:
329,192,36667,1,0,0:0:0:0:
182,192,36829,1,0,0:0:0:0:
402,192,36829,1,8,0:0:0:0:
256,192,36992,1,4,0:0:0:0:
475,192,36992,1,4,0:0:0:0:
109,192,36992,1,0,0:0:0:0:
182,192,37154,1,0,0:0:0:0:
329,192,37316,1,4,0:0:0:0:
402,192,37316,1,4,0:0:0:0:
109,192,37316,1,0,0:0:0:0:
256,192,37478,1,8,0:0:0:0:
475,192,37478,1,0,0:0:0:0:
36,192,37640,1,4,0:0:0:0:
109,192,37640,1,4,0:0:0:0:
329,192,37640,1,0,0:0:0:0:
182,192,37802,1,8,0:0:0:0:
402,192,37802,1,0,0:0:0:0:
256,192,37964,1,4,0:0:0:0:
329,192,37964,1,4,0:0:0:0:
36,192,37964,1,0,0:0:0:0:
182,192,38127,1,8,0:0:0:0:
475,192,38127,1,0,0:0:0:0:
402,192,38208,1,0,0:0:0:0:
329,192,38289,1,0,0:0:0:0:
109,192,38289,1,4,0:0:0:0:
36,192,38289,1,4,0:0:0:0:
256,192,38451,1,0,0:0:0:0:
182,192,38613,1,4,0:0:0:0:
109,192,38613,1,4,0:0:0:0:
475,192,38613,1,0,0:0:0:0:
402,192,38775,1,8,0:0:0:0:
36,192,38775,1,0,0:0:0:0:
109,192,38937,1,4,0:0:0:0:
182,192,38937,1,4,0:0:0:0:
329,192,38937,1,0,0:0:0:0:
256,192,39100,1,8,0:0:0:0:
475,192,39100,1,0,0:0:0:0:
402,192,39262,1,4,0:0:0:0:
329,192,39262,1,4,0:0:0:0:
36,192,39262,1,0,0:0:0:0:
109,192,39424,1,0,0:0:0:0:
475,192,39586,1,4,0:0:0:0:
402,192,39586,1,4,0:0:0:0:
182,192,39586,1,0,0:0:0:0:
256,192,39748,1,0,0:0:0:0:
36,192,39910,1,4,0:0:0:0:
109,192,39910,1,4,0:0:0:0:
329,192,39910,1,0,0:0:0:0:
402,192,40073,1,0,0:0:0:0:
182,192,40235,1,4,0:0:0:0:
475,192,40235,1,0,0:0:0:0:
256,192,40235,1,4,0:0:0:0:
329,192,40397,1,0,0:0:0:0:
36,192,40559,1,4,0:0:0:0:
109,192,40559,1,4,0:0:0:0:
402,192,40559,1,0,0:0:0:0:
256,192,40721,1,0,0:0:0:0:
36,192,40883,1,4,0:0:0:0:
109,192,40883,1,4,0:0:0:0:
329,192,40883,1,0,0:0:0:0:
402,192,41046,1,0,0:0:0:0:
182,192,41208,1,4,0:0:0:0:
256,192,41208,1,4,0:0:0:0:
475,192,41208,1,0,0:0:0:0:
329,192,41370,1,0,0:0:0:0:
402,192,41532,1,4,0:0:0:0:
475,192,41532,1,4,0:0:0:0:
36,192,41532,1,0,0:0:0:0:
182,192,41694,1,0,0:0:0:0:
329,192,41856,1,4,0:0:0:0:
402,192,41856,1,4,0:0:0:0:
109,192,41856,1,0,0:0:0:0:
256,192,42019,1,8,0:0:0:0:
475,192,42019,1,0,0:0:0:0:
402,192,42181,1,4,0:0:0:0:
109,192,42181,1,4,0:0:0:0:
36,192,42181,1,0,0:0:0:0:
256,192,42343,1,0,0:0:0:0:
109,192,42505,1,4,0:0:0:0:
182,192,42505,1,4,0:0:0:0:
475,192,42505,1,0,0:0:0:0:
402,192,42667,1,8,0:0:0:0:
36,192,42667,1,0,0:0:0:0:
182,192,42829,1,4,0:0:0:0:
256,192,42829,1,4,0:0:0:0:
329,192,42829,1,0,0:0:0:0:
109,192,42992,1,0,0:0:0:0:
256,192,43154,1,4,0:0:0:0:
402,192,43154,1,4,0:0:0:0:
36,192,43154,1,0,0:0:0:0:
109,192,43316,1,8,0:0:0:0:
475,192,43316,1,0,0:0:0:0:
402,192,43478,1,4,0:0:0:0:
329,192,43478,1,4,0:0:0:0:
182,192,43478,1,0,0:0:0:0:
109,192,43640,1,0,0:0:0:0:
36,192,43802,1,0,0:0:0:0:
256,192,43802,1,4,0:0:0:0:
329,192,43802,1,4,0:0:0:0:
182,192,43964,1,8,0:0:0:0:
402,192,43964,1,0,0:0:0:0:
109,192,44127,1,0,0:0:0:0:
402,192,44127,1,4,0:0:0:0:
475,192,44127,1,4,0:0:0:0:
329,192,44289,1,8,0:0:0:0:
36,192,44289,1,0,0:0:0:0:
256,192,44451,1,4,0:0:0:0:
182,192,44451,1,4,0:0:0:0:
475,192,44451,1,0,0:0:0:0:
109,192,44613,1,0,0:0:0:0:
329,192,44613,1,8,0:0:0:0:
36,192,44775,1,4,0:0:0:0:
256,192,44775,1,4,0:0:0:0:
402,192,44775,1,0,0:0:0:0:
329,192,44937,1,0,0:0:0:0:
109,192,45100,1,4,0:0:0:0:
182,192,45100,1,4,0:0:0:0:
475,192,45100,1,0,0:0:0:0:
256,192,45262,1,0,0:0:0:0:
329,192,45424,1,4,0:0:0:0:
475,192,45424,1,0,0:0:0:0:
36,192,45424,1,4,0:0:0:0:
182,192,45748,1,4,0:0:0:0:
256,192,45748,1,4,0:0:0:0:
329,192,45748,1,0,0:0:0:0:
182,192,46073,1,4,0:0:0:0:
256,192,46073,1,4,0:0:0:0:
329,192,46073,1,0,0:0:0:0:
