osu file format v14

[General]
AudioFilename: audio.mp3
AudioLeadIn: 0
PreviewTime: 25608
Countdown: 0
SampleSet: Soft
StackLeniency: 0.7
Mode: 3
LetterboxInBreaks: 0
SpecialStyle: 0
WidescreenStoryboard: 0

[Editor]
DistanceSpacing: 0.8
BeatDivisor: 16
GridSize: 4
TimelineZoom: 0.1

[Metadata]
Title:If you went out with friends in a way
TitleUnicode:If you went out with friends in a way
Artist:Subplaid
ArtistUnicode:Subplaid
Creator:Flade
Version:Bezumno
Source:
Tags:breakcore jungle russian Если с другом вышел в путь esli s drugom vishel v put' remix soviet ussr ссср по секрету всему свету po sekretu vsemu svetu Big Children's Choir Большой детский хор normal hard insane keksikosu rice jack stream speed electronic
BeatmapID:4389424
BeatmapSetID:2093565

[Difficulty]
HPDrainRate:8
CircleSize:4
OverallDifficulty:8
ApproachRate:5
SliderMultiplier:1.4
SliderTickRate:1

[Events]
//Background and Video events
0,0,"bg.jpg",0,0
//Break Periods
//Storyboard Layer 0 (Background)
//Storyboard Layer 1 (Fail)
//Storyboard Layer 2 (Pass)
//Storyboard Layer 3 (Foreground)
//Storyboard Layer 4 (Overlay)
//Storyboard Sound Samples

[TimingPoints]
676,324.324324324324,4,2,1,40,1,0
25973,324.324324324324,4,2,1,40,1,0

[HitObjects]
192,192,270,5,0,0:0:0:0:
320,192,473,1,0,0:0:0:0:
448,192,676,1,0,0:0:0:0:
64,192,676,1,0,0:0:0:0:
64,192,838,1,0,0:0:0:0:
448,192,838,1,0,0:0:0:0:
64,192,1000,1,0,0:0:0:0:
320,192,1000,1,0,0:0:0:0:
192,192,1000,1,0,0:0:0:0:
448,192,1162,1,0,0:0:0:0:
320,192,1243,1,0,0:0:0:0:
448,192,1324,1,0,0:0:0:0:
64,192,1324,1,0,0:0:0:0:
192,192,1324,1,0,0:0:0:0:
320,192,1486,1,0,0:0:0:0:
448,192,1567,1,0,0:0:0:0:
64,192,1648,1,0,0:0:0:0:
192,192,1730,1,0,0:0:0:0:
448,192,1811,1,0,0:0:0:0:
320,192,1811,1,0,0:0:0:0:
448,192,1973,1,0,0:0:0:0:
320,192,1973,1,0,0:0:0:0:
64,192,2054,1,0,0:0:0:0:
192,192,2054,1,0,0:0:0:0:
320,192,2135,1,0,0:0:0:0:
448,192,2135,1,0,0:0:0:0:
448,192,2297,1,0,0:0:0:0:
64,192,2297,1,0,0:0:0:0:
192,192,2297,1,0,0:0:0:0:
320,192,2459,1,0,0:0:0:0:
64,192,2540,1,0,0:0:0:0:
448,192,2621,1,0,0:0:0:0:
320,192,2621,1,0,0:0:0:0:
192,192,2621,1,0,0:0:0:0:
64,192,2784,1,0,0:0:0:0:
192,192,2865,1,0,0:0:0:0:
448,192,2946,1,0,0:0:0:0:
320,192,3027,1,0,0:0:0:0:
192,192,3108,1,0,0:0:0:0:
448,192,3189,1,0,0:0:0:0:
64,192,3270,1,0,0:0:0:0:
320,192,3270,1,0,0:0:0:0:
64,192,3432,1,0,0:0:0:0:
320,192,3432,1,0,0:0:0:0:
448,192,3594,1,0,0:0:0:0:
320,192,3594,1,0,0:0:0:0:
192,192,3594,1,0,0:0:0:0:
64,192,3757,1,0,0:0:0:0:
192,192,3838,1,0,0:0:0:0:
448,192,3919,1,0,0:0:0:0:
320,192,3919,1,0,0:0:0:0:
64,192,3919,1,0,0:0:0:0:
448,192,4081,1,0,0:0:0:0:
320,192,4081,1,0,0:0:0:0:
64,192,4081,1,0,0:0:0:0:
320,192,4243,1,0,0:0:0:0:
192,192,4243,1,0,0:0:0:0:
448,192,4405,1,0,0:0:0:0:
192,192,4405,1,0,0:0:0:0:
448,192,4567,1,0,0:0:0:0:
320,192,4567,1,0,0:0:0:0:
64,192,4567,1,0,0:0:0:0:
192,192,4730,1,0,0:0:0:0:
320,192,4811,1,0,0:0:0:0:
64,192,4892,1,0,0:0:0:0:
192,192,4973,1,0,0:0:0:0:
448,192,5054,1,0,0:0:0:0:
320,192,5054,1,0,0:0:0:0:
64,192,5216,1,0,0:0:0:0:
320,192,5297,1,0,0:0:0:0:
448,192,5378,1,0,0:0:0:0:
64,192,5378,1,0,0:0:0:0:
192,192,5378,1,0,0:0:0:0:
320,192,5540,1,0,0:0:0:0:
192,192,5621,1,0,0:0:0:0:
448,192,5703,1,0,0:0:0:0:
320,192,5703,1,0,0:0:0:0:
448,192,5865,1,0,0:0:0:0:
64,192,5865,1,0,0:0:0:0:
192,192,5865,1,0,0:0:0:0:
448,192,6027,1,0,0:0:0:0:
192,192,6027,1,0,0:0:0:0:
64,192,6027,1,0,0:0:0:0:
192,192,6189,1,0,0:0:0:0:
320,192,6189,1,0,0:0:0:0:
320,192,6351,1,0,0:0:0:0:
192,192,6351,1,0,0:0:0:0:
192,192,6513,1,0,0:0:0:0:
320,192,6513,1,0,0:0:0:0:
448,192,6675,1,0,0:0:0:0:
320,192,6757,1,0,0:0:0:0:
64,192,6838,1,0,0:0:0:0:
192,192,6919,1,0,0:0:0:0:
320,192,7000,1,0,0:0:0:0:
64,192,7081,1,0,0:0:0:0:
448,192,7162,1,0,0:0:0:0:
320,192,7162,1,0,0:0:0:0:
192,192,7162,1,0,0:0:0:0:
64,192,7324,1,0,0:0:0:0:
192,192,7405,1,0,0:0:0:0:
448,192,7486,1,0,0:0:0:0:
320,192,7567,1,0,0:0:0:0:
448,192,7648,1,0,0:0:0:0:
192,192,7648,1,0,0:0:0:0:
192,192,7811,1,0,0:0:0:0:
448,192,7811,1,0,0:0:0:0:
64,192,7973,1,0,0:0:0:0:
448,192,8135,1,0,0:0:0:0:
320,192,8135,1,0,0:0:0:0:
192,192,8135,1,0,0:0:0:0:
64,192,8297,1,0,0:0:0:0:
448,192,8459,1,0,0:0:0:0:
320,192,8459,1,0,0:0:0:0:
64,192,8540,1,0,0:0:0:0:
192,192,8540,1,0,0:0:0:0:
448,192,8621,1,0,0:0:0:0:
320,192,8621,1,0,0:0:0:0:
64,192,8703,1,0,0:0:0:0:
192,192,8703,1,0,0:0:0:0:
448,192,8784,1,0,0:0:0:0:
320,192,8865,1,0,0:0:0:0:
192,192,8946,1,0,0:0:0:0:
320,192,9027,1,0,0:0:0:0:
64,192,9108,1,0,0:0:0:0:
192,192,9108,1,0,0:0:0:0:
320,192,9270,1,0,0:0:0:0:
448,192,9351,1,0,0:0:0:0:
192,192,9432,1,0,0:0:0:0:
320,192,9513,1,0,0:0:0:0:
448,192,9594,1,0,0:0:0:0:
64,192,9594,1,0,0:0:0:0:
192,192,9675,1,0,0:0:0:0:
448,192,9757,1,0,0:0:0:0:
320,192,9757,1,0,0:0:0:0:
64,192,9757,1,0,0:0:0:0:
192,192,9919,1,0,0:0:0:0:
320,192,10000,1,0,0:0:0:0:
448,192,10081,1,0,0:0:0:0:
64,192,10081,1,0,0:0:0:0:
192,192,10081,1,0,0:0:0:0:
320,192,10243,1,0,0:0:0:0:
192,192,10324,1,0,0:0:0:0:
448,192,10405,1,0,0:0:0:0:
320,192,10486,1,0,0:0:0:0:
192,192,10567,1,0,0:0:0:0:
64,192,10648,1,0,0:0:0:0:
320,192,10730,1,0,0:0:0:0:
448,192,10811,1,0,0:0:0:0:
192,192,10892,1,0,0:0:0:0:
320,192,10973,1,0,0:0:0:0:
64,192,11054,1,0,0:0:0:0:
192,192,11054,1,0,0:0:0:0:
448,192,11216,1,0,0:0:0:0:
320,192,11297,1,0,0:0:0:0:
192,192,11378,1,0,0:0:0:0:
64,192,11540,1,0,0:0:0:0:
320,192,11621,1,0,0:0:0:0:
192,192,11703,1,0,0:0:0:0:
448,192,11703,1,0,0:0:0:0:
64,192,11703,1,0,0:0:0:0:
320,192,11865,1,0,0:0:0:0:
192,192,11946,1,0,0:0:0:0:
64,192,12027,1,0,0:0:0:0:
320,192,12108,1,0,0:0:0:0:
448,192,12189,1,0,0:0:0:0:
192,192,12270,1,0,0:0:0:0:
448,192,12351,1,0,0:0:0:0:
320,192,12351,1,0,0:0:0:0:
64,192,12351,1,0,0:0:0:0:
64,192,12513,1,0,0:0:0:0:
192,192,12513,1,0,0:0:0:0:
64,192,12675,1,0,0:0:0:0:
192,192,12675,1,0,0:0:0:0:
448,192,12757,1,0,0:0:0:0:
320,192,12797,1,0,0:0:0:0:
192,192,12838,1,0,0:0:0:0:
64,192,12878,1,0,0:0:0:0:
448,192,12919,1,0,0:0:0:0:
320,192,12959,1,0,0:0:0:0:
192,192,13000,1,0,0:0:0:0:
64,192,13000,1,0,0:0:0:0:
320,192,13162,1,0,0:0:0:0:
192,192,13162,1,0,0:0:0:0:
64,192,13324,1,0,0:0:0:0:
448,192,13324,1,0,0:0:0:0:
448,192,13486,1,0,0:0:0:0:
64,192,13486,1,0,0:0:0:0:
448,192,13648,1,0,0:0:0:0:
320,192,13648,1,0,0:0:0:0:
192,192,13730,1,0,0:0:0:0:
64,192,13811,1,0,0:0:0:0:
448,192,13892,1,0,0:0:0:0:
320,192,13973,1,0,0:0:0:0:
64,192,14054,1,0,0:0:0:0:
448,192,14135,1,0,0:0:0:0:
320,192,14135,1,0,0:0:0:0:
192,192,14135,1,0,0:0:0:0:
320,192,14297,1,0,0:0:0:0:
448,192,14297,1,0,0:0:0:0:
192,192,14297,1,0,0:0:0:0:
64,192,14459,1,0,0:0:0:0:
320,192,14621,1,0,0:0:0:0:
448,192,14784,1,0,0:0:0:0:
192,192,14784,1,0,0:0:0:0:
64,192,14946,1,0,0:0:0:0:
448,192,14946,1,0,0:0:0:0:
320,192,15108,1,0,0:0:0:0:
448,192,15270,1,0,0:0:0:0:
64,192,15270,1,0,0:0:0:0:
192,192,15270,1,0,0:0:0:0:
192,192,15432,1,0,0:0:0:0:
320,192,15432,1,0,0:0:0:0:
448,192,15594,1,0,0:0:0:0:
64,192,15757,1,0,0:0:0:0:
320,192,15757,1,0,0:0:0:0:
192,192,15757,1,0,0:0:0:0:
448,192,15919,1,0,0:0:0:0:
64,192,15919,1,0,0:0:0:0:
320,192,16000,1,0,0:0:0:0:
192,192,16081,1,0,0:0:0:0:
64,192,16162,1,0,0:0:0:0:
448,192,16243,1,0,0:0:0:0:
320,192,16243,1,0,0:0:0:0:
192,192,16405,1,0,0:0:0:0:
448,192,16486,1,0,0:0:0:0:
64,192,16567,1,0,0:0:0:0:
320,192,16567,1,0,0:0:0:0:
192,192,16567,1,0,0:0:0:0:
448,192,16730,1,0,0:0:0:0:
320,192,16730,1,0,0:0:0:0:
64,192,16892,1,0,0:0:0:0:
448,192,17054,1,0,0:0:0:0:
320,192,17054,1,0,0:0:0:0:
192,192,17054,1,0,0:0:0:0:
64,192,17216,1,0,0:0:0:0:
320,192,17297,1,0,0:0:0:0:
192,192,17378,1,0,0:0:0:0:
64,192,17459,1,0,0:0:0:0:
448,192,17540,1,0,0:0:0:0:
320,192,17540,1,0,0:0:0:0:
192,192,17703,1,0,0:0:0:0:
320,192,17784,1,0,0:0:0:0:
448,192,17865,1,0,0:0:0:0:
64,192,17865,1,0,0:0:0:0:
192,192,17865,1,0,0:0:0:0:
448,192,18027,1,0,0:0:0:0:
320,192,18027,1,0,0:0:0:0:
192,192,18189,1,0,0:0:0:0:
448,192,18351,1,0,0:0:0:0:
320,192,18351,1,0,0:0:0:0:
64,192,18351,1,0,0:0:0:0:
192,192,18513,1,0,0:0:0:0:
64,192,18513,1,0,0:0:0:0:
320,192,18675,1,0,0:0:0:0:
64,192,18757,1,0,0:0:0:0:
448,192,18838,1,0,0:0:0:0:
320,192,18838,1,0,0:0:0:0:
192,192,18838,1,0,0:0:0:0:
64,192,19000,1,0,0:0:0:0:
448,192,19000,1,0,0:0:0:0:
192,192,19162,1,0,0:0:0:0:
448,192,19324,1,0,0:0:0:0:
320,192,19324,1,0,0:0:0:0:
64,192,19324,1,0,0:0:0:0:
192,192,19486,1,0,0:0:0:0:
448,192,19486,1,0,0:0:0:0:
192,192,19648,1,0,0:0:0:0:
320,192,19648,1,0,0:0:0:0:
64,192,19648,1,0,0:0:0:0:
320,192,19811,1,0,0:0:0:0:
192,192,19811,1,0,0:0:0:0:
64,192,19811,1,0,0:0:0:0:
448,192,19973,1,0,0:0:0:0:
320,192,20054,1,0,0:0:0:0:
448,192,20135,1,0,0:0:0:0:
64,192,20135,1,0,0:0:0:0:
192,192,20216,1,0,0:0:0:0:
64,192,20297,1,0,0:0:0:0:
320,192,20378,1,0,0:0:0:0:
448,192,20459,1,0,0:0:0:0:
64,192,20459,1,0,0:0:0:0:
192,192,20459,1,0,0:0:0:0:
448,192,20621,1,0,0:0:0:0:
320,192,20621,1,0,0:0:0:0:
192,192,20784,1,0,0:0:0:0:
320,192,20865,1,0,0:0:0:0:
64,192,20946,1,0,0:0:0:0:
192,192,20946,1,0,0:0:0:0:
448,192,21027,1,0,0:0:0:0:
64,192,21108,1,0,0:0:0:0:
320,192,21108,1,0,0:0:0:0:
192,192,21189,1,0,0:0:0:0:
448,192,21270,1,0,0:0:0:0:
320,192,21270,1,0,0:0:0:0:
64,192,21270,1,0,0:0:0:0:
192,192,21351,1,0,0:0:0:0:
448,192,21432,1,0,0:0:0:0:
64,192,21497,1,0,0:0:0:0:
448,192,21562,1,0,0:0:0:0:
64,192,21627,1,0,0:0:0:0:
320,192,21692,1,0,0:0:0:0:
192,192,21757,1,0,0:0:0:0:
320,192,21821,1,0,0:0:0:0:
192,192,21886,1,0,0:0:0:0:
192,192,23378,1,0,0:0:0:0:
448,192,23443,1,0,0:0:0:0:
192,192,23508,1,0,0:0:0:0:
320,192,23573,1,0,0:0:0:0:
64,192,23638,1,0,0:0:0:0:
320,192,23703,1,0,0:0:0:0:
192,192,23767,1,0,0:0:0:0:
448,192,23832,1,0,0:0:0:0:
192,192,23897,1,0,0:0:0:0:
320,192,23962,1,0,0:0:0:0:
64,192,24027,1,0,0:0:0:0:
320,192,24092,1,0,0:0:0:0:
192,192,24157,1,0,0:0:0:0:
448,192,24221,1,0,0:0:0:0:
192,192,24286,1,0,0:0:0:0:
320,192,24351,1,0,0:0:0:0:
64,192,24416,1,0,0:0:0:0:
320,192,24481,1,0,0:0:0:0:
448,192,25324,1,0,0:0:0:0:
64,192,25324,1,0,0:0:0:0:
192,192,25648,1,0,0:0:0:0:
320,192,25811,1,0,0:0:0:0:
448,192,25973,1,0,0:0:0:0:
64,192,25973,1,0,0:0:0:0:
448,192,26135,1,0,0:0:0:0:
64,192,26135,1,0,0:0:0:0:
320,192,26297,1,0,0:0:0:0:
64,192,26297,1,0,0:0:0:0:
192,192,26297,1,0,0:0:0:0:
448,192,26459,1,0,0:0:0:0:
320,192,26540,1,0,0:0:0:0:
448,192,26621,1,0,0:0:0:0:
64,192,26621,1,0,0:0:0:0:
192,192,26621,1,0,0:0:0:0:
320,192,26783,1,0,0:0:0:0:
192,192,26864,1,0,0:0:0:0:
448,192,26945,1,0,0:0:0:0:
64,192,26945,1,0,0:0:0:0:
320,192,27108,1,0,0:0:0:0:
192,192,27108,1,0,0:0:0:0:
192,192,27270,1,0,0:0:0:0:
320,192,27270,1,0,0:0:0:0:
64,192,27351,1,0,0:0:0:0:
448,192,27351,1,0,0:0:0:0:
320,192,27432,1,0,0:0:0:0:
192,192,27432,1,0,0:0:0:0:
448,192,27594,1,0,0:0:0:0:
192,192,27594,1,0,0:0:0:0:
64,192,27594,1,0,0:0:0:0:
320,192,27756,1,0,0:0:0:0:
448,192,27918,1,0,0:0:0:0:
64,192,27918,1,0,0:0:0:0:
192,192,27918,1,0,0:0:0:0:
320,192,28081,1,0,0:0:0:0:
64,192,28243,1,0,0:0:0:0:
192,192,28243,1,0,0:0:0:0:
448,192,28405,1,0,0:0:0:0:
192,192,28567,1,0,0:0:0:0:
320,192,28567,1,0,0:0:0:0:
320,192,28729,1,0,0:0:0:0:
192,192,28729,1,0,0:0:0:0:
448,192,28891,1,0,0:0:0:0:
320,192,28891,1,0,0:0:0:0:
64,192,28891,1,0,0:0:0:0:
192,192,29054,1,0,0:0:0:0:
448,192,29216,1,0,0:0:0:0:
320,192,29216,1,0,0:0:0:0:
448,192,29378,1,0,0:0:0:0:
64,192,29378,1,0,0:0:0:0:
320,192,29540,1,0,0:0:0:0:
64,192,29540,1,0,0:0:0:0:
192,192,29540,1,0,0:0:0:0:
448,192,29702,1,0,0:0:0:0:
192,192,29702,1,0,0:0:0:0:
64,192,29864,1,0,0:0:0:0:
448,192,29864,1,0,0:0:0:0:
320,192,30027,1,0,0:0:0:0:
448,192,30189,1,0,0:0:0:0:
64,192,30189,1,0,0:0:0:0:
192,192,30189,1,0,0:0:0:0:
320,192,30351,1,0,0:0:0:0:
192,192,30351,1,0,0:0:0:0:
448,192,30513,1,0,0:0:0:0:
64,192,30513,1,0,0:0:0:0:
192,192,30594,1,0,0:0:0:0:
448,192,30675,1,0,0:0:0:0:
320,192,30675,1,0,0:0:0:0:
64,192,30675,1,0,0:0:0:0:
320,192,30837,1,0,0:0:0:0:
192,192,30837,1,0,0:0:0:0:
192,192,31000,1,0,0:0:0:0:
320,192,31000,1,0,0:0:0:0:
448,192,31162,1,0,0:0:0:0:
192,192,31162,1,0,0:0:0:0:
64,192,31162,1,0,0:0:0:0:
320,192,31324,1,0,0:0:0:0:
448,192,31324,1,0,0:0:0:0:
192,192,31324,1,0,0:0:0:0:
64,192,31486,1,0,0:0:0:0:
320,192,31486,1,0,0:0:0:0:
64,192,31648,1,0,0:0:0:0:
320,192,31648,1,0,0:0:0:0:
448,192,31810,1,0,0:0:0:0:
64,192,31810,1,0,0:0:0:0:
192,192,31891,1,0,0:0:0:0:
320,192,31972,1,0,0:0:0:0:
448,192,32054,1,0,0:0:0:0:
64,192,32135,1,0,0:0:0:0:
192,192,32135,1,0,0:0:0:0:
320,192,32297,1,0,0:0:0:0:
448,192,32459,1,0,0:0:0:0:
64,192,32459,1,0,0:0:0:0:
192,192,32459,1,0,0:0:0:0:
320,192,32621,1,0,0:0:0:0:
448,192,32783,1,0,0:0:0:0:
192,192,32783,1,0,0:0:0:0:
448,192,32945,1,0,0:0:0:0:
192,192,32945,1,0,0:0:0:0:
448,192,33108,1,0,0:0:0:0:
64,192,33108,1,0,0:0:0:0:
320,192,33270,1,0,0:0:0:0:
192,192,33351,1,0,0:0:0:0:
448,192,33432,1,0,0:0:0:0:
320,192,33432,1,0,0:0:0:0:
64,192,33432,1,0,0:0:0:0:
192,192,33594,1,0,0:0:0:0:
320,192,33675,1,0,0:0:0:0:
448,192,33756,1,0,0:0:0:0:
64,192,33756,1,0,0:0:0:0:
192,192,33756,1,0,0:0:0:0:
320,192,33837,1,0,0:0:0:0:
192,192,33918,1,0,0:0:0:0:
320,192,34000,1,0,0:0:0:0:
448,192,34081,1,0,0:0:0:0:
64,192,34081,1,0,0:0:0:0:
192,192,34162,1,0,0:0:0:0:
320,192,34243,1,0,0:0:0:0:
448,192,34324,1,0,0:0:0:0:
64,192,34405,1,0,0:0:0:0:
192,192,34405,1,0,0:0:0:0:
320,192,34567,1,0,0:0:0:0:
192,192,34648,1,0,0:0:0:0:
64,192,34729,1,0,0:0:0:0:
320,192,34729,1,0,0:0:0:0:
448,192,34891,1,0,0:0:0:0:
192,192,34891,1,0,0:0:0:0:
448,192,35054,1,0,0:0:0:0:
320,192,35054,1,0,0:0:0:0:
64,192,35054,1,0,0:0:0:0:
192,192,35135,1,0,0:0:0:0:
320,192,35216,1,0,0:0:0:0:
64,192,35297,1,0,0:0:0:0:
448,192,35378,1,0,0:0:0:0:
320,192,35378,1,0,0:0:0:0:
192,192,35378,1,0,0:0:0:0:
64,192,35459,1,0,0:0:0:0:
448,192,35540,1,0,0:0:0:0:
320,192,35621,1,0,0:0:0:0:
64,192,35702,1,0,0:0:0:0:
192,192,35783,1,0,0:0:0:0:
448,192,35864,1,0,0:0:0:0:
320,192,36027,1,0,0:0:0:0:
320,192,36189,1,0,0:0:0:0:
192,192,36270,1,0,0:0:0:0:
320,192,36351,1,0,0:0:0:0:
448,192,36351,1,0,0:0:0:0:
192,192,36513,1,0,0:0:0:0:
448,192,36675,1,0,0:0:0:0:
64,192,36675,1,0,0:0:0:0:
320,192,36675,1,0,0:0:0:0:
64,192,36837,1,0,0:0:0:0:
448,192,37000,1,0,0:0:0:0:
64,192,37000,1,0,0:0:0:0:
320,192,37162,1,0,0:0:0:0:
64,192,37324,1,0,0:0:0:0:
192,192,37324,1,0,0:0:0:0:
448,192,37324,1,0,0:0:0:0:
448,192,37486,1,0,0:0:0:0:
192,192,37648,1,0,0:0:0:0:
320,192,37648,1,0,0:0:0:0:
192,192,37810,1,0,0:0:0:0:
320,192,37972,1,0,0:0:0:0:
448,192,37972,1,0,0:0:0:0:
64,192,37972,1,0,0:0:0:0:
320,192,38135,1,0,0:0:0:0:
192,192,38216,1,0,0:0:0:0:
448,192,38297,1,0,0:0:0:0:
64,192,38297,1,0,0:0:0:0:
64,192,38459,1,0,0:0:0:0:
320,192,38621,1,0,0:0:0:0:
192,192,38621,1,0,0:0:0:0:
448,192,38621,1,0,0:0:0:0:
64,192,38783,1,0,0:0:0:0:
64,192,38945,1,0,0:0:0:0:
320,192,38945,1,0,0:0:0:0:
320,192,39108,1,0,0:0:0:0:
320,192,39270,1,0,0:0:0:0:
192,192,39270,1,0,0:0:0:0:
64,192,39270,1,0,0:0:0:0:
448,192,39432,1,0,0:0:0:0:
448,192,39594,1,0,0:0:0:0:
64,192,39594,1,0,0:0:0:0:
192,192,39756,1,0,0:0:0:0:
64,192,39918,1,0,0:0:0:0:
320,192,39918,1,0,0:0:0:0:
448,192,39918,1,0,0:0:0:0:
320,192,40081,1,0,0:0:0:0:
64,192,40243,1,0,0:0:0:0:
192,192,40243,1,0,0:0:0:0:
192,192,40405,1,0,0:0:0:0:
448,192,40567,1,0,0:0:0:0:
64,192,40567,1,0,0:0:0:0:
320,192,40567,1,0,0:0:0:0:
192,192,40729,1,0,0:0:0:0:
320,192,40891,1,0,0:0:0:0:
448,192,40891,1,0,0:0:0:0:
448,192,41054,1,0,0:0:0:0:
320,192,41216,1,0,0:0:0:0:
64,192,41216,1,0,0:0:0:0:
192,192,41216,1,0,0:0:0:0:
64,192,41378,1,0,0:0:0:0:
192,192,41540,1,0,0:0:0:0:
320,192,41540,1,0,0:0:0:0:
320,192,41702,1,0,0:0:0:0:
448,192,41864,1,0,0:0:0:0:
64,192,41864,1,0,0:0:0:0:
192,192,41864,1,0,0:0:0:0:
192,192,42027,1,0,0:0:0:0:
320,192,42189,1,0,0:0:0:0:
192,192,42189,1,0,0:0:0:0:
448,192,42351,1,0,0:0:0:0:
64,192,42513,1,0,0:0:0:0:
192,192,42513,1,0,0:0:0:0:
320,192,42513,1,0,0:0:0:0:
64,192,42675,1,0,0:0:0:0:
448,192,42837,1,0,0:0:0:0:
320,192,42837,1,0,0:0:0:0:
448,192,43000,1,0,0:0:0:0:
320,192,43162,1,0,0:0:0:0:
192,192,43162,1,0,0:0:0:0:
64,192,43162,1,0,0:0:0:0:
192,192,43324,1,0,0:0:0:0:
192,192,43486,1,0,0:0:0:0:
448,192,43486,1,0,0:0:0:0:
320,192,43648,1,0,0:0:0:0:
448,192,43810,1,0,0:0:0:0:
192,192,43810,1,0,0:0:0:0:
64,192,43810,1,0,0:0:0:0:
320,192,43972,1,0,0:0:0:0:
192,192,44135,1,0,0:0:0:0:
320,192,44135,1,0,0:0:0:0:
192,192,44297,1,0,0:0:0:0:
64,192,44459,1,0,0:0:0:0:
320,192,44459,1,0,0:0:0:0:
192,192,44459,1,0,0:0:0:0:
448,192,44621,1,0,0:0:0:0:
64,192,44783,1,0,0:0:0:0:
448,192,44783,1,0,0:0:0:0:
192,192,44945,1,0,0:0:0:0:
448,192,45108,1,0,0:0:0:0:
64,192,45108,1,0,0:0:0:0:
320,192,45108,1,0,0:0:0:0:
64,192,45270,1,0,0:0:0:0:
192,192,45432,1,0,0:0:0:0:
320,192,45432,1,0,0:0:0:0:
64,192,45756,1,0,0:0:0:0:
448,192,45756,1,0,0:0:0:0:
448,192,46081,1,0,0:0:0:0:
64,192,46081,1,0,0:0:0:0:
