osu file format v14

[General]
AudioFilename: audio.mp3
AudioLeadIn: 1500
PreviewTime: 25567
Countdown: 0
SampleSet: Normal
StackLeniency: 0.7
Mode: 1
LetterboxInBreaks: 0
WidescreenStoryboard: 1

[Editor]
DistanceSpacing: 1
BeatDivisor: 4
GridSize: 32
TimelineZoom: 2.5

[Metadata]
Title:If you went out with friends in a way
TitleUnicode:If you went out with friends in a way
Artist:Subplaid
ArtistUnicode:Subplaid
Creator:AJT
Version:Oni
Source:
Tags:russian electronic dnb breakcore jungle choir Если с другом вышел в путь esli s drugom vishel v put' remix soviet ussr remix heavenly moon ginjani
BeatmapID:3448929
BeatmapSetID:1680398

[Difficulty]
HPDrainRate:5
CircleSize:4
OverallDifficulty:5
ApproachRate:8
SliderMultiplier:1.4
SliderTickRate:1

[Events]
//Background and Video events
0,0,"bg.jpg",0,0
//Break Periods
2,21470,24898
//Storyboard Layer 0 (Background)
//Storyboard Layer 1 (Fail)
//Storyboard Layer 2 (Pass)
//Storyboard Layer 3 (Foreground)
//Storyboard Layer 4 (Overlay)
//Storyboard Sound Samples

[TimingPoints]
676,324.324324324324,4,1,0,65,1,0
25324,324.324324324324,4,1,0,65,1,8
25973,324.324324324324,4,1,0,65,1,0

[Colours]
Combo1 : 186,125,58
Combo2 : 196,166,64
Combo3 : 179,74,66

[HitObjects]
256,192,676,5,12,0:0:0:0:
256,192,838,1,0,0:0:0:0:
256,192,1000,1,8,0:0:0:0:
256,192,1162,1,0,0:0:0:0:
256,192,1243,1,0,0:0:0:0:
256,192,1324,1,8,0:0:0:0:
256,192,1486,1,0,0:0:0:0:
256,192,1648,1,8,0:0:0:0:
256,192,1730,1,0,0:0:0:0:
256,192,1811,1,8,0:0:0:0:
256,192,1973,1,8,0:0:0:0:
256,192,2054,1,8,0:0:0:0:
256,192,2135,1,8,0:0:0:0:
256,192,2297,1,8,0:0:0:0:
256,192,2459,1,0,0:0:0:0:
256,192,2540,1,0,0:0:0:0:
256,192,2621,1,8,0:0:0:0:
256,192,2946,1,8,0:0:0:0:
256,192,3108,1,0,0:0:0:0:
256,192,3270,1,8,0:0:0:0:
256,192,3432,1,0,0:0:0:0:
256,192,3594,1,8,0:0:0:0:
256,192,3757,1,0,0:0:0:0:
256,192,3838,1,0,0:0:0:0:
256,192,3919,1,8,0:0:0:0:
256,192,4081,1,8,0:0:0:0:
256,192,4243,1,0,0:0:0:0:
256,192,4405,1,0,0:0:0:0:
256,192,4567,1,8,0:0:0:0:
256,192,4730,1,0,0:0:0:0:
256,192,4892,1,8,0:0:0:0:
256,192,4973,1,8,0:0:0:0:
256,192,5054,1,0,0:0:0:0:
256,192,5216,1,0,0:0:0:0:
256,192,5297,1,0,0:0:0:0:
256,192,5378,1,8,0:0:0:0:
256,192,5540,1,0,0:0:0:0:
256,192,5865,1,8,0:0:0:0:
256,192,6027,1,8,0:0:0:0:
256,192,6189,1,0,0:0:0:0:
256,192,6351,1,0,0:0:0:0:
256,192,6513,1,8,0:0:0:0:
256,192,6675,1,0,0:0:0:0:
256,192,6838,1,8,0:0:0:0:
256,192,6919,1,8,0:0:0:0:
256,192,7000,1,0,0:0:0:0:
256,192,7162,1,8,0:0:0:0:
256,192,7324,1,8,0:0:0:0:
256,192,7405,1,0,0:0:0:0:
256,192,7486,1,8,0:0:0:0:
256,192,7648,1,0,0:0:0:0:
256,192,7811,1,0,0:0:0:0:
256,192,8135,1,8,0:0:0:0:
256,192,8297,1,0,0:0:0:0:
256,192,8459,1,8,0:0:0:0:
256,192,8540,1,8,0:0:0:0:
256,192,8621,1,8,0:0:0:0:
256,192,8703,1,8,0:0:0:0:
256,192,8784,1,0,0:0:0:0:
256,192,8865,1,0,0:0:0:0:
256,192,8946,1,0,0:0:0:0:
256,192,9108,1,8,0:0:0:0:
256,192,9432,1,8,0:0:0:0:
256,192,9513,1,8,0:0:0:0:
256,192,9594,1,0,0:0:0:0:
256,192,9757,1,8,0:0:0:0:
256,192,9919,1,0,0:0:0:0:
256,192,10081,1,8,0:0:0:0:
256,192,10243,1,0,0:0:0:0:
256,192,10324,1,0,0:0:0:0:
256,192,10405,1,8,0:0:0:0:
256,192,10730,1,8,0:0:0:0:
256,192,10892,1,0,0:0:0:0:
256,192,11054,1,0,0:0:0:0:
256,192,11135,1,0,0:0:0:0:
256,192,11216,1,0,0:0:0:0:
256,192,11378,1,0,0:0:0:0:
256,192,11540,1,0,0:0:0:0:
256,192,11621,1,0,0:0:0:0:
256,192,11703,1,8,0:0:0:0:
256,192,11865,1,0,0:0:0:0:
256,192,12027,1,8,0:0:0:0:
256,192,12189,1,0,0:0:0:0:
256,192,12351,1,8,0:0:0:0:
256,192,12513,1,8,0:0:0:0:
256,192,12675,1,0,0:0:0:0:
256,192,12757,1,0,0:0:0:0:
256,192,12838,1,8,0:0:0:0:
256,192,12919,1,8,0:0:0:0:
256,192,13000,1,0,0:0:0:0:
256,192,13324,1,0,0:0:0:0:
256,192,13486,1,8,0:0:0:0:
256,192,13648,1,8,0:0:0:0:
256,192,13730,1,0,0:0:0:0:
256,192,13811,1,8,0:0:0:0:
256,192,13973,1,0,0:0:0:0:
256,192,14135,1,8,0:0:0:0:
256,192,14297,1,8,0:0:0:0:
256,192,14459,1,0,0:0:0:0:
256,192,14540,1,0,0:0:0:0:
256,192,14621,1,8,0:0:0:0:
256,192,14784,1,0,0:0:0:0:
256,192,14946,1,0,0:0:0:0:
256,192,15270,1,0,0:0:0:0:
256,192,15432,1,0,0:0:0:0:
256,192,15594,1,8,0:0:0:0:
256,192,15757,1,8,0:0:0:0:
256,192,15919,1,8,0:0:0:0:
256,192,16000,1,0,0:0:0:0:
256,192,16081,1,8,0:0:0:0:
256,192,16162,1,8,0:0:0:0:
256,192,16243,1,0,0:0:0:0:
256,192,16405,1,0,0:0:0:0:
256,192,16486,1,0,0:0:0:0:
256,192,16567,1,8,0:0:0:0:
256,192,16730,1,0,0:0:0:0:
256,192,16892,1,0,0:0:0:0:
256,192,17054,1,8,0:0:0:0:
256,192,17216,1,0,0:0:0:0:
256,192,17297,1,0,0:0:0:0:
256,192,17378,1,8,0:0:0:0:
256,192,17540,1,0,0:0:0:0:
256,192,17865,1,8,0:0:0:0:
256,192,18027,1,0,0:0:0:0:
256,192,18189,1,0,0:0:0:0:
256,192,18351,1,8,0:0:0:0:
256,192,18432,1,0,0:0:0:0:
256,192,18513,1,0,0:0:0:0:
256,192,18675,1,0,0:0:0:0:
256,192,18838,1,8,0:0:0:0:
256,192,19000,1,0,0:0:0:0:
256,192,19081,1,0,0:0:0:0:
256,192,19162,1,8,0:0:0:0:
256,192,19324,1,8,0:0:0:0:
256,192,19486,1,0,0:0:0:0:
256,192,19567,1,0,0:0:0:0:
256,192,19648,1,8,0:0:0:0:
256,192,19730,1,8,0:0:0:0:
256,192,19811,1,8,0:0:0:0:
256,192,19973,1,0,0:0:0:0:
256,192,20135,1,0,0:0:0:0:
256,192,20297,1,0,0:0:0:0:
256,192,20378,1,0,0:0:0:0:
256,192,20459,1,8,0:0:0:0:
256,192,20621,1,0,0:0:0:0:
256,192,20703,1,0,0:0:0:0:
256,192,20784,1,8,0:0:0:0:
256,192,20946,1,8,0:0:0:0:
256,192,21108,1,0,0:0:0:0:
256,192,21270,1,8,0:0:0:0:
256,192,25648,5,0,0:0:0:0:
256,192,25811,1,0,0:0:0:0:
256,192,25973,5,12,0:0:0:0:
256,192,26135,1,0,0:0:0:0:
256,192,26297,1,8,0:0:0:0:
256,192,26459,1,0,0:0:0:0:
256,192,26540,1,0,0:0:0:0:
256,192,26621,1,8,0:0:0:0:
256,192,26783,1,0,0:0:0:0:
256,192,26945,1,8,0:0:0:0:
256,192,27027,1,0,0:0:0:0:
256,192,27108,1,8,0:0:0:0:
256,192,27270,1,8,0:0:0:0:
256,192,27351,1,8,0:0:0:0:
256,192,27432,1,8,0:0:0:0:
256,192,27594,1,8,0:0:0:0:
256,192,27756,1,0,0:0:0:0:
256,192,27837,1,0,0:0:0:0:
256,192,27918,1,8,0:0:0:0:
256,192,28243,1,8,0:0:0:0:
256,192,28405,1,8,0:0:0:0:
256,192,28486,1,0,0:0:0:0:
256,192,28567,1,8,0:0:0:0:
256,192,28729,1,0,0:0:0:0:
256,192,28891,1,8,0:0:0:0:
256,192,29054,1,0,0:0:0:0:
256,192,29216,1,8,0:0:0:0:
256,192,29297,1,0,0:0:0:0:
256,192,29378,1,8,0:0:0:0:
256,192,29540,1,0,0:0:0:0:
256,192,29702,1,0,0:0:0:0:
256,192,29864,1,8,0:0:0:0:
256,192,30189,1,8,0:0:0:0:
256,192,30270,1,0,0:0:0:0:
256,192,30351,1,0,0:0:0:0:
256,192,30513,1,0,0:0:0:0:
256,192,30594,1,0,0:0:0:0:
256,192,30675,1,8,0:0:0:0:
256,192,30837,1,0,0:0:0:0:
256,192,31162,1,8,0:0:0:0:
256,192,31324,1,8,0:0:0:0:
256,192,31486,1,0,0:0:0:0:
256,192,31648,1,0,0:0:0:0:
256,192,31810,1,0,0:0:0:0:
256,192,32135,1,8,0:0:0:0:
256,192,32216,1,0,0:0:0:0:
256,192,32297,1,0,0:0:0:0:
256,192,32459,1,8,0:0:0:0:
256,192,32621,1,0,0:0:0:0:
256,192,32783,1,8,0:0:0:0:
256,192,32945,1,0,0:0:0:0:
256,192,33108,1,0,0:0:0:0:
256,192,33189,1,0,0:0:0:0:
256,192,33270,1,0,0:0:0:0:
256,192,33432,1,0,0:0:0:0:
256,192,33594,1,8,0:0:0:0:
256,192,33756,1,8,0:0:0:0:
256,192,33837,1,8,0:0:0:0:
256,192,33918,1,8,0:0:0:0:
256,192,34000,1,8,0:0:0:0:
256,192,34081,1,0,0:0:0:0:
256,192,34162,1,0,0:0:0:0:
256,192,34243,1,0,0:0:0:0:
256,192,34405,1,8,0:0:0:0:
256,192,34729,1,0,0:0:0:0:
256,192,34891,1,0,0:0:0:0:
256,192,35054,1,8,0:0:0:0:
256,192,35216,1,0,0:0:0:0:
256,192,35378,1,8,0:0:0:0:
256,192,35540,1,0,0:0:0:0:
256,192,35621,1,0,0:0:0:0:
256,192,35702,1,0,0:0:0:0:
256,192,36351,5,12,0:0:0:0:
256,192,36513,1,0,0:0:0:0:
256,192,36675,1,0,0:0:0:0:
256,192,36837,1,8,0:0:0:0:
256,192,37000,1,8,0:0:0:0:
256,192,37081,1,0,0:0:0:0:
256,192,37162,1,0,0:0:0:0:
256,192,37324,1,8,0:0:0:0:
256,192,37486,1,0,0:0:0:0:
256,192,37648,1,8,0:0:0:0:
256,192,37810,1,0,0:0:0:0:
256,192,37972,1,8,0:0:0:0:
256,192,38135,1,8,0:0:0:0:
256,192,38216,1,0,0:0:0:0:
256,192,38297,1,8,0:0:0:0:
256,192,38621,1,0,0:0:0:0:
256,192,38783,1,8,0:0:0:0:
256,192,38945,1,8,0:0:0:0:
256,192,39108,1,0,0:0:0:0:
256,192,39270,1,8,0:0:0:0:
256,192,39432,1,0,0:0:0:0:
256,192,39594,1,8,0:0:0:0:
256,192,39675,1,0,0:0:0:0:
256,192,39756,1,0,0:0:0:0:
256,192,39918,1,8,0:0:0:0:
256,192,40081,1,0,0:0:0:0:
256,192,40243,1,8,0:0:0:0:
256,192,40567,1,0,0:0:0:0:
256,192,40729,1,0,0:0:0:0:
256,192,40891,1,8,0:0:0:0:
256,192,41054,1,0,0:0:0:0:
256,192,41135,1,0,0:0:0:0:
256,192,41216,1,0,0:0:0:0:
256,192,41378,1,0,0:0:0:0:
256,192,41540,1,8,0:0:0:0:
256,192,41702,1,0,0:0:0:0:
256,192,41783,1,0,0:0:0:0:
256,192,41864,1,8,0:0:0:0:
256,192,42027,1,0,0:0:0:0:
256,192,42189,1,8,0:0:0:0:
256,192,42270,1,0,0:0:0:0:
256,192,42351,1,0,0:0:0:0:
256,192,42513,1,8,0:0:0:0:
256,192,42675,1,0,0:0:0:0:
256,192,42837,1,8,0:0:0:0:
256,192,43000,1,0,0:0:0:0:
256,192,43081,1,0,0:0:0:0:
256,192,43162,1,8,0:0:0:0:
256,192,43324,1,0,0:0:0:0:
256,192,43486,1,8,0:0:0:0:
256,192,43567,1,0,0:0:0:0:
256,192,43648,1,0,0:0:0:0:
256,192,43810,1,8,0:0:0:0:
256,192,43972,1,0,0:0:0:0:
256,192,44135,1,8,0:0:0:0:
256,192,44297,1,0,0:0:0:0:
256,192,44378,1,0,0:0:0:0:
256,192,44459,1,8,0:0:0:0:
256,192,44621,1,0,0:0:0:0:
256,192,44783,1,8,0:0:0:0:
256,192,44864,1,8,0:0:0:0:
256,192,44945,1,0,0:0:0:0:
256,192,45108,1,8,0:0:0:0:
256,192,45189,1,8,0:0:0:0:
256,192,45270,1,0,0:0:0:0:
256,192,45351,1,0,0:0:0:0:
256,192,45432,5,12,0:0:0:0:
256,192,45756,1,0,0:0:0:0:
256,192,46081,1,0,0:0:0:0:
