osu file format v14

[General]
AudioFilename: audio.mp3
AudioLeadIn: 1500
PreviewTime: 25567
Countdown: 0
SampleSet: Normal
StackLeniency: 0.7
Mode: 1
LetterboxInBreaks: 0
WidescreenStoryboard: 1

[Editor]
Bookmarks: 5865
DistanceSpacing: 1
BeatDivisor: 1
GridSize: 32
TimelineZoom: 2.599999

[Metadata]
Title:If you went out with friends in a way
TitleUnicode:If you went out with friends in a way
Artist:Subplaid
ArtistUnicode:Subplaid
Creator:AJT
Version:Kantan
Source:
Tags:russian electronic dnb breakcore jungle choir Если с другом вышел в путь esli s drugom vishel v put' remix soviet ussr remix heavenly moon ginjani
BeatmapID:3449678
BeatmapSetID:1680398

[Difficulty]
HPDrainRate:8
CircleSize:4
OverallDifficulty:2
ApproachRate:8
SliderMultiplier:1.4
SliderTickRate:1

[Events]
//Background and Video events
0,0,"bg.jpg",0,0
//Break Periods
2,21432,25223
//Storyboard Layer 0 (Background)
//Storyboard Layer 1 (Fail)
//Storyboard Layer 2 (Pass)
//Storyboard Layer 3 (Foreground)
//Storyboard Layer 4 (Overlay)
//Storyboard Sound Samples

[TimingPoints]
676,324.324324324324,4,1,0,65,1,0
25324,324.324324324324,4,1,0,65,1,8
25973,324.324324324324,4,1,0,65,1,0

[Colours]
Combo1 : 186,125,58
Combo2 : 196,166,64
Combo3 : 179,74,66

[HitObjects]
256,192,676,5,12,0:0:0:0:
256,192,1000,1,8,0:0:0:0:
256,192,1324,1,0,0:0:0:0:
256,192,1973,1,8,0:0:0:0:
256,192,2297,1,0,0:0:0:0:
256,192,2621,1,0,0:0:0:0:
256,192,3270,1,8,0:0:0:0:
256,192,3919,1,8,0:0:0:0:
256,192,4567,1,8,0:0:0:0:
256,192,4892,1,0,0:0:0:0:
256,192,5865,1,8,0:0:0:0:
256,192,6189,1,0,0:0:0:0:
256,192,6513,1,0,0:0:0:0:
256,192,7162,1,8,0:0:0:0:
256,192,7486,1,8,0:0:0:0:
256,192,7811,1,0,0:0:0:0:
256,192,8135,1,0,0:0:0:0:
256,192,8459,1,8,0:0:0:0:
256,192,9108,1,0,0:0:0:0:
256,192,9757,1,0,0:0:0:0:
256,192,10081,1,8,0:0:0:0:
256,192,11054,1,8,0:0:0:0:
256,192,11378,1,0,0:0:0:0:
256,192,11703,1,8,0:0:0:0:
256,192,12351,1,8,0:0:0:0:
256,192,12675,1,0,0:0:0:0:
256,192,13000,1,8,0:0:0:0:
256,192,13648,1,8,0:0:0:0:
256,192,13973,1,0,0:0:0:0:
256,192,14297,1,0,0:0:0:0:
256,192,14621,1,8,0:0:0:0:
256,192,14946,1,8,0:0:0:0:
256,192,16243,1,8,0:0:0:0:
256,192,16892,1,0,0:0:0:0:
256,192,17540,1,0,0:0:0:0:
256,192,17865,1,8,0:0:0:0:
256,192,18189,1,8,0:0:0:0:
256,192,18838,1,8,0:0:0:0:
256,192,19162,1,0,0:0:0:0:
256,192,19486,1,8,0:0:0:0:
256,192,19811,1,8,0:0:0:0:
256,192,20135,1,0,0:0:0:0:
256,192,25973,5,12,0:0:0:0:
256,192,26297,1,0,0:0:0:0:
256,192,26621,1,0,0:0:0:0:
256,192,27270,1,0,0:0:0:0:
256,192,27594,1,8,0:0:0:0:
256,192,27918,1,0,0:0:0:0:
256,192,28567,1,0,0:0:0:0:
256,192,29216,1,8,0:0:0:0:
256,192,29864,1,0,0:0:0:0:
256,192,30189,1,8,0:0:0:0:
256,192,31162,1,0,0:0:0:0:
256,192,31486,1,8,0:0:0:0:
256,192,31810,1,0,0:0:0:0:
256,192,32459,1,8,0:0:0:0:
256,192,32783,1,8,0:0:0:0:
256,192,33108,1,0,0:0:0:0:
256,192,33432,1,0,0:0:0:0:
256,192,33756,1,8,0:0:0:0:
256,192,34405,1,8,0:0:0:0:
256,192,35054,1,0,0:0:0:0:
256,192,35378,1,8,0:0:0:0:
256,192,36351,5,12,0:0:0:0:
256,192,36675,1,0,0:0:0:0:
256,192,37000,1,8,0:0:0:0:
256,192,37324,1,8,0:0:0:0:
256,192,37648,1,0,0:0:0:0:
256,192,37972,1,0,0:0:0:0:
256,192,38297,1,8,0:0:0:0:
256,192,38945,1,0,0:0:0:0:
256,192,39270,1,8,0:0:0:0:
256,192,39594,1,0,0:0:0:0:
256,192,39918,1,8,0:0:0:0:
256,192,40243,1,8,0:0:0:0:
256,192,41540,1,0,0:0:0:0:
256,192,42189,1,8,0:0:0:0:
256,192,42837,1,8,0:0:0:0:
256,192,43162,1,0,0:0:0:0:
256,192,43486,1,8,0:0:0:0:
256,192,44135,1,8,0:0:0:0:
256,192,44459,1,0,0:0:0:0:
256,192,44783,1,8,0:0:0:0:
256,192,45108,1,8,0:0:0:0:
256,192,45432,5,4,0:0:0:0:
256,192,45756,1,0,0:0:0:0:
256,192,46081,1,0,0:0:0:0:
