osu file format v14

[General]
AudioFilename: audio.mp3
AudioLeadIn: 0
PreviewTime: 11010
Countdown: 0
SampleSet: Normal
StackLeniency: 0.7
Mode: 1
LetterboxInBreaks: 0
WidescreenStoryboard: 1

[Editor]
Bookmarks: 11010,33079,55148,77217,99286,121355,143424,165493,176527,187562,209631,231700,242734,253769
DistanceSpacing: 1.2
BeatDivisor: 2
GridSize: 32
TimelineZoom: 0.4

[Metadata]
Title:One (Virtual Riot 2017 Remix)
TitleUnicode:One (Virtual Riot 2017 Remix)
Artist:Submatik & Phil ft. Holly Drummond
ArtistUnicode:Submatik & Phil ft. Holly Drummond
Creator:Nerova Riuz GX
Version:Kantan
Source:
Tags:
BeatmapID:1776025
BeatmapSetID:846862

[Difficulty]
HPDrainRate:7
CircleSize:2
OverallDifficulty:4
ApproachRate:5
SliderMultiplier:1.39546053101
SliderTickRate:1

[Events]
//Background and Video events
0,0,"bg.png",0,0
//Break Periods
2,143624,153258
//Storyboard Layer 0 (Background)
//Storyboard Layer 1 (Fail)
//Storyboard Layer 2 (Pass)
//Storyboard Layer 3 (Foreground)
//Storyboard Sound Samples

[TimingPoints]
-24,344.827586206897,4,1,0,40,1,0
-24,-100,4,1,0,40,0,0
11010,-100,4,1,0,40,0,0
22044,-100,4,1,0,40,0,0
33079,-100,4,1,0,60,0,0
44113,-100,4,1,0,60,0,0
55148,-100,4,1,0,80,0,1
74544,-100,4,1,0,80,0,1
77217,-100,4,1,0,40,0,0
77303,-100,4,1,0,40,0,0
88251,-100,4,1,0,40,0,0
99286,-100,4,1,0,40,0,0
110320,-100,4,1,0,40,0,0
121355,-100,4,1,0,80,0,1
140751,-100,4,1,0,80,0,1
143424,-100,4,1,0,20,0,0
143510,-100,4,1,0,20,0,0
154458,-100,4,1,0,40,0,0
165493,-100,4,1,0,60,0,0
176527,-100,4,1,0,60,0,0
187562,-100,4,1,0,80,0,1
231700,-100,4,1,0,40,0,0

[HitObjects]
256,192,11010,5,0,0:0:0:0:
256,192,12389,1,8,0:0:0:0:
256,192,13079,1,0,0:0:0:0:
256,192,13769,1,0,0:0:0:0:
256,192,15148,1,8,0:0:0:0:
256,192,16527,1,0,0:0:0:0:
256,192,17907,1,8,0:0:0:0:
256,192,18596,1,0,0:0:0:0:
256,192,19286,1,0,0:0:0:0:
256,192,20665,1,0,0:0:0:0:
256,192,21355,1,8,0:0:0:0:
256,192,22044,1,0,0:0:0:0:
256,192,23424,1,8,0:0:0:0:
256,192,24113,1,8,0:0:0:0:
256,192,24803,1,0,0:0:0:0:
256,192,26182,1,8,0:0:0:0:
256,192,27562,1,0,0:0:0:0:
256,192,28251,1,8,0:0:0:0:
256,192,28941,1,0,0:0:0:0:
256,192,29631,1,8,0:0:0:0:
256,192,30320,1,8,0:0:0:0:
256,192,31700,1,0,0:0:0:0:
256,192,32389,1,8,0:0:0:0:
256,192,33079,5,0,0:0:0:0:
256,192,33769,1,8,0:0:0:0:
256,192,34113,5,0,0:0:0:0:
256,192,35148,1,8,0:0:0:0:
256,192,35838,1,0,0:0:0:0:
256,192,36527,1,8,0:0:0:0:
256,192,36872,1,0,0:0:0:0:
256,192,37907,1,8,0:0:0:0:
256,192,38596,1,0,0:0:0:0:
256,192,39286,1,8,0:0:0:0:
256,192,39631,1,0,0:0:0:0:
256,192,40665,1,8,0:0:0:0:
256,192,41355,1,8,0:0:0:0:
256,192,42044,1,0,0:0:0:0:
256,192,42389,1,0,0:0:0:0:
256,192,42734,1,8,0:0:0:0:
256,192,43424,1,8,0:0:0:0:
256,192,44113,1,0,0:0:0:0:
256,192,44803,1,8,0:0:0:0:
256,192,45148,1,0,0:0:0:0:
256,192,46182,1,8,0:0:0:0:
256,192,46872,1,0,0:0:0:0:
256,192,47562,1,8,0:0:0:0:
256,192,47907,1,0,0:0:0:0:
256,192,48941,1,8,0:0:0:0:
256,192,49631,1,8,0:0:0:0:
256,192,50320,1,0,0:0:0:0:
256,192,50665,1,0,0:0:0:0:
256,192,51010,1,8,0:0:0:0:
256,192,51700,1,8,0:0:0:0:
256,192,52389,12,0,53769,0:0:0:0:
256,192,55148,5,4,0:0:0:0:
256,192,55838,1,8,0:0:0:0:
256,192,56182,1,0,0:0:0:0:
256,192,56872,1,0,0:0:0:0:
256,192,57217,1,8,0:0:0:0:
256,192,57907,1,0,0:0:0:0:
256,192,58596,1,8,0:0:0:0:
256,192,58941,1,0,0:0:0:0:
256,192,59976,1,0,0:0:0:0:
256,192,60665,1,8,0:0:0:0:
256,192,61355,1,0,0:0:0:0:
256,192,61700,1,8,0:0:0:0:
256,192,62389,1,8,0:0:0:0:
256,192,62734,1,0,0:0:0:0:
256,192,63424,1,8,0:0:0:0:
256,192,64113,1,0,0:0:0:0:
256,192,64458,1,0,0:0:0:0:
256,192,66182,5,8,0:0:0:0:
256,192,66872,1,0,0:0:0:0:
256,192,67217,1,8,0:0:0:0:
256,192,67907,1,0,0:0:0:0:
256,192,68251,1,8,0:0:0:0:
256,192,68941,1,0,0:0:0:0:
256,192,69631,1,8,0:0:0:0:
256,192,69976,1,0,0:0:0:0:
256,192,71010,1,0,0:0:0:0:
256,192,71700,1,8,0:0:0:0:
256,192,72389,1,0,0:0:0:0:
256,192,72734,1,8,0:0:0:0:
256,192,73424,1,0,0:0:0:0:
256,192,73769,1,8,0:0:0:0:
256,192,74458,1,0,0:0:0:0:
256,192,75493,1,8,0:0:0:0:
256,192,76182,1,8,0:0:0:0:
256,192,76872,1,8,0:0:0:0:
256,192,77217,5,0,0:0:0:0:
256,192,78596,1,8,0:0:0:0:
256,192,79286,1,0,0:0:0:0:
256,192,79976,1,0,0:0:0:0:
256,192,81355,1,8,0:0:0:0:
256,192,82734,1,0,0:0:0:0:
256,192,84113,1,8,0:0:0:0:
256,192,84803,1,0,0:0:0:0:
256,192,85493,1,8,0:0:0:0:
256,192,86872,1,0,0:0:0:0:
256,192,87562,1,8,0:0:0:0:
256,192,88251,1,0,0:0:0:0:
256,192,89631,1,8,0:0:0:0:
256,192,90320,1,8,0:0:0:0:
256,192,91010,1,0,0:0:0:0:
256,192,92389,1,8,0:0:0:0:
256,192,93769,1,0,0:0:0:0:
256,192,95148,1,8,0:0:0:0:
256,192,95838,1,8,0:0:0:0:
256,192,96527,1,0,0:0:0:0:
256,192,97907,1,0,0:0:0:0:
256,192,98596,1,8,0:0:0:0:
256,192,99286,5,0,0:0:0:0:
256,192,99976,1,8,0:0:0:0:
256,192,100320,1,0,0:0:0:0:
256,192,101355,1,8,0:0:0:0:
256,192,102044,1,0,0:0:0:0:
256,192,102734,1,8,0:0:0:0:
256,192,103079,1,0,0:0:0:0:
256,192,104113,1,8,0:0:0:0:
256,192,104803,1,0,0:0:0:0:
256,192,105493,1,8,0:0:0:0:
256,192,105838,1,0,0:0:0:0:
256,192,106872,1,8,0:0:0:0:
256,192,107562,1,0,0:0:0:0:
256,192,108251,1,8,0:0:0:0:
256,192,108596,1,0,0:0:0:0:
256,192,108941,1,0,0:0:0:0:
256,192,109631,1,8,0:0:0:0:
256,192,110320,1,0,0:0:0:0:
256,192,111010,1,8,0:0:0:0:
256,192,111355,1,0,0:0:0:0:
256,192,112389,1,8,0:0:0:0:
256,192,113079,1,0,0:0:0:0:
256,192,113769,1,8,0:0:0:0:
256,192,114113,1,0,0:0:0:0:
256,192,115148,1,8,0:0:0:0:
256,192,115838,1,0,0:0:0:0:
256,192,116527,1,8,0:0:0:0:
256,192,116872,1,0,0:0:0:0:
256,192,117217,1,8,0:0:0:0:
256,192,117907,1,8,0:0:0:0:
256,192,118596,12,0,119976,0:0:0:0:
256,192,121355,5,4,0:0:0:0:
256,192,122044,1,8,0:0:0:0:
256,192,122389,1,0,0:0:0:0:
256,192,123079,1,0,0:0:0:0:
256,192,123424,1,8,0:0:0:0:
256,192,124113,1,0,0:0:0:0:
256,192,124803,1,8,0:0:0:0:
256,192,125148,1,0,0:0:0:0:
256,192,126182,1,0,0:0:0:0:
256,192,126872,1,8,0:0:0:0:
256,192,127562,1,0,0:0:0:0:
256,192,127907,1,8,0:0:0:0:
256,192,128596,1,0,0:0:0:0:
256,192,128941,1,8,0:0:0:0:
256,192,129631,1,0,0:0:0:0:
256,192,130320,1,8,0:0:0:0:
256,192,130665,1,0,0:0:0:0:
256,192,132389,1,8,0:0:0:0:
256,192,133079,1,0,0:0:0:0:
256,192,133424,1,8,0:0:0:0:
256,192,134113,1,0,0:0:0:0:
256,192,134458,1,8,0:0:0:0:
256,192,135148,1,0,0:0:0:0:
256,192,135838,1,8,0:0:0:0:
256,192,136182,1,0,0:0:0:0:
256,192,137217,1,0,0:0:0:0:
256,192,137907,1,8,0:0:0:0:
256,192,138596,1,0,0:0:0:0:
256,192,138941,1,8,0:0:0:0:
256,192,139631,1,8,0:0:0:0:
256,192,139976,1,0,0:0:0:0:
256,192,140665,1,0,0:0:0:0:
256,192,141700,1,8,0:0:0:0:
256,192,142389,1,8,0:0:0:0:
256,192,143079,1,8,0:0:0:0:
256,192,143424,1,0,0:0:0:0:
256,192,154458,5,0,0:0:0:0:
256,192,155838,1,8,0:0:0:0:
256,192,157217,1,0,0:0:0:0:
256,192,158596,1,8,0:0:0:0:
256,192,159976,1,0,0:0:0:0:
256,192,161355,1,8,0:0:0:0:
256,192,162734,1,8,0:0:0:0:
256,192,164113,1,0,0:0:0:0:
256,192,165493,5,8,0:0:0:0:
256,192,166182,1,0,0:0:0:0:
256,192,166872,1,8,0:0:0:0:
256,192,167217,1,8,0:0:0:0:
256,192,167562,1,8,0:0:0:0:
256,192,168251,1,0,0:0:0:0:
256,192,168941,1,8,0:0:0:0:
256,192,169631,1,0,0:0:0:0:
256,192,169976,1,0,0:0:0:0:
256,192,170320,1,8,0:0:0:0:
256,192,171010,1,0,0:0:0:0:
256,192,172389,1,8,0:0:0:0:
256,192,172734,1,8,0:0:0:0:
256,192,173079,1,0,0:0:0:0:
256,192,173769,1,8,0:0:0:0:
256,192,174458,1,8,0:0:0:0:
256,192,175148,1,0,0:0:0:0:
256,192,175493,1,0,0:0:0:0:
256,192,175838,1,8,0:0:0:0:
256,192,176527,5,8,0:0:0:0:
256,192,177217,1,0,0:0:0:0:
256,192,177907,1,8,0:0:0:0:
256,192,178251,1,8,0:0:0:0:
256,192,178596,1,8,0:0:0:0:
256,192,179286,1,0,0:0:0:0:
256,192,179976,1,0,0:0:0:0:
256,192,180665,1,8,0:0:0:0:
256,192,182044,1,8,0:0:0:0:
256,192,182734,1,0,0:0:0:0:
256,192,183424,1,8,0:0:0:0:
256,192,183769,1,0,0:0:0:0:
256,192,184113,1,8,0:0:0:0:
256,192,184803,12,0,186182,0:0:0:0:
256,192,187562,5,8,0:0:0:0:
256,192,188251,1,0,0:0:0:0:
256,192,188596,1,8,0:0:0:0:
256,192,189286,1,0,0:0:0:0:
256,192,189631,1,8,0:0:0:0:
256,192,190320,1,0,0:0:0:0:
256,192,191010,1,8,0:0:0:0:
256,192,191355,1,0,0:0:0:0:
256,192,192044,1,0,0:0:0:0:
256,192,192389,1,8,0:0:0:0:
256,192,193079,1,8,0:0:0:0:
256,192,193769,1,0,0:0:0:0:
256,192,195148,1,8,0:0:0:0:
256,192,195838,1,8,0:0:0:0:
256,192,196527,1,0,0:0:0:0:
256,192,196872,1,8,0:0:0:0:
256,192,197562,1,0,0:0:0:0:
256,192,197907,1,8,0:0:0:0:
256,192,198596,5,0,0:0:0:0:
256,192,199286,1,8,0:0:0:0:
256,192,199631,1,0,0:0:0:0:
256,192,200665,1,8,0:0:0:0:
256,192,201355,1,0,0:0:0:0:
256,192,202044,1,8,0:0:0:0:
256,192,202389,1,0,0:0:0:0:
256,192,203079,1,0,0:0:0:0:
256,192,203424,1,8,0:0:0:0:
256,192,204113,1,0,0:0:0:0:
256,192,204803,1,8,0:0:0:0:
256,192,206182,1,8,0:0:0:0:
256,192,206872,1,0,0:0:0:0:
256,192,207562,1,8,0:0:0:0:
256,192,207907,1,0,0:0:0:0:
256,192,208251,2,0,L|352:192,6,69.7730265505
256,192,209631,5,4,0:0:0:0:
256,192,210320,1,8,0:0:0:0:
256,192,211010,1,0,0:0:0:0:
256,192,211700,1,8,0:0:0:0:
256,192,212044,1,0,0:0:0:0:
256,192,212389,1,0,0:0:0:0:
256,192,213079,1,8,0:0:0:0:
256,192,214458,1,8,0:0:0:0:
256,192,214803,1,8,0:0:0:0:
256,192,215148,1,0,0:0:0:0:
256,192,215838,1,8,0:0:0:0:
256,192,216527,1,0,0:0:0:0:
256,192,217217,1,8,0:0:0:0:
256,192,217907,1,0,0:0:0:0:
256,192,218596,1,0,0:0:0:0:
256,192,218941,1,0,0:0:0:0:
256,192,219286,1,8,0:0:0:0:
256,192,219976,1,8,0:0:0:0:
256,192,220665,1,0,0:0:0:0:
256,192,221355,1,8,0:0:0:0:
256,192,222734,1,8,0:0:0:0:
256,192,223079,1,8,0:0:0:0:
256,192,223424,1,0,0:0:0:0:
256,192,224113,1,8,0:0:0:0:
256,192,224803,1,0,0:0:0:0:
256,192,225493,1,8,0:0:0:0:
256,192,226182,1,0,0:0:0:0:
256,192,226872,1,0,0:0:0:0:
256,192,227562,1,8,0:0:0:0:
256,192,227907,1,8,0:0:0:0:
256,192,228251,1,8,0:0:0:0:
256,192,228941,1,0,0:0:0:0:
256,192,229631,1,8,0:0:0:0:
256,192,230320,1,8,0:0:0:0:
256,192,230665,1,0,0:0:0:0:
256,192,231010,1,8,0:0:0:0:
256,192,231700,1,0,0:0:0:0:
256,192,232044,12,0,242734,0:0:0:0:
