osu file format v14

[General]
AudioFilename: audio.mp3
AudioLeadIn: 0
PreviewTime: 219627
Countdown: 0
SampleSet: None
StackLeniency: 0.2
Mode: 0
LetterboxInBreaks: 0
WidescreenStoryboard: 1

[Editor]
Bookmarks: 44084,66027,76999,87970,109913,131856,153799,164770,175742,197684,219627,241570,263513
DistanceSpacing: 0.8
BeatDivisor: 4
GridSize: 32
TimelineZoom: 1.9

[Metadata]
Title:One (Virtual Riot Remix)
TitleUnicode:One (Virtual Riot Remix)
Artist:Submatik & Phil feat Holly Drummond
ArtistUnicode:Submatik & Phil feat Holly Drummond
Creator:C00L
Version:Left Alone
Source:
Tags:
BeatmapID:1466348
BeatmapSetID:692971

[Difficulty]
HPDrainRate:6
CircleSize:4
OverallDifficulty:8
ApproachRate:9.4
SliderMultiplier:2.4
SliderTickRate:1

[Events]
//Background and Video events
0,0,"you_re_not_alone.png",0,0
//Break Periods
//Storyboard Layer 0 (Background)
//Storyboard Layer 1 (Fail)
//Storyboard Layer 2 (Pass)
//Storyboard Layer 3 (Foreground)
//Storyboard Sound Samples

[TimingPoints]
199.238371911718,342.857142857143,4,1,0,100,1,0
44084,-166.666666666667,4,1,0,100,0,0
66027,-111.111111111111,4,1,0,100,0,0
74256,-99.9999999999999,4,1,0,100,0,0
87627,-200,4,1,0,100,0,0
87799,-200,4,1,0,10,0,0
87970,-71.4285714285714,4,1,0,100,0,1
88484,-250,4,1,0,100,0,1
89170,-76.9230769230769,4,1,0,100,0,1
89342,-71.4285714285714,4,1,0,100,0,1
89856,-250,4,1,0,100,0,1
90542,-76.9230769230769,4,1,0,100,0,1
90713,-71.4285714285714,4,1,0,100,0,1
91227,-100,4,1,0,100,0,1
91913,-76.9230769230769,4,1,0,100,0,1
92084,-90.9090909090909,4,1,0,100,0,1
93456,-71.4285714285714,4,1,0,100,0,1
93970,-250,4,1,0,100,0,1
94656,-76.9230769230769,4,1,0,100,0,1
94827,-71.4285714285714,4,1,0,100,0,1
95342,-250,4,1,0,100,0,1
96027,-76.9230769230769,4,1,0,100,0,1
96199,-71.4285714285714,4,1,0,100,0,1
96713,-100,4,1,0,100,0,1
97399,-76.9230769230769,4,1,0,100,0,1
97570,-90.9090909090909,4,1,0,100,0,1
98942,-71.4285714285714,4,1,0,100,0,1
99456,-250,4,1,0,100,0,1
100142,-76.9230769230769,4,1,0,100,0,1
100313,-71.4285714285714,4,1,0,100,0,1
100827,-250,4,1,0,100,0,1
101513,-76.9230769230769,4,1,0,100,0,1
101684,-71.4285714285714,4,1,0,100,0,1
102199,-100,4,1,0,100,0,1
102884,-83.3333333333333,4,1,0,100,0,1
103056,-90.9090909090909,4,1,0,100,0,1
104427,-71.4285714285714,4,1,0,100,0,1
104942,-250,4,1,0,100,0,1
105627,-83.3333333333333,4,1,0,100,0,1
105799,-71.4285714285714,4,1,0,100,0,1
106313,-250,4,1,0,100,0,1
106999,-76.9230769230769,4,1,0,100,0,1
107170,-71.4285714285714,4,1,0,100,0,1
107684,-100,4,1,0,100,0,1
108542,-111.111111111111,4,1,0,100,0,0
109913,-71.4285714285714,4,1,0,100,0,1
110427,-250,4,1,0,100,0,1
111027,-76.9230769230769,4,1,0,100,0,1
111284,-71.4285714285714,4,1,0,100,0,1
111799,-250,4,1,0,100,0,1
112399,-76.9230769230769,4,1,0,100,0,1
112656,-71.4285714285714,4,1,0,100,0,1
113170,-100,4,1,0,100,0,1
113770,-76.9230769230769,4,1,0,100,0,1
114027,-90.9090909090909,4,1,0,100,0,1
114713,-83.3333333333333,4,1,0,100,0,1
115056,-125,4,1,0,100,0,1
115399,-71.4285714285714,4,1,0,100,0,1
115913,-250,4,1,0,100,0,1
116513,-76.9230769230769,4,1,0,100,0,1
116770,-71.4285714285714,4,1,0,100,0,1
117284,-250,4,1,0,100,0,1
117884,-76.9230769230769,4,1,0,100,0,1
118142,-71.4285714285714,4,1,0,100,0,1
118656,-100,4,1,0,100,0,1
119256,-76.9230769230769,4,1,0,100,0,1
119513,-90.9090909090909,4,1,0,100,0,1
120884,-62.5,4,1,0,100,0,1
121399,-100,4,1,0,100,0,1
121999,-76.9230769230769,4,1,0,100,0,1
122256,-71.4285714285714,4,1,0,100,0,1
122770,-250,4,1,0,100,0,1
123370,-76.9230769230769,4,1,0,100,0,1
123627,-71.4285714285714,4,1,0,100,0,1
124142,-100,4,1,0,100,0,1
124742,-76.9230769230769,4,1,0,100,0,1
124999,-90.9090909090909,4,1,0,100,0,1
125684,-100,4,1,0,100,0,1
126027,-83.3333333333333,4,1,0,100,0,1
126370,-71.4285714285714,4,1,0,100,0,1
126884,-250,4,1,0,100,0,1
127570,-76.9230769230769,4,1,0,100,0,1
127742,-76.9230769230769,4,1,0,100,0,1
128256,-250,4,1,0,100,0,1
128942,-76.9230769230769,4,1,0,100,0,1
129113,-71.4285714285714,4,1,0,100,0,1
129627,-250,4,1,0,100,0,1
130484,-100,4,1,0,100,0,0
131856,-90.9090909090909,4,1,0,100,0,0
134599,-66.6666666666667,4,1,0,100,0,0
135113,-83.3333333333333,4,1,0,100,0,0
135970,-76.9230769230769,4,1,0,100,0,0
137342,-90.9090909090909,4,1,0,100,0,0
138713,-76.9230769230769,4,1,0,100,0,0
140084,-66.6666666666667,4,1,0,100,0,0
140599,-83.3333333333333,4,1,0,100,0,0
141456,-76.9230769230769,4,1,0,100,0,0
142142,-71.4285714285714,4,1,0,100,0,0
142827,-90.9090909090909,4,1,0,100,0,0
145570,-66.6666666666667,4,1,0,100,0,0
146084,-83.3333333333333,4,1,0,100,0,0
146942,-76.9230769230769,4,1,0,100,0,0
148313,-90.9090909090909,4,1,0,100,0,0
149684,-76.9230769230769,4,1,0,100,0,0
151056,-66.6666666666667,4,1,0,100,0,0
153113,-90.9090909090909,4,1,0,100,0,0
153799,-125,4,1,0,100,0,0
161942,-125,4,1,0,10,0,0
162027,-125,4,1,0,100,0,0
167427,-125,4,1,0,10,0,0
167513,-125,4,1,0,100,0,0
172913,-125,4,1,0,10,0,0
172999,-125,4,1,0,100,0,0
175742,-111.111111111111,4,1,0,100,0,0
177113,-100,4,1,0,100,0,0
178484,-111.111111111111,4,1,0,100,0,0
179170,-90.9090909090908,4,1,0,100,0,0
183970,-83.3333333333333,4,1,0,100,0,0
192199,-71.4285714285714,4,1,0,100,0,0
194942,-100,4,1,0,100,0,0
197684,-55.5555555555556,4,1,0,100,0,1
198370,-76.9230769230769,4,1,0,100,0,1
199056,-62.5,4,1,0,100,0,1
199742,-76.9230769230769,4,1,0,100,0,1
200084,-71.4285714285714,4,1,0,100,0,1
200427,-83.3333333333333,4,1,0,100,0,1
201799,-90.9090909090909,4,1,0,100,0,1
202827,-250,4,1,0,100,0,1
203170,-55.5555555555556,4,1,0,100,0,1
203856,-166.666666666667,4,1,0,100,0,1
204542,-90.909090909091,4,1,0,100,0,1
204884,-66.6666666666667,4,1,0,100,0,1
205227,-125,4,1,0,100,0,1
205570,-71.4285714285714,4,1,0,100,0,1
205913,-83.3333333333333,4,1,0,100,0,1
206599,-66.6666666666667,4,1,0,100,0,1
206942,-83.3333333333333,4,1,0,100,0,1
207284,-71.4285714285714,4,1,0,100,0,1
208656,-55.5555555555556,4,1,0,100,0,1
209342,-76.9230769230769,4,1,0,100,0,1
210027,-62.5,4,1,0,100,0,1
210713,-76.9230769230769,4,1,0,100,0,1
211056,-71.4285714285714,4,1,0,100,0,1
211399,-83.3333333333333,4,1,0,100,0,1
212770,-90.9090909090909,4,1,0,100,0,1
213799,-250,4,1,0,100,0,1
214142,-55.5555555555556,4,1,0,100,0,1
214827,-166.666666666667,4,1,0,100,0,1
215513,-76.9230769230769,4,1,0,100,0,1
215856,-66.6666666666667,4,1,0,100,0,1
216199,-125,4,1,0,100,0,1
216542,-71.4285714285714,4,1,0,100,0,1
216884,-83.3333333333333,4,1,0,100,0,1
217570,-66.6666666666667,4,1,0,100,0,1
217913,-83.3333333333333,4,1,0,100,0,1
218256,-71.4285714285714,4,1,0,100,0,1
219627,-83.3333333333333,4,1,0,100,0,0
227856,-100,4,1,0,100,0,0
228542,-125,4,1,0,100,0,0
229227,-166.666666666667,4,1,0,100,0,0
230599,-83.3333333333334,4,1,0,100,0,0
238827,-100,4,1,0,100,0,0
240199,-111.111111111111,4,1,0,100,0,0
241570,-90.9090909090909,4,1,0,100,0,0
244313,-66.6666666666667,4,1,0,100,0,0
244827,-83.3333333333333,4,1,0,100,0,0
245684,-76.9230769230769,4,1,0,100,0,0
247056,-90.9090909090909,4,1,0,100,0,0
248427,-76.9230769230769,4,1,0,100,0,0
249798,-66.6666666666667,4,1,0,100,0,0
250313,-83.3333333333333,4,1,0,100,0,0
251170,-76.9230769230769,4,1,0,100,0,0
251856,-71.4285714285714,4,1,0,100,0,0
252541,-90.9090909090909,4,1,0,100,0,0
255284,-66.6666666666667,4,1,0,100,0,0
255798,-83.3333333333333,4,1,0,100,0,0
256656,-76.9230769230769,4,1,0,100,0,0
258027,-90.9090909090909,4,1,0,100,0,0
259398,-76.9230769230769,4,1,0,100,0,0
260770,-66.6666666666667,4,1,0,100,0,0
262827,-90.9090909090909,4,1,0,100,0,0

[Colours]
Combo1 : 255,255,255
Combo2 : 255,17,17
Combo3 : 17,255,177
Combo4 : 40,115,50
Combo5 : 255,123,60

[HitObjects]
204,264,44084,6,0,B|160:312|89:281|67:213|135:149|216:143|263:184|263:184|294:217|343:222|363:188|363:188|329:140|283:152|262:227,1,575.999982421876
263,221,45799,1,0,0:0:0:0:
416,112,46827,6,0,B|352:65|280:97|280:97|207:46|142:87|142:87|178:62|199:26|199:26|147:52|94:29|94:29|45:83|78:131,1,575.999982421876
24,211,49570,6,0,B|-2:280|68:335|68:335|135:280|100:205|100:205|139:277|203:261|256:241|275:178|230:128|175:138|170:179,1,575.999982421876
170,175,51970,1,0,0:0:0:0:
172,333,52313,6,0,B|249:337|297:274|297:274|326:353|400:365|400:365|464:285|419:203|419:203|349:181|300:240,1,575.999982421876
298,274,54027,5,0,0:0:0:0:
420,204,54370,1,0,0:0:0:0:
398,365,54713,1,0,0:0:0:0:
329,187,55056,6,0,B|295:134|303:57|327:38|327:38|373:-9|438:23|439:86|391:123|338:110|314:57|314:57|278:19|235:39|235:39|211:80|224:132,1,575.999982421876
221,118,56770,1,0,0:0:0:0:
11,121,57799,6,0,B|65:149|122:114|122:114|119:185|196:216|196:216|109:188|51:245|66:326|96:366|148:369|219:328|151:280,1,575.999982421876
221,118,60542,2,0,B|268:124|305:172|296:221|296:221|323:157|385:128|445:147|445:147|480:184|452:226|452:226|400:204|370:228|364:268|364:268|394:249|434:253,1,575.999982421876
407,252,62256,1,0,0:0:0:0:
238,356,62942,1,0,0:0:0:0:
238,356,63284,6,0,B|194:294|243:222|243:222|296:152|247:86|247:86|168:117|169:190|169:190|150:108|70:81,1,575.999982421876
79,84,64999,1,0,0:0:0:0:
169,190,65342,1,0,0:0:0:0:
247,86,65684,1,0,0:0:0:0:
391,135,66027,5,0,0:0:0:0:
403,99,66113,1,0,0:0:0:0:
393,62,66199,1,0,0:0:0:0:
289,172,66370,5,0,0:0:0:0:
298,10,66542,1,0,0:0:0:0:
166,136,66713,2,0,L|170:214,1,53.9999983520508
121,282,66884,2,0,B|177:289|177:289|249:261,1,107.999996704102
366,216,67227,1,0,0:0:0:0:
301,384,67399,6,0,L|311:258,1,107.999996704102
435,384,67742,2,0,L|424:258,1,107.999996704102
210,134,68084,6,0,P|268:132|329:175,1,107.999996704102
512,126,68427,2,0,P|454:124|393:167,1,107.999996704102
359,45,68770,5,0,0:0:0:0:
366,216,68942,1,0,0:0:0:0:
410,146,69113,1,0,0:0:0:0:
246,212,69284,1,0,0:0:0:0:
247,239,69370,1,0,0:0:0:0:
248,266,69456,6,0,L|252:379,1,107.999996704102
159,223,69799,1,0,0:0:0:0:
369,269,69970,2,0,L|363:171,1,53.9999983520508
410,146,70142,6,0,B|356:134|356:134|291:163,1,107.999996704102
113,146,70484,2,0,B|167:134|167:134|215:155,1,107.999996704102
267,29,70827,1,0,0:0:0:0:
159,223,70999,5,0,0:0:0:0:
159,223,71084,2,0,L|154:292,1,53.9999983520508
365,215,71256,1,0,0:0:0:0:
365,215,71341,2,0,L|370:284,1,53.9999983520508
229,356,71513,5,0,0:0:0:0:
265,366,71599,1,0,0:0:0:0:
300,354,71684,1,0,0:0:0:0:
261,213,71856,5,0,0:0:0:0:
377,86,72027,1,0,0:0:0:0:
235,77,72199,6,0,B|153:60|100:118|100:118|144:141|170:116,1,215.999993408203
377,86,72713,2,0,L|371:168,1,53.9999983520508
261,213,72884,2,0,B|328:218|328:218|365:240|365:240|403:225|403:225|486:232,1,215.999993408203
295,306,73399,6,0,L|177:295,1,107.999996704102
164,121,73742,2,0,L|271:130,1,107.999996704102
112,288,74084,1,0,0:0:0:0:
74,284,74170,1,0,0:0:0:0:
32,279,74256,6,0,B|22:219|22:219|38:162,1,120
170,4,74599,2,0,B|180:64|180:64|158:142,1,120
299,39,74942,1,0,0:0:0:0:
327,30,75027,1,0,0:0:0:0:
356,27,75113,1,0,0:0:0:0:
385,29,75199,1,0,0:0:0:0:
412,41,75284,1,0,0:0:0:0:
254,120,75456,1,0,0:0:0:0:
490,230,75627,5,0,0:0:0:0:
488,199,75713,1,0,0:0:0:0:
485,168,75799,1,0,0:0:0:0:
483,138,75884,1,0,0:0:0:0:
480,107,75970,1,0,0:0:0:0:
408,282,76142,1,0,0:0:0:0:
237,211,76313,5,0,0:0:0:0:
208,197,76399,1,0,0:0:0:0:
185,177,76484,1,0,0:0:0:0:
170,150,76570,1,0,0:0:0:0:
163,120,76656,1,0,0:0:0:0:
312,272,76827,5,0,0:0:0:0:
306,313,76913,1,0,0:0:0:0:
300,354,76999,2,0,B|256:365|256:365|154:336,1,120
184,344,77256,1,0,0:0:0:0:
184,344,77342,1,0,0:0:0:0:
45,384,77513,1,0,0:0:0:0:
88,262,77684,2,0,P|101:202|72:133,1,120,0|0,0:3|0:3,0:3:0:0:
0,43,78027,1,0,0:0:0:0:
15,210,78199,1,0,0:0:0:0:
113,62,78370,5,0,0:0:0:0:
147,51,78456,1,0,0:0:0:0:
183,51,78542,1,0,0:0:0:0:
217,58,78627,1,0,0:0:0:0:
247,77,78713,1,0,0:0:0:0:
172,160,78884,1,0,0:0:0:0:
331,41,79056,6,0,B|387:24|387:24|491:43,1,120
471,39,79313,1,0,0:0:0:0:
494,44,79399,1,0,0:0:0:0:
393,155,79570,2,0,L|388:221,1,60
436,317,79742,6,0,P|371:329|317:304,1,120
322,308,79999,1,0,0:0:0:0:
322,308,80084,1,0,0:0:0:0:
149,384,80256,1,0,0:0:0:0:
153,347,80342,1,0,0:0:0:0:
158,311,80427,1,0,0:0:0:0:
162,274,80513,1,0,0:0:0:0:
165,237,80599,1,0,0:0:0:0:
42,128,80770,6,0,P|78:142|97:169,1,60,0|0,0:0|0:3,0:0:0:0:
302,140,80942,2,0,P|273:149|252:169,1,60
176,124,81113,6,0,L|186:0,1,120
186,4,81370,1,0,0:0:0:0:
186,4,81456,1,0,0:0:0:0:
98,54,81627,1,0,0:0:0:0:
258,69,81799,1,0,0:0:0:0:
26,204,81970,5,0,0:0:0:0:
26,204,82056,2,0,L|32:276,1,60
322,215,82227,1,0,0:0:0:0:
322,215,82313,2,0,L|316:274,1,60
117,167,82484,6,0,P|181:154|247:183,1,120
227,332,82827,2,0,P|163:345|97:316,1,120
322,215,83170,6,0,B|334:166|334:166|314:81,1,120
318,98,83427,1,0,0:0:0:0:
318,98,83513,1,0,0:0:0:0:
444,163,83684,1,0,0:0:0:0:
266,32,83856,6,0,P|324:15|384:38,1,120
380,291,84199,2,0,P|322:308|262:285,1,120
61,178,84542,6,0,B|111:160|111:160|206:175,1,120
112,383,84884,2,0,L|118:252,1,120
124,64,85227,5,0,0:0:0:0:
117,263,85399,1,0,0:0:0:0:
281,104,85570,5,0,0:0:0:0:
177,170,85742,1,0,0:0:0:0:
274,245,85913,1,0,0:0:0:0:
286,23,86084,5,0,0:0:0:0:
376,182,86256,1,0,0:0:0:0:
177,170,86427,1,0,0:0:0:0:
357,293,86599,5,0,0:0:0:0:
317,329,86684,1,0,0:0:0:0:
263,337,86770,1,0,0:0:0:0:
212,314,86856,1,0,0:0:0:0:
167,285,86942,1,0,0:0:0:0:
117,263,87028,1,0,0:0:0:0:
62,270,87114,1,0,0:0:0:0:
19,302,87199,1,0,0:0:0:0:
4,353,87284,5,0,0:0:0:0:
177,170,87627,2,0,L|183:111,1,60
150,27,87970,6,0,B|197:26|197:26|260:50,1,83.9999974365235
473,27,88142,2,0,B|427:24|427:24|364:48,1,83.9999974365235
313,93,88313,1,0,0:0:0:0:
403,249,88484,6,0,P|371:222|357:176,1,72
245,180,88827,2,0,P|225:209|194:227,1,72
287,342,89170,6,0,L|294:263,1,77.9999964294435
313,93,89342,6,0,B|271:76|271:76|204:81,1,83.9999974365235
113,213,89513,2,0,B|155:230|155:230|193:227,1,83.9999974365235
36,93,89684,1,0,0:0:0:0:
18,253,89856,6,0,P|6:216|14:174,1,72
135,113,90199,2,0,P|138:78|127:44,1,72
243,161,90542,2,0,L|324:167,1,77.9999964294435
456,137,90713,6,0,B|461:180|461:180|449:225,1,83.9999974365235
289,325,90884,2,0,B|284:282|284:282|294:242,1,83.9999974365235
330,93,91056,1,0,0:0:0:0:
476,312,91227,6,0,B|424:327|382:292|382:292|399:336|371:387,1,180
104,310,91570,2,0,B|155:325|197:290|197:290|177:334|198:367,1,180
294,242,91913,2,0,L|300:164,1,77.9999964294435
359,62,92084,6,0,B|313:40|313:40|216:52,1,132.00000402832
206,54,92342,1,0,0:0:0:0:
180,59,92427,1,0,0:0:0:0:
299,164,92599,1,0,0:0:0:0:
39,124,92770,5,0,0:0:0:0:
19,166,92856,1,0,0:0:0:0:
13,212,92942,1,0,0:0:0:0:
27,255,93027,1,0,0:0:0:0:
55,291,93113,2,0,P|86:307|139:302,1,66.0000020141602
88,57,93284,2,0,P|57:41|4:46,1,66.0000020141602
126,200,93456,6,0,B|166:213|166:213|238:207,1,83.9999974365235
473,200,93627,2,0,B|433:213|433:213|361:207,1,83.9999974365235
299,164,93799,1,0,0:0:0:0:
428,329,93970,6,0,P|388:308|366:269,1,72
217,284,94313,2,0,P|194:311|161:326,1,72
295,241,94656,2,0,L|299:164,1,77.9999964294435,0|0,0:3|0:3,0:3:0:0:
170,122,94827,6,0,B|177:76|177:76|203:33,1,83.9999974365235
408,49,94999,2,0,B|428:81|428:81|435:126,1,83.9999974365235
296,241,95170,1,0,0:0:0:0:
334,90,95342,6,0,P|300:80|252:94,1,72
260,315,95684,2,0,P|294:325|331:318,1,72
225,202,96027,2,0,L|128:202,1,77.9999964294435
4,160,96199,6,0,B|-6:204|-6:204|7:264,1,83.9999974365235
169,372,96370,2,0,B|179:328|179:328|166:268,1,83.9999974365235
133,120,96542,1,0,0:0:0:0:
229,20,96713,6,0,B|248:-9|292:1|292:1|285:76|192:87,1,180
47,24,97056,2,0,B|30:-7|-14:0|-14:0|-13:75|77:94,1,180
133,120,97399,2,0,L|140:211,1,77.9999964294435
96,349,97570,6,0,B|154:361|154:361|237:333,1,132.00000402832
247,328,97827,1,0,0:0:0:0:
271,317,97913,1,0,0:0:0:0:
386,384,98084,1,0,0:0:0:0:
264,233,98256,5,0,0:0:0:0:
255,186,98342,1,0,0:0:0:0:
268,141,98427,1,0,0:0:0:0:
300,108,98513,1,0,0:0:0:0:
345,97,98599,2,0,P|382:102|416:129,1,66.0000020141602
271,317,98770,2,0,P|234:312|200:285,1,66.0000020141602
0,156,98942,6,0,B|-7:115|-7:115|0:73,1,83.9999974365235
181,76,99113,2,0,B|189:118|189:118|181:158,1,83.9999974365235
93,253,99284,1,0,0:0:0:0:
54,6,99456,6,0,P|86:1|128:11,1,72
305,13,99799,2,0,P|270:4|235:9,1,72
181,158,100142,2,0,L|181:241,1,77.9999964294435
139,365,100313,6,0,B|183:373|183:373|242:361,1,83.9999974365235
348,199,100484,2,0,B|309:191|309:191|265:199,1,83.9999974365235
422,333,100656,1,0,0:0:0:0:
480,151,100827,6,0,P|490:186|487:222,1,72
315,375,101170,2,0,P|305:340|308:304,1,72
265,199,101513,2,0,L|173:207,1,77.9999964294435
21,267,101684,6,0,B|6:222|6:222|15:175,1,83.9999974365235
193,32,101856,2,0,B|208:77|208:77|199:124,1,83.9999974365235
180,295,102027,1,0,0:0:0:0:
7,91,102199,6,0,B|70:95|99:147|99:147|86:106|102:68,1,180
393,91,102542,2,0,B|330:95|301:147|301:147|314:106|298:68,1,180
201,112,102884,2,0,L|201:192,1,71.9999978027344
162,346,103056,6,0,B|211:358|211:358|292:333,1,132.00000402832
314,326,103313,1,0,0:0:0:0:
339,317,103399,1,0,0:0:0:0:
207,268,103570,1,0,0:0:0:0:
440,353,103742,5,0,0:0:0:0:
445,305,103827,1,0,0:0:0:0:
426,257,103913,1,0,0:0:0:0:
392,224,103999,1,0,0:0:0:0:
347,210,104084,2,0,P|302:213|274:228,1,66.0000020141602
72,206,104256,2,0,P|116:209|144:224,1,66.0000020141602
209,350,104427,6,0,B|215:311|215:311|207:268,1,83.9999974365235
2,250,104599,2,0,B|-8:207|-8:207|0:167,1,83.9999974365235
166,54,104770,1,0,0:0:0:0:
11,86,104942,6,0,P|40:65|83:55,1,72
251,76,105284,2,0,P|281:93|305:121,1,72
166,54,105627,2,0,L|157:148,1,71.9999978027344
106,313,105799,6,0,B|146:325|146:325|217:318,1,83.9999974365235
392,210,105970,2,0,B|352:198|352:198|281:205,1,83.9999974365235
152,226,106142,1,0,0:0:0:0:
342,355,106313,6,0,P|350:315|342:280,1,72
152,226,106656,2,0,P|146:190|154:155,1,72
314,70,106999,2,0,L|218:77,1,77.9999964294435
49,54,107170,6,0,B|44:99|44:99|63:159,1,83.9999974365235
272,237,107342,2,0,B|277:192|277:192|258:132,1,83.9999974365235
102,308,107513,1,0,0:0:0:0:
311,337,107684,6,0,B|251:372|185:342|185:342|208:313|245:327,1,180
68,212,108027,2,0,B|127:176|193:206|193:206|170:235|133:221,1,180
272,237,108370,2,0,L|340:223,1,60
470,205,108542,5,0,0:0:0:0:
470,205,108627,1,0,0:0:0:0:
470,205,108713,1,0,0:0:0:0:
383,139,108884,5,0,0:0:0:0:
409,283,109056,1,0,0:0:0:0:
298,93,109227,1,0,0:0:0:0:
272,237,109399,1,0,0:0:0:0:
374,48,109570,5,0,0:0:0:0:
326,303,109742,1,0,0:0:0:0:
205,152,109913,6,0,B|161:140|161:140|110:144,1,83.9999974365235
3,324,110084,2,0,B|47:336|47:336|98:332,1,83.9999974365235
238,317,110256,1,0,0:0:0:0:
24,116,110427,6,0,P|21:151|32:186,1,72
286,153,110770,2,0,P|285:141|283:130,1,24,0|0,0:3|0:3,0:3:0:0:
179,69,110942,1,0,0:0:0:0:
179,69,111027,1,0,0:0:0:0:
202,38,111113,1,0,0:0:0:0:
238,23,111199,1,0,0:0:0:0:
278,14,111284,6,0,B|324:18|324:18|364:46,1,83.9999974365235
299,248,111456,2,0,B|253:244|253:244|222:222,1,83.9999974365235
422,171,111627,1,0,0:0:0:0:
151,264,111799,6,0,P|140:230|146:195,1,72
280,106,112142,2,0,L|283:130,1,24
294,244,112313,1,0,0:0:0:0:
294,244,112399,1,0,0:0:0:0:
298,282,112484,1,0,0:0:0:0:
303,320,112570,1,0,0:0:0:0:
307,354,112656,6,0,B|266:363|266:363|207:354,1,83.9999974365235
63,197,112827,2,0,B|104:188|104:188|145:194,1,83.9999974365235
294,244,112999,1,0,0:0:0:0:
105,384,113170,6,0,B|74:318|106:264|106:264|135:292|125:339,1,180
218,151,113513,2,0,P|217:181|226:210,1,60
303,320,113684,1,0,0:0:0:0:
303,320,113770,1,0,0:0:0:0:
340,310,113856,1,0,0:0:0:0:
365,280,113942,1,0,0:0:0:0:
374,241,114027,6,0,B|376:189|376:189|356:106,1,132.00000402832
357,111,114284,1,0,0:0:0:0:
357,111,114370,1,0,0:0:0:0:
478,229,114542,1,0,0:0:0:0:
370,25,114713,6,0,P|335:27|305:45,1,71.9999978027344
120,28,114884,2,0,P|155:29|185:48,1,71.9999978027344
364,165,115056,6,0,P|368:141|364:118,1,48
122,105,115227,2,0,P|115:134|119:165,1,48
218,260,115399,6,0,B|222:304|222:304|209:348,1,83.9999974365235
0,335,115570,2,0,B|-4:291|-4:291|8:246,1,83.9999974365235
115,151,115742,1,0,0:0:0:0:
140,382,115913,6,0,P|104:385|70:376,1,72
216,236,116256,2,0,L|218:260,1,24
290,377,116427,1,0,0:0:0:0:
290,377,116513,1,0,0:0:0:0:
329,377,116599,1,0,0:0:0:0:
364,360,116684,1,0,0:0:0:0:
389,326,116770,6,0,B|400:283|400:283|394:216,1,83.9999974365235
211,165,116942,2,0,B|207:124|207:124|218:82,1,83.9999974365235
379,0,117113,1,0,0:0:0:0:
251,238,117284,6,0,P|215:249|177:243,1,72
38,123,117627,2,0,L|40:147,1,24
52,264,117799,1,0,0:0:0:0:
52,264,117884,1,0,0:0:0:0:
56,302,117970,1,0,0:0:0:0:
61,340,118056,1,0,0:0:0:0:
66,381,118142,6,0,B|109:387|109:387|172:371,1,83.9999974365235
292,153,118313,2,0,B|249:147|249:147|186:163,1,83.9999974365235
52,264,118484,1,0,0:0:0:0:
348,223,118656,6,0,B|382:197|384:146|384:146|411:189|471:191,1,180
285,94,118999,2,0,P|283:124|292:153,1,60
420,261,119170,1,0,0:0:0:0:
420,261,119256,1,0,0:0:0:0:
434,297,119342,1,0,0:0:0:0:
438,335,119427,1,0,0:0:0:0:
431,373,119513,6,0,B|382:379|382:379|290:355,1,132.00000402832
302,358,119770,1,0,0:0:0:0:
302,358,119856,1,0,0:0:0:0:
420,261,120027,1,0,0:0:0:0:
222,210,120199,5,0,0:0:0:0:
169,200,120284,1,0,0:0:0:0:
119,218,120370,1,0,0:0:0:0:
86,259,120456,1,0,0:0:0:0:
80,311,120542,2,0,P|82:343|114:380,1,66.0000020141602
312,212,120713,2,0,P|309:179|277:142,1,66.0000020141602
193,14,120884,6,0,B|147:4|147:4|81:21,1,96
291,152,121056,2,0,B|341:160|341:160|403:145,1,96
484,32,121227,1,0,0:0:0:0:
420,261,121399,6,0,B|410:310|430:357|464:372|464:372|480:336|463:315,1,180
465,114,121742,2,0,P|470:143|464:173,1,60
344,299,121913,1,0,0:0:0:0:
344,299,121999,1,0,0:0:0:0:
305,305,122084,1,0,0:0:0:0:
267,295,122170,1,0,0:0:0:0:
237,269,122256,6,0,B|229:223|229:223|245:151,1,83.9999974365235
390,20,122427,2,0,B|398:66|398:66|382:138,1,83.9999974365235
344,299,122599,1,0,0:0:0:0:
289,96,122770,6,0,P|255:84|219:83,1,72
70,21,123113,2,0,L|73:45,1,24
84,157,123284,1,0,0:0:0:0:
84,157,123370,1,0,0:0:0:0:
88,195,123456,1,0,0:0:0:0:
92,233,123542,1,0,0:0:0:0:
96,270,123627,6,0,B|101:316|101:316|131:364,1,83.9999974365235
274,197,123799,2,0,B|269:151|269:151|239:103,1,83.9999974365235
73,45,123970,1,0,0:0:0:0:
259,280,124142,6,0,B|307:291|343:253|343:253|326:298|346:343,1,180
492,379,124484,2,0,P|496:349|490:320,1,60
434,208,124656,1,0,0:0:0:0:
434,208,124742,1,0,0:0:0:0:
425,170,124827,1,0,0:0:0:0:
430,130,124913,1,0,0:0:0:0:
449,94,124999,6,0,B|396:76|396:76|301:86,1,132.00000402832
293,87,125256,1,0,0:0:0:0:
266,91,125342,1,0,0:0:0:0:
397,0,125513,1,0,0:0:0:0:
177,75,125684,6,0,P|176:105|185:134,1,60
357,217,125856,2,0,P|358:187|349:158,1,60
181,232,126027,2,0,B|227:238|262:202,1,71.9999978027344
360,68,126199,2,0,B|314:62|279:98,1,71.9999978027344
100,199,126370,6,0,B|94:242|94:242|108:289,1,83.9999974365235
362,298,126542,2,0,B|368:255|368:255|354:208,1,83.9999974365235
177,75,126713,1,0,0:0:0:0:
321,371,126884,6,0,P|293:346|281:303,1,72
176,313,127227,2,0,P|163:346|137:370,1,72
237,220,127570,1,0,0:0:0:0:
240,180,127656,1,0,0:0:0:0:
246,141,127742,6,0,B|250:97|250:97|239:43,1,77.9999964294435
62,50,127913,2,0,B|58:94|58:94|64:127,1,77.9999964294435
107,307,128084,1,0,0:0:0:0:
350,308,128256,6,0,P|342:344|311:376,1,72
136,369,128599,2,0,P|113:342|107:307,1,72
237,223,128942,1,0,0:0:0:0:
242,182,129028,1,0,0:0:0:0:
246,141,129108,6,0,B|255:98|255:98|272:68,1,77.9999964294435
454,53,129263,2,0,B|462:95|462:95|458:135,1,83.9999974365235
417,301,129456,1,0,0:0:0:0:
38,301,129627,6,0,P|73:295|106:306,1,72
417,301,129970,2,0,P|382:295|348:307,1,72
228,384,130313,1,0,0:0:0:0:
228,384,130399,1,0,0:0:0:0:
228,384,130484,5,0,0:0:0:0:
200,298,130656,1,0,0:0:0:0:
235,218,130827,1,0,0:0:0:0:
270,138,130999,1,0,0:0:0:0:
242,52,131171,1,0,0:0:0:0:
95,134,131342,5,0,0:0:0:0:
338,72,131513,1,0,0:0:0:0:
235,218,131684,1,0,0:0:0:0:
416,114,131856,5,0,0:0:0:0:
427,63,131941,1,0,0:0:0:0:
408,14,132027,1,0,0:0:0:0:
333,185,132199,2,0,P|321:252|345:322,1,132.00000402832
338,312,132456,1,0,0:0:0:0:
338,312,132542,1,0,0:0:0:0:
447,243,132713,1,0,0:0:0:0:
269,126,132884,2,0,P|293:107|329:98,2,66.0000020141602
256,303,133227,5,0,0:0:0:0:
236,213,133399,1,0,0:0:0:0:
118,292,133570,1,0,0:0:0:0:
137,288,133656,1,0,0:0:0:0:
156,284,133742,1,0,0:0:0:0:
269,126,133913,5,0,0:0:0:0:
289,36,134085,1,0,0:0:0:0:
151,47,134256,1,0,0:0:0:0:
170,51,134342,1,0,0:0:0:0:
189,55,134428,1,0,0:0:0:0:
60,91,134599,6,0,B|0:113|-21:188|28:232|28:232|61:245|101:212|88:168,1,270.000010299683
90,181,134942,1,0,0:0:0:0:
195,338,135113,6,0,P|228:309|244:267,1,71.9999978027344
369,228,135284,2,0,P|327:212|283:221,1,71.9999978027344
186,130,135456,2,0,P|193:173|222:207,1,71.9999978027344
317,337,135627,1,0,0:0:0:0:
155,263,135799,1,0,0:0:0:0:
336,130,135970,6,0,B|329:19|329:19|304:71,1,155.999992858887
186,130,136227,1,0,0:0:0:0:
186,130,136313,2,0,B|193:19|193:19|218:71,1,155.999992858887
441,237,136656,6,0,B|410:221|410:181|410:181|382:222|322:222,1,155.999992858887
192,230,136913,1,0,0:0:0:0:
192,230,136999,2,0,P|141:223|104:190,1,77.9999964294435
268,286,137170,2,0,P|286:337|277:382,1,77.9999964294435,0|0,1:0|1:0,1:0:0:0:
37,249,137342,5,0,0:0:0:0:
30,196,137427,1,0,0:0:0:0:
53,147,137513,1,0,0:0:0:0:
223,42,137684,6,0,P|154:26|84:44,1,132.00000402832
95,38,137942,1,0,0:0:0:0:
95,38,138027,1,0,0:0:0:0:
157,143,138199,1,0,0:0:0:0:
309,10,138370,2,0,P|316:44|308:75,2,66.0000020141602
414,133,138713,6,0,B|431:191|431:191|415:301,1,155.999992858887
318,375,138970,1,0,0:0:0:0:
318,375,139056,2,0,B|301:317|301:317|317:207,1,155.999992858887
98,133,139399,2,0,B|81:191|81:191|97:301,1,155.999992858887
194,375,139656,1,0,0:0:0:0:
194,375,139742,2,0,B|211:317|211:317|195:207,1,155.999992858887
292,66,140084,6,0,B|313:25|266:-6|266:-6|224:28|249:76|249:76|278:134|242:200,1,270.000010299683
256,165,140427,1,0,0:0:0:0:
123,292,140599,6,0,P|127:256|139:222,1,71.9999978027344
259,367,140770,2,0,L|259:295,1,71.9999978027344
390,292,140942,2,0,P|385:256|373:222,1,71.9999978027344
261,169,141113,1,0,0:0:0:0:
423,95,141284,1,0,0:0:0:0:
195,53,141456,6,0,B|163:35|114:53|114:53|71:70|25:44,1,155.999992858887
168,131,141713,1,0,0:0:0:0:
168,131,141799,2,0,P|179:205|156:297,1,155.999992858887
383,188,142142,6,0,B|425:174|480:184|491:226|491:226|467:237|443:225,1,167.999994873047
297,233,142399,1,0,0:0:0:0:
297,233,142484,2,0,P|282:192|295:140,1,83.9999974365235
414,15,142656,2,0,P|429:56|416:108,1,83.9999974365235
357,301,142827,5,0,0:0:0:0:
307,319,142913,1,0,0:0:0:0:
254,309,142999,1,0,0:0:0:0:
67,243,143170,6,0,P|54:295|79:383,1,132.00000402832
71,370,143427,1,0,0:0:0:0:
71,370,143513,1,0,0:0:0:0:
172,302,143684,1,0,0:0:0:0:
68,138,143856,2,0,P|35:141|5:156,2,66.0000020141602
152,5,144199,5,0,0:0:0:0:
254,49,144370,1,0,0:0:0:0:
160,117,144542,1,0,0:0:0:0:
157,136,144627,1,0,0:0:0:0:
157,155,144713,1,0,0:0:0:0:
356,5,144884,5,0,0:0:0:0:
254,49,145055,1,0,0:0:0:0:
348,117,145227,1,0,0:0:0:0:
351,136,145312,1,0,0:0:0:0:
351,155,145398,1,0,0:0:0:0:
139,265,145570,6,0,B|211:274|254:210|254:210|296:279|386:265,1,270.000010299683
368,266,145913,1,0,0:0:0:0:
253,384,146084,6,0,L|254:302,1,71.9999978027344
351,155,146256,2,0,P|354:118|341:72,1,71.9999978027344
161,84,146427,2,0,P|153:119|156:154,1,71.9999978027344
253,312,146599,1,0,0:0:0:0:
255,124,146770,1,0,0:0:0:0:
67,227,146942,6,0,B|141:253|141:253|236:237,1,155.999992858887
445,227,147199,1,0,0:0:0:0:
445,227,147284,2,0,B|370:253|370:253|276:237,1,155.999992858887
233,56,147627,6,0,B|228:36|250:18|250:18|280:53|271:96|248:135,1,155.999992858887
148,171,147884,1,0,0:0:0:0:
148,171,147970,2,0,P|141:123|151:86,1,77.9999964294435
364,94,148142,2,0,P|371:132|364:171,1,77.9999964294435
253,364,148313,5,0,0:0:0:0:
253,312,148398,1,0,0:0:0:0:
253,260,148484,1,0,0:0:0:0:
28,313,148656,6,0,P|87:330|161:311,1,132.00000402832
154,314,148913,1,0,0:0:0:0:
154,314,148999,1,0,0:0:0:0:
93,189,149170,1,0,0:0:0:0:
301,190,149342,2,0,P|325:219|332:266,2,66.0000020141602
191,108,149684,6,0,B|185:-8|185:-8|219:39,1,155.999992858887
408,112,149942,1,0,0:0:0:0:
408,112,150027,2,0,B|414:-4|414:-4|380:43,1,155.999992858887
195,253,150370,2,0,B|189:369|189:369|223:322,1,155.999992858887
412,249,150628,1,0,0:0:0:0:
412,249,150713,2,0,B|418:365|418:365|384:318,1,155.999992858887
301,190,151056,5,0,0:0:0:0:
133,145,151227,2,0,B|9:112|9:112|91:105,1,180.000006866455
301,190,151570,1,0,0:0:0:0:
134,242,151742,2,0,B|10:274|10:274|92:281,1,180.000006866455
301,190,152084,1,0,0:0:0:0:
445,61,152256,2,0,B|374:54|374:54|340:32|340:32|273:27,1,180.000006866455
301,190,152599,1,0,0:0:0:0:
445,322,152770,2,0,B|374:329|374:329|340:351|340:351|273:357,1,180.000006866455
445,61,153113,6,0,L|441:126,1,66.0000020141602
445,322,153284,2,0,L|441:256,1,66.0000020141602
273,27,153456,2,0,L|207:23,1,66.0000020141602
273,357,153627,2,0,L|207:360,1,66.0000020141602
13,190,153799,6,0,B|56:254|179:263|231:215|195:92|97:101|54:147|61:232|153:243|153:243|206:215|264:243|264:243|224:191|234:149|271:108|271:108|328:134|312:182,1,768
313,176,155513,1,0,0:0:0:0:
434,9,156542,6,0,B|405:51|433:98|433:98|393:116|393:116|456:111|494:162|494:162|452:209|382:188|382:188|464:209|467:288|467:288|417:328|363:278|363:278|319:237|262:282|293:325|370:300,1,768
293,91,159284,6,0,B|244:59|191:89|191:89|171:66|163:29|163:29|166:74|135:132|135:132|120:79|66:51|6:73|6:73|-2:134|28:184|85:197|85:197|47:229|63:280|63:280|108:263|108:218,1,768
107,230,161342,6,0,B|156:256|200:226|200:226|235:253|235:253|254:227|254:195|254:195|329:238|406:181,1,336
312,128,162027,6,0,B|279:50|290:1|338:-25|422:-9|401:97|348:101|284:74|284:74|239:53|188:84|188:84|171:55|171:55|128:90|72:68|72:68|75:132|28:163|28:163|90:126|170:171,1,768
129,153,163742,1,0,0:0:0:0:
28,163,164084,1,0,0:0:0:0:
72,68,164427,1,0,0:0:0:0:
108,267,164770,6,0,B|153:297|210:266|210:266|237:299|231:345|231:345|273:303|255:233|255:233|354:305|427:253|427:253|423:177|346:149|346:149|301:235|364:302,1,768
342,273,166484,1,0,0:0:0:0:
240,119,166827,2,0,B|187:94|126:118|126:118|56:150|12:108|12:108|52:62|111:93,1,336
178,188,167513,6,0,B|263:368|171:390|91:362|92:279|154:249|204:271|204:271|276:312|340:276|340:276|286:237|286:177|329:124|329:124|392:149|372:210,1,768
374,199,170256,6,0,B|322:167|267:202|267:202|237:153|237:153|236:212|211:252|211:252|180:235|164:197|164:197|87:231|-14:254|-6:150|8:118|83:93|131:147|91:223|91:223|71:255|89:307,1,768
83,289,172313,6,0,B|133:329|196:288|196:288|217:340|217:340|301:288|391:356,1,336
299,237,172999,6,0,B|273:175|337:76|337:76|412:122|376:200|376:200|337:145|258:143|258:143|174:141|144:67|144:67|221:56|257:27|257:27|232:61|222:104,1,768
233,67,174713,1,0,0:0:0:0:
299,237,175056,1,0,0:0:0:0:
337,76,175399,1,0,0:0:0:0:
100,335,175742,5,0,0:0:0:0:
142,357,175827,1,0,0:0:0:0:
190,361,175913,1,0,0:0:0:0:
238,354,175999,1,0,0:0:0:0:
282,334,176084,2,0,P|310:316|330:278,1,53.9999983520508
64,257,176256,2,0,P|36:275|16:313,1,53.9999983520508
188,233,176427,5,0,0:0:0:0:
190,206,176513,1,0,0:0:0:0:
193,179,176599,2,0,L|199:121,1,53.9999983520508
47,89,176770,2,0,L|52:142,1,53.9999983520508
64,257,176942,1,0,0:0:0:0:
179,39,177113,6,0,P|213:37|252:55,1,60
378,11,177284,2,0,P|362:41|327:66,1,60
300,193,177456,2,0,P|281:164|277:121,2,60
464,122,177799,6,0,L|397:131,1,60
319,285,177970,2,0,L|259:277,1,60
413,270,178142,2,0,P|413:299|404:328,1,60
163,291,178313,2,0,P|163:261|172:233,1,60
232,43,178484,5,0,0:0:0:0:
276,60,178569,1,0,0:0:0:0:
306,98,178655,1,0,0:0:0:0:
312,146,178741,1,0,0:0:0:0:
300,193,178827,1,0,0:0:0:0:
464,122,178999,1,0,0:0:0:0:
368,13,179170,6,0,L|445:19,1,66.0000020141602
446,216,179342,2,0,L|380:221,1,66.0000020141602
206,179,179513,2,0,P|207:217|229:260,1,66.0000020141602
312,146,179684,2,0,P|312:113|301:82,1,66.0000020141602
131,20,179856,2,0,L|54:26,1,66.0000020141602
53,223,180028,2,0,L|119:228,1,66.0000020141602
0,121,180199,1,0,0:0:0:0:
167,313,180370,5,0,0:0:0:0:
219,318,180456,1,0,0:0:0:0:
267,296,180542,1,0,0:0:0:0:
307,263,180627,1,0,0:0:0:0:
320,211,180713,1,0,0:0:0:0:
320,211,180799,2,0,L|312:146,1,66.0000020141602
504,218,180970,1,0,0:0:0:0:
504,218,181056,2,0,L|512:153,1,66.0000020141602
252,56,181227,5,0,0:0:0:0:
301,35,181313,1,0,0:0:0:0:
353,47,181399,1,0,0:0:0:0:
164,97,181570,6,0,P|153:57|162:18,1,66.0000020141602
435,4,181742,2,0,P|446:44|437:83,1,66.0000020141602
319,211,181913,1,0,0:0:0:0:
308,262,181999,1,0,0:0:0:0:
312,314,182084,1,0,0:0:0:0:
341,357,182170,1,0,0:0:0:0:
391,374,182256,2,0,P|429:373|471:356,1,66.0000020141602
339,126,182427,2,0,P|301:126|259:144,1,66.0000020141602
138,288,182599,5,0,0:0:0:0:
127,237,182685,1,0,0:0:0:0:
131,185,182770,1,0,0:0:0:0:
160,142,182856,1,0,0:0:0:0:
210,125,182942,2,0,P|248:126|290:143,1,66.0000020141602
158,373,183113,6,0,P|120:373|78:355,1,66.0000020141602
0,267,183284,1,0,0:0:0:0:
305,373,183456,2,0,P|343:373|385:355,1,66.0000020141602
463,266,183627,1,0,0:0:0:0:
233,315,183799,5,0,0:0:0:0:
233,315,183884,1,0,0:0:0:0:
233,315,183970,2,0,B|219:255|219:255|239:159,1,143.999995605469
37,65,184313,2,0,P|83:95|69:33,1,143.999995605469
114,252,184656,6,0,L|108:331,2,71.9999978027344
117,216,184913,1,0,0:0:0:0:
120,180,184999,1,0,0:0:0:0:
233,315,185170,1,0,0:0:0:0:
359,256,185342,6,0,L|365:335,2,71.9999978027344
356,220,185599,1,0,0:0:0:0:
353,184,185685,1,0,0:0:0:0:
233,315,185856,1,0,0:0:0:0:
120,180,186027,6,0,P|113:144|117:109,1,71.9999978027344
355,113,186199,2,0,P|359:150|346:198,1,71.9999978027344
233,315,186370,1,0,0:0:0:0:
254,66,186542,1,0,0:0:0:0:
254,66,186627,1,0,0:0:0:0:
254,66,186713,5,0,0:0:0:0:
293,24,186799,1,0,0:0:0:0:
346,4,186884,1,0,0:0:0:0:
401,19,186970,1,0,0:0:0:0:
443,57,187056,1,0,0:0:0:0:
352,183,187227,1,0,0:0:0:0:
77,110,187399,5,0,0:0:0:0:
91,150,187485,1,0,0:0:0:0:
120,180,187570,1,0,0:0:0:0:
162,186,187656,1,0,0:0:0:0:
205,183,187742,2,0,P|240:175|267:151,1,71.9999978027344
70,24,187913,2,0,P|35:32|8:56,1,71.9999978027344
40,246,188084,5,0,0:0:0:0:
43,274,188170,1,0,0:0:0:0:
44,302,188256,1,0,0:0:0:0:
47,330,188342,1,0,0:0:0:0:
49,358,188427,2,0,P|86:359|127:343,1,71.9999978027344
205,183,188599,2,0,P|242:182|283:198,1,71.9999978027344
378,358,188770,5,0,0:0:0:0:
340,378,188856,1,0,0:0:0:0:
297,384,188942,1,0,0:0:0:0:
254,379,189027,1,0,0:0:0:0:
218,353,189113,2,0,L|223:269,1,71.9999978027344
235,93,189284,1,0,0:0:0:0:
441,171,189456,5,0,0:3:0:0:
409,213,189542,1,0,0:3:0:0:
364,230,189627,1,0,0:3:0:0:
313,226,189713,1,0,0:3:0:0:
274,193,189799,1,0,0:3:0:0:
378,358,189970,1,0,0:0:0:0:
341,60,190142,6,0,L|350:132,1,71.9999978027344
125,55,190313,2,0,L|116:126,1,71.9999978027344
280,264,190484,2,0,L|274:193,1,71.9999978027344
178,261,190655,2,0,L|186:190,1,71.9999978027344
234,16,190827,5,0,0:0:0:0:
104,202,190999,1,0,0:0:0:0:
298,352,191170,2,0,B|228:368|228:368|154:349,1,143.999995605469
158,350,191427,1,0,0:0:0:0:
158,350,191513,1,0,0:0:0:0:
380,270,191684,5,0,0:0:0:0:
380,270,191770,2,0,P|380:224|371:201,1,71.9999978027344
94,271,191942,1,0,0:0:0:0:
94,271,192028,2,0,P|94:225|103:202,1,71.9999978027344
247,22,192199,6,0,B|278:62|274:120|240:176|240:176|198:140|224:80,1,251.999992309571
342,34,192542,2,0,B|401:17|401:17|510:49,1,167.999994873047
503,47,192799,1,0,0:0:0:0:
503,47,192884,1,0,0:0:0:0:
394,148,193056,1,0,0:0:0:0:
506,262,193227,2,0,P|462:239|440:206,1,83.9999974365235
323,195,193399,2,0,P|292:213|240:216,1,83.9999974365235
354,384,193570,6,0,B|389:344|396:296|378:243|378:243|336:274|340:348,1,251.999992309571
228,357,193913,2,0,P|154:380|58:344,1,167.999994873047
70,353,194170,1,0,0:0:0:0:
70,353,194256,1,0,0:0:0:0:
152,247,194427,1,0,0:0:0:0:
46,151,194599,6,0,P|25:191|33:236,1,83.9999974365235
270,196,194770,2,0,P|262:157|234:123,1,83.9999974365235
136,38,194942,5,0,0:0:0:0:
152,247,195113,1,0,0:0:0:0:
274,0,195284,1,0,0:0:0:0:
270,196,195455,1,0,0:0:0:0:
391,0,195627,2,0,L|390:83,1,60
387,196,195798,1,0,0:0:0:0:
512,34,195970,1,0,0:0:0:0:
491,302,196142,2,0,L|496:243,1,60
307,112,196313,5,0,0:0:0:0:
276,149,196399,1,0,0:0:0:0:
270,196,196484,1,0,0:0:0:0:
281,242,196570,1,0,0:0:0:0:
310,279,196656,5,0,0:0:0:0:
241,257,196742,1,0,0:0:0:0:
169,262,196827,1,0,0:0:0:0:
120,315,196913,1,0,0:0:0:0:
23,377,196999,6,0,L|39:304,1,60
33,379,197170,2,0,L|36:313,1,66.0000020141602
45,379,197342,2,0,L|35:305,1,66.0000020141602,0|0,0:3|0:3,0:3:0:0:
35,110,197513,2,0,L|35:76,2,30
1,215,197684,6,0,B|63:231|117:190|117:190|138:233|197:272|256:256|256:256|305:224|310:152|309:100|261:56|170:66|147:133|144:212|247:194|293:180|293:180,1,647.99998022461
379,240,198284,1,0,0:0:0:0:
379,240,198370,2,0,P|391:203|392:165,1,77.9999964294435
203,22,198542,2,0,P|166:36|137:61,1,77.9999964294435
90,288,198713,2,0,P|120:312|157:326,1,77.9999964294435
379,240,198884,2,0,P|391:203|392:165,1,77.9999964294435
66,186,199056,6,0,B|94:177|127:187|127:187|164:159|164:159|179:218|179:218|218:187|218:187|260:206|310:180,1,288
315,53,199399,2,0,P|307:24|279:92,1,192
456,102,199656,1,0,0:0:0:0:
456,102,199742,2,0,P|466:52|456:8,1,77.9999964294435
285,190,199913,2,0,P|275:240|285:284,1,77.9999964294435
483,369,200084,2,0,B|436:394|361:391|306:366|306:366|351:352|378:303,1,251.999992309571
498,253,200427,6,0,B|452:227|452:227|404:239|404:239|337:233,1,143.999995605469
61,246,200770,2,0,B|107:220|107:220|156:232|156:232|222:226,1,143.999995605469
278,266,201027,5,0,0:0:0:0:
278,266,201113,2,0,B|283:215|283:215|269:172,2,95.9999970703126
181,127,201456,5,0,0:0:0:0:
260,83,201570,1,0,0:0:0:0:
345,123,201684,1,0,0:0:0:0:
186,42,201799,6,0,B|134:37|134:37|29:77,1,132.00000402832
59,66,202056,1,0,0:0:0:0:
59,66,202142,1,0,0:0:0:0:
269,172,202313,1,0,0:0:0:0:
55,223,202484,2,0,P|93:202|147:194,1,66.0000020141602
269,172,202656,1,0,0:0:0:0:
199,317,202827,6,0,P|207:351|226:382,1,72
227,383,203170,6,0,B|242:315|187:254|187:254|262:309|331:273|331:273|385:200|330:98|330:98|324:146|269:172|269:172|282:238|219:271,1,647.99998022461
112,345,203770,1,0,0:0:0:0:
112,345,203856,2,0,B|57:358|57:358|-2:344,1,107.999996704102
9,111,204199,2,0,B|59:99|59:99|114:112,1,107.999996704102
187,254,204542,5,0,0:0:0:0:
221,278,204627,1,0,0:0:0:0:
263,285,204713,1,0,0:0:0:0:
306,282,204799,1,0,0:0:0:0:
343,261,204884,2,0,B|381:220|353:172|353:172|301:190|307:241,1,180.000006866455
470,332,205142,5,0,0:0:0:0:
470,332,205227,2,0,B|466:289|466:289|452:259|452:259|459:227|459:227|455:180,1,144
491,85,205570,2,0,B|446:77|446:77|386:92,1,83.9999974365235
118,88,205742,2,0,B|163:80|163:80|223:95,1,83.9999974365235
306,282,205913,6,0,L|306:202,1,71.9999978027344
305,57,206084,1,0,0:0:0:0:
36,193,206256,5,0,0:0:0:0:
78,165,206342,1,0,0:0:0:0:
117,195,206427,1,0,0:0:0:0:
159,168,206513,1,0,0:0:0:0:
200,197,206599,6,0,B|206:318|206:318|170:259,1,180.000006866455
118,88,206856,1,0,0:0:0:0:
118,88,206942,2,0,B|113:-12|113:-12|144:29,1,143.999995605469
254,96,207284,6,0,P|292:89|354:109,1,83.9999974365235
501,176,207456,1,0,0:0:0:0:
254,256,207627,2,0,P|292:262|354:242,1,83.9999974365235
501,176,207799,1,0,0:0:0:0:
137,176,207970,2,0,L|240:176,1,83.9999974365235
501,176,208142,1,0,0:0:0:0:
55,132,208313,6,0,P|44:187|57:227,1,83.9999974365235
307,222,208484,1,0,0:0:0:0:
314,172,208570,1,0,0:0:0:0:
302,118,208656,6,0,B|293:32|189:2|189:2|157:33|125:60|117:129|158:175|247:167|234:135|257:88|186:74|137:67|137:67|102:78|69:59|69:59|34:92|62:148,1,647.99998022461
100,275,209256,1,0,0:0:0:0:
100,275,209342,2,0,P|114:319|146:356,1,77.9999964294435
389,347,209513,2,0,P|411:315|421:277,1,77.9999964294435
302,118,209684,2,0,P|264:109|225:113,1,77.9999964294435,0|0,0:3|0:0,0:0:0:0:
100,275,209856,2,0,P|114:319|146:356,1,77.9999964294435
376,193,210027,6,0,B|426:132|391:56|391:56|440:125|536:118,1,288
275,46,210370,2,0,P|223:105|301:118,1,192
131,29,210627,1,0,0:0:0:0:
131,29,210713,2,0,P|120:80|125:122,1,77.9999964294435
366,269,210884,2,0,P|377:218|372:176,1,77.9999964294435
100,275,211056,2,0,B|99:326|146:335|146:335|205:296|177:217|125:200,1,251.999992309571
0,158,211399,6,0,B|-9:208|-9:208|11:251|11:251|-3:334,1,143.999995605469
283,158,211742,2,0,B|292:208|292:208|271:251|271:251|286:334,1,143.999995605469
142,101,211999,5,0,0:0:0:0:
142,101,212084,2,0,B|142:58|142:58|132:37|132:37|133:-15,2,95.9999970703126
71,201,212427,5,0,0:0:0:0:
213,201,212541,1,0,0:0:0:0:
142,270,212656,1,0,0:0:0:0:
229,81,212770,6,0,B|284:66|284:66|390:95,1,132.00000402832
356,85,213027,1,0,0:0:0:0:
356,85,213113,1,0,0:0:0:0:
213,201,213284,1,0,0:0:0:0:
457,233,213456,2,0,P|426:217|363:211,1,66.0000020141602
213,201,213627,1,0,0:0:0:0:
397,312,213799,6,0,P|406:353|396:392,1,72
400,381,214142,6,0,B|330:399|234:386|119:300|226:188|366:194|380:321|309:362|281:386|206:396|176:362|176:362|156:316|164:280|164:280|153:315|101:352,1,647.99998022461
11,384,214742,5,0,0:0:0:0:
11,384,214827,2,0,B|1:325|1:325|14:251,1,107.999996704102
212,200,215170,2,0,B|215:161|215:161|209:129,1,71.9999978027344
30,76,215427,5,0,0:0:0:0:
30,76,215513,2,0,P|70:70|131:91,1,77.9999964294435
174,284,215684,2,0,P|213:291|251:283,1,77.9999964294435
357,106,215856,2,0,B|384:73|347:21|347:21|289:59|321:113,1,180.000006866455
431,195,216113,5,0,0:0:0:0:
431,195,216199,2,0,B|385:190|385:190|351:209|351:209|287:204,1,144
507,242,216542,6,0,B|517:201|517:201|508:141,1,83.9999974365235
218,159,216713,2,0,B|210:198|210:198|217:260,1,83.9999974365235
371,384,216884,6,0,L|366:299,1,71.9999978027344
357,106,217056,1,0,0:0:0:0:
275,321,217227,5,0,0:0:0:0:
228,289,217313,1,0,0:0:0:0:
183,323,217399,1,0,0:0:0:0:
141,288,217484,1,0,0:0:0:0:
92,323,217570,6,0,B|10:282|10:282|99:229,1,180.000006866455
347,241,217827,1,0,0:0:0:0:
347,241,217913,2,0,B|412:281|412:281|328:333,1,143.999995605469
51,88,218256,6,0,P|43:129|53:169,1,83.9999974365235
228,289,218427,1,0,0:0:0:0:
397,84,218599,2,0,P|407:127|384:192,1,83.9999974365235
228,289,218770,1,0,0:0:0:0:
133,78,218942,6,0,P|113:32|70:5,1,83.9999974365235
358,8,219113,2,0,P|326:35|312:74,1,83.9999974365235
228,373,219284,6,0,L|228:274,1,83.9999974365235
227,5,219456,2,0,L|227:89,1,83.9999974365235
159,178,219627,6,0,B|227:197|227:197|309:172,1,143.999995605469
324,167,219884,1,0,0:0:0:0:
351,159,219970,1,0,0:0:0:0:
460,300,220142,2,0,P|422:293|387:298,1,71.9999978027344
228,373,220313,5,0,0:0:0:0:
185,382,220399,1,0,0:0:0:0:
143,372,220484,1,0,0:0:0:0:
107,347,220570,1,0,0:0:0:0:
90,306,220656,2,0,P|82:253|95:214,1,71.9999978027344
135,90,220827,1,0,0:0:0:0:
353,19,220999,6,0,B|369:72|369:72|349:167,1,143.999995605469
345,187,221256,1,0,0:0:0:0:
340,215,221342,1,0,0:0:0:0:
483,105,221513,1,0,0:0:0:0:
287,77,221684,6,0,P|244:69|201:81,1,71.9999978027344
303,298,221856,2,0,P|346:306|389:294,1,71.9999978027344
483,105,222027,1,0,0:0:0:0:
340,215,222199,1,0,0:0:0:0:
135,90,222370,6,0,B|122:140|122:140|139:237,1,143.999995605469
144,259,222627,1,0,0:0:0:0:
150,287,222713,1,0,0:0:0:0:
17,137,222884,1,0,0:0:0:0:
95,371,223056,5,0,0:0:0:0:
137,381,223142,1,0,0:0:0:0:
179,378,223227,1,0,0:0:0:0:
217,357,223313,1,0,0:0:0:0:
239,320,223399,2,0,P|246:280|239:244,1,71.9999978027344
24,251,223570,2,0,P|17:291|24:327,1,71.9999978027344
135,90,223742,5,0,0:0:0:0:
135,61,223827,1,0,0:0:0:0:
134,33,223913,1,0,0:0:0:0:
75,174,224084,2,0,B|136:189|136:189|257:154,1,143.999995605469
376,32,224427,5,0,0:0:0:0:
377,61,224513,1,0,0:0:0:0:
378,89,224599,2,0,L|381:174,1,71.9999978027344
272,251,224770,2,0,P|280:216|299:185,1,71.9999978027344
467,185,224942,2,0,P|485:215|494:250,1,71.9999978027344
385,366,225113,6,0,B|326:380|326:380|229:364,1,143.999995605469
215,360,225370,1,0,0:0:0:0:
186,355,225456,1,0,0:0:0:0:
18,239,225627,2,0,P|26:279|55:311,1,71.9999978027344
172,205,225799,5,0,0:0:0:0:
181,163,225884,1,0,0:0:0:0:
177,119,225970,1,0,0:0:0:0:
156,80,226056,1,0,0:0:0:0:
116,61,226142,2,0,P|80:85|61:126,1,71.9999978027344
18,239,226313,1,0,0:0:0:0:
243,61,226484,6,0,B|305:45|305:45|404:62,1,143.999995605469
412,64,226742,1,0,0:0:0:0:
440,69,226827,1,0,0:0:0:0:
313,187,226999,1,0,0:0:0:0:
441,276,227170,6,0,P|461:306|471:341,1,71.9999978027344
175,335,227342,2,0,P|189:290|233:247,1,71.9999978027344
313,187,227513,1,0,0:0:0:0:
326,371,227684,1,0,0:0:0:0:
225,174,227856,6,0,P|155:156|70:180,1,120
396,170,228199,2,0,P|466:152|551:176,1,120
299,0,228542,2,0,L|304:95,1,96
326,371,228884,2,0,L|320:275,1,96
313,187,229227,5,0,0:0:0:0:
285,107,229399,1,0,0:0:0:0:
203,106,229570,1,0,0:0:0:0:
177,184,229742,1,0,0:0:0:0:
245,231,229913,5,0,0:0:0:0:
367,123,230084,1,0,0:0:0:0:
116,123,230256,1,0,0:0:0:0:
245,317,230427,1,0,0:0:0:0:
241,24,230599,6,0,B|184:11|184:11|82:38,1,143.999995605469
73,41,230856,1,0,0:0:0:0:
45,50,230942,1,0,0:0:0:0:
234,162,231113,2,0,P|247:195|244:230,1,71.9999978027344
66,322,231284,5,0,0:0:0:0:
41,286,231370,1,0,0:0:0:0:
32,243,231456,1,0,0:0:0:0:
38,200,231542,1,0,0:0:0:0:
58,162,231627,2,0,P|81:137|123:121,1,71.9999978027344
289,100,231799,1,0,0:0:0:0:
503,236,231970,6,0,B|448:253|448:253|329:234,1,143.999995605469
334,235,232227,1,0,0:0:0:0:
305,230,232313,1,0,0:0:0:0:
438,100,232484,1,0,0:0:0:0:
224,188,232656,6,0,P|215:236|226:278,1,71.9999978027344
432,170,232827,2,0,P|441:122|430:80,1,71.9999978027344
235,22,232999,1,0,0:0:0:0:
305,230,233170,1,0,0:0:0:0:
33,89,233342,6,0,B|93:74|93:74|173:92,1,143.999995605469
199,98,233599,1,0,0:0:0:0:
227,104,233684,1,0,0:0:0:0:
94,221,233856,1,0,0:0:0:0:
317,40,234027,5,0,0:0:0:0:
334,78,234113,1,0,0:0:0:0:
336,120,234199,1,0,0:0:0:0:
321,160,234284,1,0,0:0:0:0:
296,195,234370,2,0,P|256:220|227:224,1,71.9999978027344
253,11,234542,2,0,P|287:19|316:39,1,71.9999978027344
419,195,234713,5,0,0:0:0:0:
419,223,234799,1,0,0:0:0:0:
419,251,234884,1,0,0:0:0:0:
476,117,235056,2,0,B|421:103|421:103|330:121,1,143.999995605469
94,249,235399,5,0,0:0:0:0:
94,221,235484,1,0,0:0:0:0:
94,192,235570,2,0,L|96:110,1,71.9999978027344
0,13,235742,2,0,P|1:54|16:84,1,71.9999978027344
195,13,235913,2,0,P|194:54|179:84,1,71.9999978027344,0|0,0:3|0:3,0:3:0:0:
38,329,236084,6,0,B|95:345|95:345|184:319,1,143.999995605469
204,312,236342,1,0,0:0:0:0:
231,304,236427,1,0,0:0:0:0:
418,250,236599,2,0,P|430:284|427:320,1,71.9999978027344
298,193,236770,5,0,0:0:0:0:
292,149,236856,1,0,0:0:0:0:
297,105,236942,1,0,0:0:0:0:
320,69,237027,1,0,0:0:0:0:
358,51,237113,2,0,P|404:46|443:60,1,71.9999978027344
512,166,237284,1,0,0:0:0:0:
348,289,237456,6,0,B|292:296|292:296|197:270,1,143.999995605469
179,265,237713,1,0,0:0:0:0:
151,256,237799,1,0,0:0:0:0:
292,149,237970,1,0,0:0:0:0:
78,20,238142,6,0,P|65:56|66:91,1,71.9999978027344
78,305,238313,2,0,P|65:271|65:235,1,71.9999978027344
179,162,238484,1,0,0:0:0:0:
0,169,238656,1,0,0:0:0:0:
234,66,238827,6,0,B|408:52|408:52|313:105,1,240
87,211,239342,1,0,0:0:0:0:
90,245,239427,1,0,0:0:0:0:
93,280,239513,2,0,B|142:305|207:281|207:281|279:250|346:287,1,240
326,277,240027,1,0,0:0:0:0:
421,363,240199,5,0,0:0:0:0:
451,294,240370,1,0,0:0:0:0:
436,219,240542,1,0,0:0:0:0:
382,165,240713,1,0,0:0:0:0:
367,90,240885,1,0,0:0:0:0:
397,21,241056,5,0,0:0:0:0:
277,153,241227,1,0,0:0:0:0:
490,102,241399,1,0,0:0:0:0:
149,127,241570,5,0,0:0:0:0:
138,76,241655,1,0,0:0:0:0:
157,27,241741,1,0,0:0:0:0:
277,153,241913,2,0,P|289:220|265:290,1,132.00000402832
271,280,242170,1,0,0:0:0:0:
271,280,242256,1,0,0:0:0:0:
141,257,242427,1,0,0:0:0:0:
343,99,242598,2,0,P|319:80|283:71,2,66.0000020141602
470,338,242942,6,0,B|456:271|456:271|470:207,1,132.00000402832
343,99,243284,2,0,B|357:162|357:162|342:228,1,132.00000402832
499,127,243627,1,0,0:0:0:0:
499,127,243713,1,0,0:0:0:0:
499,127,243799,1,0,0:0:0:0:
327,317,243970,1,0,0:0:0:0:
327,317,244056,1,0,0:0:0:0:
327,317,244142,1,0,0:0:0:0:
175,168,244313,6,0,B|114:146|50:190|59:255|59:255|76:286|128:287|146:244,1,270.000010299683
140,256,244656,1,0,0:0:0:0:
396,102,244827,6,0,P|353:88|312:94,1,71.9999978027344,0|0,0:3|0:3,0:3:0:0:
262,168,244999,2,0,P|271:211|297:244,1,71.9999978027344,0|0,0:3|0:3,0:3:0:0:
387,248,245170,2,0,P|419:217|435:178,1,71.9999978027344,0|0,0:3|0:3,0:3:0:0:
366,9,245342,1,0,0:0:0:0:
349,173,245513,1,0,0:0:0:0:
161,85,245684,6,0,B|47:79|47:79|92:110,1,155.999992858887
165,248,245942,1,0,0:0:0:0:
165,248,246027,2,0,B|51:254|51:254|96:223,1,155.999992858887
326,90,246370,2,0,B|349:167|349:167|329:263,1,155.999992858887
184,164,246627,1,0,0:0:0:0:
184,164,246713,2,0,P|226:177|279:170,1,77.9999964294435
116,47,246884,2,0,P|74:42|38:51,1,77.9999964294435
52,254,247056,5,0,0:0:0:0:
62,305,247142,1,0,0:0:0:0:
99,341,247227,1,0,0:0:0:0:
330,265,247399,2,0,P|255:251|195:268,1,132.00000402832
202,264,247656,1,0,0:0:0:0:
202,264,247742,1,0,0:0:0:0:
266,384,247913,1,0,0:0:0:0:
403,211,248084,2,0,P|417:240|419:273,2,66.0000020141602
170,132,248427,6,0,B|162:19|162:19|192:63,1,155.999992858887
345,131,248684,1,0,0:0:0:0:
345,131,248770,2,0,B|353:18|353:18|323:62,1,155.999992858887
170,252,249113,2,0,B|162:365|162:365|192:321,1,155.999992858887
345,253,249370,1,0,0:0:0:0:
345,253,249456,2,0,B|353:366|353:366|323:322,1,155.999992858887
231,101,249799,6,0,B|218:77|219:42|251:19|251:19|301:68|303:135|247:211,1,270.000010299683
266,181,250142,1,0,0:0:0:0:
136,314,250313,6,0,P|148:279|189:238,1,71.9999978027344
378,315,250484,2,0,P|366:281|344:252,1,71.9999978027344
249,375,250656,2,0,L|258:287,1,71.9999978027344
270,186,250827,1,0,0:0:0:0:
115,201,250999,1,0,0:0:0:0:
54,47,251170,6,0,B|125:38|125:38|208:72,1,155.999992858887
451,48,251427,1,0,0:0:0:0:
451,48,251513,2,0,B|380:39|380:39|301:71,1,155.999992858887
113,123,251856,6,0,B|96:182|96:182|117:295,1,167.999994873047
285,194,252113,1,0,0:0:0:0:
285,194,252199,2,0,P|235:182|189:192,1,83.9999974365235
285,352,252370,2,0,P|335:364|381:354,1,83.9999974365235
493,242,252542,5,0,0:0:0:0:
500,190,252627,1,0,0:0:0:0:
487,138,252713,1,0,0:0:0:0:
353,7,252884,2,0,P|345:75|373:137,1,132.00000402832
369,132,253142,1,0,0:0:0:0:
369,132,253227,1,0,0:0:0:0:
493,53,253399,1,0,0:0:0:0:
347,227,253570,2,0,P|357:264|380:291,2,66.0000020141602
124,119,253913,6,0,B|177:103|177:103|252:118,1,132.00000402832
114,258,254256,2,0,B|164:282|164:282|276:279,1,132.00000402832
51,189,254599,1,0,0:0:0:0:
51,189,254684,1,0,0:0:0:0:
51,189,254770,1,0,0:0:0:0:
267,206,254942,1,0,0:0:0:0:
267,206,255027,1,0,0:0:0:0:
267,206,255113,1,0,0:0:0:0:
475,163,255284,6,0,B|512:110|515:48|472:-2|472:-2|436:42|467:102,1,270.000010299683
458,83,255627,1,0,0:0:0:0:
389,297,255799,6,0,P|364:262|353:217,1,71.9999978027344
275,134,255970,2,0,L|264:223,1,71.9999978027344
172,224,256142,2,0,P|159:257|138:286,1,71.9999978027344
41,356,256313,1,0,0:0:0:0:
257,298,256484,1,0,0:0:0:0:
63,202,256656,6,0,B|53:82|53:82|89:139,1,155.999992858887
266,205,256913,1,0,0:0:0:0:
266,205,256999,2,0,B|276:85|276:85|240:142,1,155.999992858887
41,356,257342,2,0,B|94:381|94:381|205:370,1,155.999992858887
345,353,257599,1,0,0:0:0:0:
345,353,257684,2,0,P|352:297|336:258,1,77.9999964294435
172,224,257856,2,0,P|165:280|181:319,1,77.9999964294435
377,173,258027,5,0,0:0:0:0:
384,120,258113,1,0,0:0:0:0:
368,69,258199,1,0,0:0:0:0:
169,89,258370,2,0,P|238:130|300:124,1,132.00000402832
287,127,258627,1,0,0:0:0:0:
287,127,258713,1,0,0:0:0:0:
266,0,258884,1,0,0:0:0:0:
81,140,259056,2,0,P|69:109|69:77,2,66.0000020141602
158,354,259399,6,0,B|151:239|151:239|176:286,1,155.999992858887
335,353,259656,1,0,0:0:0:0:
335,353,259742,2,0,B|341:238|341:238|316:285,1,155.999992858887
158,30,260084,6,0,B|151:144|151:144|176:97,1,155.999992858887
335,31,260341,1,0,0:0:0:0:
335,31,260427,2,0,B|341:145|341:145|316:98,1,155.999992858887
243,195,260770,5,0,0:0:0:0:
78,66,260942,2,0,P|41:47|80:108,1,180.000006866455,0|0,0:3|0:3,0:3:0:0:
243,195,261284,1,0,0:0:0:0:
78,318,261456,2,0,P|41:336|80:275,1,180.000006866455,0|0,0:3|0:3,0:3:0:0:
243,195,261799,1,0,0:0:0:0:
393,58,261970,6,0,B|427:33|483:50|483:50|454:99|396:101,1,180.000006866455
243,195,262313,1,0,0:0:0:0:
398,321,262484,2,0,B|432:345|488:328|488:328|459:279|401:277,1,180.000006866455
140,167,262827,6,0,P|135:204|148:241,1,66.0000020141602
346,227,262999,2,0,P|353:195|348:162,1,66.0000020141602
245,15,263170,2,0,L|245:81,1,66.0000020141602
243,369,263342,2,0,L|243:278,1,66.0000020141602
243,195,263513,1,0,0:0:0:0:
