osu file format v14

[General]
AudioFilename: Erasus.mp3
AudioLeadIn: 2000
PreviewTime: 37697
Countdown: 0
SampleSet: Normal
StackLeniency: 0.7
Mode: 0
LetterboxInBreaks: 0
WidescreenStoryboard: 0

[Editor]
Bookmarks: 5697,11030,21697,25030,27030,29863,32363,43030,64363,73363,75030,85697,91030,93697,96363,117697,120363,127030,128363,131030,141697,147030,163030,187030,197697,217697,219030,229697,240363,243030
DistanceSpacing: 1
BeatDivisor: 4
GridSize: 4
TimelineZoom: 2.1

[Metadata]
Title:Erasus
TitleUnicode:Erasus
Artist:Subkulture feat. Klayton of Celldweller
ArtistUnicode:Subkulture feat. Klayton of Celldweller
Creator:ErunamoJAZZ
Version:Nyu's Hard
Source:
Tags:Nyukai Nyu-chan Inyuschan Kurokami xtrem3x Erase Us DotA2 DotaCinema CS Counter Strike Source Drum and Bass dnb Techno Trance Metal amazing noob never forget my real first rank thanks
BeatmapID:385942
BeatmapSetID:107979

[Difficulty]
HPDrainRate:5
CircleSize:4
OverallDifficulty:6
ApproachRate:8
SliderMultiplier:1.4
SliderTickRate:1

[Events]
//Background and Video events
0,0,"bg_erasus.png",0,0
//Break Periods
2,147030,151613
//Storyboard Layer 0 (Background)
//Storyboard Layer 1 (Fail)
//Storyboard Layer 2 (Pass)
//Storyboard Layer 3 (Foreground)
//Storyboard Sound Samples

[TimingPoints]
364,333.333333333333,4,1,0,20,1,0
11030,-100,4,2,0,50,0,0
21863,-100,4,1,0,30,0,0
30030,-100,4,1,0,50,0,0
32363,-100,4,1,0,30,0,0
36030,-100,4,1,0,50,0,0
37197,-100,4,1,0,40,0,0
43030,-100,4,1,0,55,0,1
64363,-100,4,1,0,45,0,0
73280,-100,4,1,0,50,0,0
73363,-100,4,1,0,50,0,1
75030,-100,4,1,0,40,0,0
85697,-100,4,3,0,40,0,0
91030,-100,4,1,0,40,0,0
93697,-100,4,1,0,45,0,0
96363,-100,4,1,0,50,0,1
117697,-100,4,1,0,45,0,0
120363,-100,4,3,0,45,0,0
128363,-100,4,1,0,45,0,0
129363,-100,4,1,0,55,0,1
131030,-100,4,1,0,45,0,0
141697,-100,4,1,0,40,0,0
149697,-100,4,2,0,30,0,0
178947,-100,4,2,0,25,0,0
179947,-100,4,2,0,30,0,0
180947,-100,4,2,0,40,0,0
186197,-100,4,2,0,35,0,0
188363,-100,4,2,0,30,0,0
189030,-100,4,2,0,25,0,0
189697,-100,4,2,0,20,0,0
190363,-100,4,2,0,15,0,0
191030,-100,4,2,0,5,0,0
197697,-100,4,1,0,50,0,1
217697,-100,4,1,0,40,0,0
219030,-100,4,1,0,60,0,1
235030,-100,4,1,0,65,0,1
240363,-100,4,2,0,40,0,0
243363,-100,4,2,0,10,0,0

[Colours]
Combo1 : 179,129,13
Combo2 : 0,83,166
Combo3 : 217,217,0
Combo4 : 192,192,192
Combo5 : 201,24,125
Combo6 : 31,91,124

[HitObjects]
256,44,5697,5,0,1:0:0:0:
219,177,6030,2,0,L|188:240,1,70,0|0,0:2|0:0,0:0:0:0:
292,177,6363,2,0,L|324:240,1,70,0|0,0:0|0:0,0:0:0:0:
256,276,6697,2,0,L|256:356,1,70,0|0,0:0|0:0,0:0:0:0:
332,344,7030,2,0,B|396:316|416:360|484:324,2,140,0|2|0,0:0|0:0|0:0,0:0:0:0:
180,344,7863,2,0,B|116:316|96:360|28:324,1,140,2|0,0:0|0:0,0:0:0:0:
40,252,8363,1,0,0:0:0:0:
40,176,8530,6,0,L|40:100,1,70,0|2,0:0|0:0,0:0:0:0:
80,40,8863,1,0,0:0:0:0:
156,52,9030,2,0,P|180:52|228:100,1,70,0|2,0:0|0:0,0:0:0:0:
356,52,9363,2,0,P|332:52|284:100,1,70,0|0,0:0|0:0,0:0:0:0:
256,144,9697,2,0,L|256:179,14,35,2|0|0|0|0|0|0|0|0|0|0|0|0|0|0,0:1|0:1|0:1|0:1|0:1|0:1|0:1|0:1|0:1|0:1|0:1|0:1|0:1|0:1|0:1,0:1:0:0:
308,236,11030,6,0,B|340:236|340:236|384:208,1,70,4|0,3:2|0:0,0:0:0:0:
200,236,11363,2,0,B|168:236|168:236|124:208,1,70,2|0,0:0|0:0,0:0:0:0:
256,96,11863,2,0,L|256:16,1,70,2|0,0:0|0:0,0:0:0:0:
256,288,12363,2,0,L|256:368,1,70,2|0,0:0|0:0,0:0:0:0:
180,356,12697,2,0,L|140:356,4,35,2|0|0|0|0,0:0|0:0|0:0|0:0|0:0,0:0:0:0:
184,280,13197,2,0,L|232:280,4,35,2|0|0|0|0,0:0|0:0|0:0|0:0|0:0,0:0:0:0:
176,204,13697,6,0,B|176:168|176:168|192:128,1,70,2|0,0:0|0:0,0:0:0:0:
256,100,14030,2,0,L|256:20,2,70,2|0|0,0:0|0:0|0:0,0:0:0:0:
324,136,14530,2,0,B|336:168|336:168|336:204,1,70,2|0,0:0|0:0,0:0:0:0:
336,280,14863,1,0,0:0:0:0:
272,320,15030,2,0,L|192:320,1,70,0|0,0:0|0:0,0:0:0:0:
124,320,15363,1,2,0:0:0:0:
64,268,15530,2,0,P|64:220|120:116,1,140,0|2,0:0|0:0,0:0:0:0:
156,84,16030,2,0,L|216:48,1,70,0|2,0:0|0:0,0:0:0:0:
296,48,16363,5,0,0:0:0:0:
296,48,16530,2,0,L|356:84,1,70,0|2,0:0|0:0,0:0:0:0:
256,196,17030,2,0,L|196:160,1,70,0|2,0:0|0:0,0:0:0:0:
256,304,17530,1,0,0:0:0:0:
324,340,17697,2,0,P|352:340|424:248,2,140,2|2|0,0:0|0:0|0:0,0:0:0:0:
188,340,18530,2,0,P|160:340|88:248,1,140,2|0,0:0|0:0,0:0:0:0:
256,192,19030,12,4,21697,2:1:0:0:
76,112,22030,6,0,P|108:112|160:80,1,70,0|0,0:0|0:0,0:0:0:0:
216,64,22363,1,0,0:0:0:0:
296,64,22530,1,0,0:0:0:0:
369,97,22697,2,0,P|401:111|436:112,1,70,0|0,0:0|0:0,0:0:0:0:
480,176,23030,2,0,P|480:220|396:280,1,140,0|0,0:0|0:0,0:0:0:0:
336,280,23530,2,0,P|296:280|144:360,1,210,0|0,3:0|0:0,0:0:0:0:
40,244,24363,6,0,P|24:200|28:152,1,70
68,112,24697,2,0,P|120:112|192:176,1,140
256,196,25197,1,0,0:0:0:0:
325,164,25363,2,0,P|375:117|444:112,2,140,2|0|0,0:2|0:0|0:0,0:0:0:0:
256,196,26197,1,0,0:0:0:0:
186,164,26363,2,0,P|148:160|112:128,1,70,2|0,0:2|0:0,0:0:0:0:
176,88,26697,2,0,P|132:68|96:72,1,70,2|0,0:2|0:0,0:0:0:0:
36,92,27030,1,4,0:1:0:0:
48,244,27363,6,0,P|88:244|168:316,1,140,0|0,0:0|0:0,0:0:0:0:
240,304,27863,1,0,0:0:0:0:
316,304,28030,2,0,P|352:304|432:216,1,140,0|0,0:0|0:0,0:0:0:0:
364,192,28530,1,0,0:0:0:0:
427,144,28697,2,0,L|360:92,1,70,0|0,0:0|0:0,0:0:0:0:
296,100,29030,2,0,P|248:100|176:32,2,140,2|2|0,0:0|0:0|0:0,0:0:0:0:
420,192,30030,6,0,L|388:256,1,70,0|2,0:0|0:0,0:0:0:0:
256,336,30530,1,0,0:0:0:0:
256,336,30697,1,2,0:0:0:0:
124,254,31030,2,0,L|92:188,1,70,0|2,0:0|0:0,0:0:0:0:
148,136,31363,1,2,0:0:0:0:
148,136,31530,2,0,P|184:136|212:156,1,70,0|2,0:0|0:0,0:0:0:0:
224,232,31863,2,0,P|256:244|288:232,1,70,2|0,0:0|0:0,0:0:0:0:
300,154,32197,2,0,P|329:135|364:136,1,70,0|4,0:0|0:0,0:0:0:0:
504,72,32697,6,0,L|504:148,1,70
432,168,33030,2,0,L|432:244,1,70
488,288,33363,1,0,0:0:0:0:
416,312,33530,1,0,0:0:0:0:
416,312,33697,2,0,P|376:312|296:368,1,140
215,367,34197,2,0,P|164:320|96:312,1,140
60,380,34697,2,0,L|60:228,1,140
56,164,35197,1,2,0:0:0:0:
116,116,35363,6,0,P|148:116|200:140,1,70
256,100,35697,2,0,P|280:100|332:80,1,70,2|2,0:0|0:0,0:0:0:0:
400,68,36030,1,0,0:0:0:0:
400,68,36113,1,0,0:0:0:0:
400,68,36197,1,0,0:0:0:0:
444,132,36363,2,0,L|476:208,1,70,2|0,0:0|0:0,0:0:0:0:
451,320,36697,2,0,L|424:256,1,70,2|0,0:0|0:0,0:0:0:0:
364,208,37030,2,0,P|320:208|248:124,1,140,2|2,0:0|0:0,0:0:0:0:
208,84,37530,1,0,0:0:0:0:
172,16,37697,6,0,L|44:116,1,140,4|2,0:0|0:0,0:0:0:0:
64,180,38197,2,0,P|116:180|200:240,1,140,0|0,0:0|0:0,0:0:0:0:
256,264,38697,1,0,0:0:0:0:
322,224,38863,1,0,0:0:0:0:
322,224,39030,2,0,P|379:184|448:180,1,140,2|0,0:0|0:0,0:0:0:0:
456,256,39530,2,0,L|428:332,1,70,0|0,0:0|0:0,0:0:0:0:
364,360,39863,2,0,L|276:380,1,70,0|0,0:0|0:0,0:0:0:0:
148,360,40197,2,0,L|236:380,1,70,0|2,0:0|0:0,0:0:0:0:
256,192,40530,12,4,42697,1:1:0:0:
96,120,43030,6,0,P|140:120|228:200,1,140,4|8,0:0|0:0,0:0:0:0:
295,173,43530,2,0,P|347:127|416:120,1,140,0|0,0:0|0:0,0:0:0:0:
480,164,44030,2,0,B|480:236|480:236|416:304,1,140,8|0,0:0|0:0,0:0:0:0:
364,316,44530,1,0,0:0:0:0:
288,316,44697,2,0,P|248:316|136:264,1,140,8|0,0:0|0:0,0:0:0:0:
48,172,45363,6,0,P|92:172|176:96,1,140,12|2,0:0|0:0,0:0:0:0:
216,56,45863,1,0,0:0:0:0:
256,120,46030,2,0,L|256:200,2,70,8|0|2,0:0|0:0|0:0,0:0:0:0:
296,56,46530,1,0,0:0:0:0:
372,56,46697,2,0,P|396:56|440:24,1,70,8|0,0:0|0:0,0:0:0:0:
512,32,47030,2,0,P|512:68|444:160,1,140,2|8,0:0|0:0,0:0:0:0:
457,231,47530,2,0,P|502:283|512:352,1,140,2|2,0:0|0:0,0:0:0:0:
434,351,48030,2,0,P|406:330|372:328,1,70,8|2,0:0|0:0,0:0:0:0:
296,312,48363,6,0,P|264:312|168:240,1,140,4|8,0:0|0:0,0:0:0:0:
140,188,48863,2,0,P|140:148|244:116,1,140,0|0,0:0|0:0,0:0:0:0:
293,103,49363,2,0,P|357:122|372:188,1,140,8|0,0:0|0:0,0:0:0:0:
356,264,49863,2,0,L|336:340,1,70,0|8,0:0|0:0,0:0:0:0:
208,248,50363,2,0,L|120:224,1,70,0|0,0:0|0:0,0:0:0:0:
140,154,50697,2,0,L|208:136,1,70,8|0,0:0|0:0,0:0:0:0:
256,76,51030,6,0,P|288:76|392:156,1,140,2|8,0:0|0:0,0:0:0:0:
256,308,51697,2,0,P|288:308|392:228,1,140,2|8,0:0|0:0,0:0:0:0:
272,140,52363,2,0,P|245:118|211:111,1,70,2|0,0:0|0:0,0:0:0:0:
142,192,52697,2,0,L|212:192,1,70,8|2,0:0|0:0,0:0:0:0:
272,243,53030,2,0,P|245:265|211:272,1,70,2|2,0:0|0:0,0:0:0:0:
238,343,53363,2,0,P|272:337|300:316,1,70,8|2,0:0|3:1,0:0:0:0:
376,300,53697,5,4,0:0:0:0:
376,300,53863,1,0,0:0:0:0:
424,240,54030,2,0,P|424:212|400:160,1,70,8|0,0:0|0:0,0:0:0:0:
400,96,54363,2,0,P|400:84|292:28,1,140,0|8,0:0|0:0,0:0:0:0:
256,76,54863,1,0,0:0:0:0:
204,21,55030,2,0,P|138:34|112:96,1,140,0|8,0:0|0:0,0:0:0:0:
92,172,55530,2,0,P|92:200|124:252,1,70,0|0,0:0|0:0,0:0:0:0:
256,288,56030,1,8,0:0:0:0:
402,236,56363,6,0,P|417:206|419:171,1,70,2|0,0:0|0:0,0:0:0:0:
332,204,56697,2,0,P|336:169|325:136,1,70,8|2,0:0|0:0,0:0:0:0:
256,172,57030,2,0,L|256:242,1,70,0|2,0:0|0:0,0:0:0:0:
179,203,57363,2,0,P|175:169|186:136,1,70,8|0,0:0|0:0,0:0:0:0:
109,237,57697,2,0,P|93:206|92:171,1,70,2|0,0:0|0:0,0:0:0:0:
92,96,58030,2,0,L|136:40,1,70,8|2,0:0|0:0,0:0:0:0:
212,40,58363,2,0,P|244:40|328:128,1,140,0|10,0:0|0:0,0:0:0:0:
256,148,58863,1,0,0:0:0:0:
204,204,59030,6,0,P|184:224|184:336,1,140,4|8,0:0|0:0,0:0:0:0:
256,328,59530,2,0,L|376:212,1,140,0|0,0:0|0:0,0:0:0:0:
356,153,60030,2,0,L|256:56,1,140,8|0,0:0|0:0,0:0:0:0:
196,8,60530,2,0,P|160:8|84:80,1,140,0|0,0:0|0:0,0:0:0:0:
84,152,61030,2,0,L|160:144,1,70,0|0,0:0|0:0,0:0:0:0:
84,232,61363,2,0,L|160:240,1,70,8|0,0:0|0:0,0:0:0:0:
216,192,61697,6,0,L|384:192,3,140,2|8|2|8,0:0|0:0|0:0|0:0,0:0:0:0:
376,40,63030,2,0,P|316:88|132:32,2,280,2|2|4,0:0|0:0|1:1,0:0:0:0:
408,192,64697,6,0,B|408:228|408:228|384:268,1,70,8|0,0:3|0:0,0:0:0:0:
320,292,65030,1,0,0:0:0:0:
256,336,65197,1,0,0:0:0:0:
192,292,65363,1,8,0:3:0:0:
121,257,65530,2,0,B|104:228|104:228|104:192,1,70,0|2,0:0|0:2,0:0:0:0:
256,90,66030,2,0,L|256:160,1,70,4|0,0:3|0:0,0:0:0:0:
166,73,66363,2,0,L|216:24,1,70,0|0,0:0|0:0,0:0:0:0:
296,23,66697,1,2,0:2:0:0:
372,24,66863,6,0,L|452:40,1,70,0|8,0:0|0:3,0:0:0:0:
496,92,67197,1,0,0:0:0:0:
496,168,67363,2,0,P|472:192|472:248,1,70,2|0,0:2|0:0,0:0:0:0:
432,296,67697,2,0,P|388:296|284:276,1,140,0|2,0:0|0:2,0:0:0:0:
218,279,68197,2,0,P|149:293|80:296,2,140,0|0|0,0:0|0:0|0:0,0:0:0:0:
256,212,69030,1,0,0:0:0:0:
296,144,69197,1,10,0:2:0:0:
216,144,69363,1,10,0:2:0:0:
256,76,69530,6,0,L|256:4,1,70,0|8,0:0|0:3,0:0:0:0:
180,20,69863,1,0,0:0:0:0:
104,36,70030,2,0,L|28:72,1,70,2|0,0:2|0:0,0:0:0:0:
40,144,70363,2,0,P|40:168|144:224,1,140,0|2,0:0|0:2,0:0:0:0:
200,232,70863,1,0,0:0:0:0:
256,180,71030,1,8,0:3:0:0:
312,232,71197,1,0,0:0:0:0:
387,229,71363,2,0,P|451:208|472:144,2,140,2|0|0,0:2|0:0|0:0,0:0:0:0:
368,304,72197,1,0,0:0:0:0:
304,348,72363,6,0,L|212:348,1,70,0|0,0:0|0:0,0:0:0:0:
160,328,72697,1,2,0:2:0:0:
112,268,72863,1,0,0:0:0:0:
112,192,73030,2,0,P|112:152|188:88,1,140,0|2,0:0|0:0,0:0:0:0:
400,192,73697,1,2,0:0:0:0:
400,192,73863,2,0,P|400:152|324:88,1,140,2|2,0:0|0:0,0:0:0:0:
256,116,74363,1,2,0:0:0:0:
112,192,74697,1,2,0:0:0:0:
256,264,75030,5,0,0:3:0:0:
304,324,75197,2,0,P|332:332|380:332,1,70,0|2,0:0|0:2,0:0:0:0:
445,311,75530,2,0,P|448:340|448:364,2,35,8|0|8,0:3|0:3|0:3,0:3:0:0:
464,236,75863,1,0,0:0:0:0:
444,160,76030,2,0,P|400:160|364:132,1,70,2|0,0:2|0:0,0:0:0:0:
324,92,76363,2,0,L|176:164,1,140,0|2,0:3|0:2,0:0:0:0:
198,230,76863,2,0,L|324:292,1,140,8|0,0:3|0:0,0:0:0:0:
364,356,77363,2,0,P|332:364|288:360,1,70,2|0,0:2|0:0,0:0:0:0:
216,356,77697,6,0,P|188:356|144:336,1,70
80,308,78030,2,0,L|32:252,1,70,2|8,0:2|0:3,0:0:0:0:
76,188,78363,2,0,P|120:188|204:124,1,140,8|2,0:3|0:2,0:0:0:0:
256,84,78863,1,0,0:0:0:0:
314,135,79030,2,0,P|367:180|436:188,1,140,0|2,0:0|0:2,0:0:0:0:
476,124,79530,2,0,L|476:292,1,140,8|0,0:3|1:0,0:0:0:0:
436,332,80030,2,0,L|344:336,1,70,2|0,3:2|1:0,0:0:0:0:
296,308,80363,5,2,1:2:0:0:
216,308,80530,1,0,0:0:0:0:
145,335,80697,2,0,L|76:332,1,70,2|8,0:2|0:3,0:0:0:0:
44,260,81030,2,0,P|80:188|28:148,1,140,2|2,0:2|0:2,0:0:0:0:
48,76,81530,1,0,0:0:0:0:
104,24,81697,2,0,L|228:112,1,140,2|2,0:2|0:2,0:0:0:0:
293,105,82197,2,0,L|408:24,1,140,2|0,0:2|0:0,0:0:0:0:
460,80,82697,2,0,L|460:160,1,70,2|0,0:2|0:0,0:0:0:0:
404,200,83030,6,0,L|404:280,1,70,2|2,0:2|0:2,0:0:0:0:
344,316,83363,1,2,0:2:0:0:
272,340,83530,1,8,0:3:0:0:
196,340,83697,2,0,P|172:340|128:244,1,140,2|2,0:2|0:2,0:0:0:0:
172,192,84197,1,0,0:0:0:0:
124,133,84363,2,0,P|133:67|196:43,2,140,2|2|8,0:2|0:2|0:3,0:0:0:0:
64,184,85197,2,0,L|64:260,1,70,8|0,0:3|0:0,0:0:0:0:
64,332,85530,1,0,0:0:0:0:
140,332,85697,6,0,B|284:332|284:332|416:236,1,280,4|2,0:1|0:2,0:0:0:0:
140,52,87030,2,0,B|284:52|284:52|416:148,1,280,0|4,0:0|0:1,0:0:0:0:
92,192,88363,5,4,0:1:0:0:
420,192,89697,1,4,0:1:0:0:
256,36,90697,2,0,L|256:116,1,70,0|2,0:0|3:3,0:0:0:0:
188,140,91030,6,0,L|103:99,1,93.3333333333333,2|2,0:2|0:2,0:0:0:0:
100,192,91475,2,0,L|-8:192,1,93.3333333333333,2|2,0:2|0:2,0:0:0:0:
188,244,91919,2,0,L|103:284,1,93.3333333333333,2|2,0:2|0:2,0:0:0:0:
256,168,92363,2,0,L|256:72,2,93.3333333333333,2|2|2,0:2|0:2|0:2,0:0:0:0:
324,244,93030,2,0,L|408:284,1,93.3333333333333,2|2,0:2|0:2,0:0:0:0:
496,236,93475,2,0,L|404:188,1,93.3333333333333,0|4,0:0|0:0,0:0:0:0:
256,192,94697,12,0,96030,3:0:0:0:
96,264,96363,6,0,P|140:264|228:184,1,140,0|8,1:0|0:0,0:0:0:0:
295,211,96863,2,0,P|347:257|416:264,1,140,0|0,0:0|0:0,0:0:0:0:
480,220,97363,2,0,B|480:148|480:148|416:80,1,140,8|0,0:0|0:0,0:0:0:0:
364,68,97863,1,0,0:0:0:0:
288,68,98030,2,0,P|248:68|136:120,1,140,8|0,0:0|0:0,0:0:0:0:
48,212,98697,6,0,P|92:212|176:288,1,140,8|2,0:0|0:0,0:0:0:0:
216,328,99197,1,0,0:0:0:0:
256,264,99363,2,0,L|256:184,2,70,12|2|2,0:0|0:0|0:0,0:0:0:0:
296,328,99863,1,0,0:0:0:0:
372,328,100030,2,0,P|396:328|440:360,1,70,8|0,0:0|0:0,0:0:0:0:
512,352,100363,2,0,P|512:316|444:224,1,140,2|8,0:0|0:0,0:0:0:0:
457,153,100863,2,0,P|502:101|512:32,1,140,2|0,0:0|0:0,0:0:0:0:
434,32,101363,2,0,P|406:53|372:56,1,70,10|2,0:0|0:0,0:0:0:0:
296,72,101697,6,0,P|264:72|168:144,1,140,4|8,0:0|0:0,0:0:0:0:
140,196,102197,2,0,P|140:236|244:268,1,140,0|0,0:0|0:0,0:0:0:0:
293,281,102697,2,0,P|357:262|372:196,1,140,8|0,0:0|0:0,0:0:0:0:
356,120,103197,1,0,0:0:0:0:
356,120,103363,1,8,0:0:0:0:
208,136,103697,2,0,L|120:160,1,70,0|0,0:0|0:0,0:0:0:0:
140,230,104030,2,0,L|208:248,1,70,8|0,0:0|2:0,0:0:0:0:
256,308,104363,6,0,P|288:308|392:228,1,140,2|8,0:0|0:0,0:0:0:0:
256,76,105030,2,0,P|288:76|392:156,1,140,2|8,0:0|0:0,0:0:0:0:
272,244,105697,2,0,P|245:266|211:273,1,70,2|0,0:0|0:0,0:0:0:0:
142,192,106030,2,0,L|212:192,1,70,8|2,0:0|0:0,0:0:0:0:
272,141,106363,2,0,P|245:119|211:112,1,70,2|2,0:0|0:0,0:0:0:0:
238,40,106697,2,0,P|272:46|300:68,1,70,10|2,0:0|0:0,0:0:0:0:
376,84,107030,5,4,0:0:0:0:
376,84,107197,1,2,0:0:0:0:
424,144,107363,2,0,P|424:172|400:224,1,70,8|0,0:0|0:0,0:0:0:0:
400,288,107697,2,0,P|400:300|292:356,1,140,0|8,0:0|0:0,0:0:0:0:
256,308,108197,1,0,0:0:0:0:
204,363,108363,2,0,P|138:350|112:288,1,140,0|8,0:0|0:0,0:0:0:0:
92,212,108863,2,0,P|92:184|124:132,1,70,0|0,0:0|0:0,0:0:0:0:
256,96,109363,1,8,0:0:0:0:
402,147,109697,6,0,P|417:177|419:212,1,70,2|0,0:0|0:0,0:0:0:0:
332,180,110030,2,0,P|336:214|325:247,1,70,8|0,0:0|0:0,0:0:0:0:
256,280,110363,2,0,L|256:360,1,70,2|0,0:0|0:0,0:0:0:0:
179,180,110697,2,0,P|175:214|186:247,1,70,8|0,0:0|0:0,0:0:0:0:
109,147,111030,2,0,P|93:178|92:213,1,70,2|0,0:0|0:0,0:0:0:0:
92,288,111363,2,0,L|136:344,1,70,8|2,0:0|0:0,0:0:0:0:
212,344,111697,2,0,P|244:344|328:256,1,140,2|10,0:0|0:0,0:0:0:0:
256,236,112197,1,0,0:0:0:0:
204,180,112363,6,0,P|184:160|184:48,1,140,4|8,0:0|0:1,0:0:0:0:
256,56,112863,2,0,L|376:172,1,140,0|0,0:0|0:0,0:0:0:0:
356,231,113363,2,0,L|256:328,1,140,8|0,0:0|0:0,0:0:0:0:
196,376,113863,2,0,P|160:376|84:304,1,140,0|0,0:0|0:0,0:0:0:0:
84,232,114363,2,0,L|160:240,1,70,0|0,0:0|0:0,0:0:0:0:
84,152,114697,2,0,L|160:144,1,70,8|0,0:0|0:0,0:0:0:0:
216,192,115030,6,0,L|384:192,3,140,6|8|2|8,0:0|0:0|0:0|0:0,0:0:0:0:
376,344,116363,2,0,P|316:296|132:352,1,280,2|0,0:0|0:0,0:0:0:0:
116,192,117363,1,8,0:0:0:0:
256,124,117697,6,0,L|256:19,1,105,0|0,0:0|0:0,0:0:0:0:
348,192,118197,2,0,L|464:192,1,105,0|0,0:0|0:0,0:0:0:0:
256,260,118697,2,0,P|216:260|136:300,1,105,0|0,0:0|0:0,0:0:0:0:
120,296,119030,2,0,L|64:296,8,35
372,116,120363,6,0,P|404:116|460:152,1,70,2|0,1:2|0:0,0:0:0:0:
484,192,120697,1,2,1:2:0:0:
438,253,120863,2,0,P|406:267|372:268,1,70,0|0,0:0|0:0,0:0:0:0:
312,316,121197,2,0,P|272:316|188:232,1,140,2|0,1:2|0:0,0:0:0:0:
152,192,121697,1,0,0:0:0:0:
196,127,121863,1,0,0:0:0:0:
336,192,122197,1,2,0:3:0:0:
336,192,122530,1,2,0:3:0:0:
288,252,122697,2,0,P|260:252|212:280,1,70,2|0,1:2|0:0,0:0:0:0:
148,288,123030,6,0,L|80:236,1,70,0|0,0:0|0:0,0:0:0:0:
36,192,123363,1,2,1:2:0:0:
92,138,123530,2,0,L|148:96,1,70,0|0,0:0|0:0,0:0:0:0:
224,96,123863,1,0,0:0:0:0:
300,96,124030,2,0,P|344:96|420:28,1,140,2|0,1:2|0:0,0:0:0:0:
492,36,124530,2,0,L|492:176,2,140,0|2|2,0:0|0:3|0:3,0:0:0:0:
336,36,125530,6,0,L|264:36,1,70,0|0,0:0|1:0,0:0:0:0:
188,36,125863,1,0,0:0:0:0:
132,92,126030,2,0,L|60:92,1,70,2|0,1:2|0:0,0:0:0:0:
60,168,126363,2,0,P|60:208|160:248,1,140,0|2,0:0|1:2,0:0:0:0:
180,192,126863,1,0,0:0:0:0:
216,124,127030,5,2,0:2:0:0:
296,124,127197,1,2,0:2:0:0:
332,192,127363,1,2,0:0:0:0:
376,256,127530,1,2,0:2:0:0:
376,256,127697,2,0,P|439:233|454:168,1,140,0|0,0:0|0:0,0:0:0:0:
308,112,128363,6,0,P|252:112|176:48,1,140,0|0,0:0|0:0,0:0:0:0:
128,12,128863,2,0,L|72:156,1,140,0|0,0:0|0:0,0:0:0:0:
76,220,129363,6,0,P|112:220|200:276,1,140,4|0,0:0|0:0,0:0:0:0:
272,296,129863,2,0,P|308:296|388:220,1,140,4|0,0:0|0:0,0:0:0:0:
384,151,130363,2,0,P|339:99|272:88,1,140,4|4,0:0|0:0,0:0:0:0:
256,264,131030,5,0,0:0:0:0:
208,324,131197,2,0,P|176:336|128:336,1,70,0|8,0:0|0:0,0:0:0:0:
67,311,131530,2,0,P|64:340|64:364,2,35,8|0|8,0:3|0:3|0:3,0:3:0:0:
48,236,131863,1,0,0:0:0:0:
68,160,132030,2,0,P|112:160|148:132,1,70,8|0,0:0|0:0,0:0:0:0:
188,92,132363,2,0,L|336:164,1,140,0|8,0:0|0:0,0:0:0:0:
314,230,132863,2,0,L|188:292,1,140,8|0,0:3|0:0,0:0:0:0:
148,356,133363,2,0,P|180:364|224:360,1,70,8|0,0:0|0:0,0:0:0:0:
296,356,133697,6,0,P|324:356|368:336,1,70
432,304,134030,2,0,L|484:252,1,70,8|8,0:0|0:3,0:0:0:0:
436,188,134363,2,0,P|392:188|308:124,1,140,8|8,0:3|0:0,0:0:0:0:
256,84,134863,1,0,0:0:0:0:
198,135,135030,2,0,P|145:180|76:188,1,140,0|8,0:0|0:0,0:0:0:0:
36,124,135530,2,0,L|36:292,1,140,8|0,0:3|0:0,0:0:0:0:
76,332,136030,2,0,L|168:336,1,70,8|0,0:0|0:0,0:0:0:0:
216,308,136363,5,0,0:0:0:0:
296,308,136530,1,0,0:0:0:0:
367,335,136697,2,0,L|436:332,1,70,8|0,0:0|0:3,0:0:0:0:
468,260,137030,2,0,P|432:188|484:148,1,140,0|8,0:3|0:0,0:0:0:0:
464,76,137530,1,0,0:0:0:0:
408,24,137697,2,0,L|284:112,1,140,0|8,0:0|0:0,0:0:0:0:
219,105,138197,2,0,L|104:24,1,140,0|0,0:3|0:0,0:0:0:0:
52,80,138697,2,0,L|52:160,1,70,8|0,0:0|0:0,0:0:0:0:
108,200,139030,6,0,L|108:280,1,70,0|0,0:0|0:0,0:0:0:0:
168,316,139363,1,8,0:0:0:0:
240,340,139530,1,8,0:3:0:0:
316,340,139697,2,0,P|340:340|384:244,1,140,8|8,0:3|0:0,0:0:0:0:
340,192,140197,1,0,0:0:0:0:
388,133,140363,2,0,P|379:67|316:43,2,140,0|8|0,0:0|0:0|0:0,0:0:0:0:
448,184,141197,2,0,L|448:260,1,70,0|8,0:0|0:0,0:0:0:0:
448,332,141530,1,0,0:0:0:0:
372,332,141697,6,0,P|336:296|116:296,1,280,4|2,0:1|0:2,0:0:0:0:
372,52,143030,2,0,P|336:88|116:88,1,280,0|4,0:0|0:1,0:0:0:0:
420,192,144363,5,4,0:1:0:0:
92,192,145697,1,4,0:1:0:0:
256,192,152363,12,2,157697,0:0:0:0:
256,80,158030,6,0,P|296:80|380:152,1,140,0|2,0:0|0:0,0:0:0:0:
428,192,158530,1,0,0:0:0:0:
373,246,158697,2,0,P|324:294|256:304,2,140,0|0|0,0:0|0:0|0:0,0:0:0:0:
228,192,159697,2,0,L|64:192,2,140,2|0|0,0:0|0:0|0:0,0:0:0:0:
256,40,160697,1,0,0:0:0:0:
380,132,161030,6,0,L|424:192,1,70,2|0,0:0|0:0,0:0:0:0:
420,264,161363,2,0,P|420:296|332:352,1,140,0|0,0:0|0:0,0:0:0:0:
256,224,162030,1,0,0:0:0:0:
90,188,162363,2,0,L|132:132,1,70,2|2,0:0|0:0,0:0:0:0:
192,80,162697,2,0,P|224:80|324:24,1,140,0|2,0:0|0:0,0:0:0:0:
460,88,163363,6,0,L|496:164,1,70,2|0,0:0|0:0,0:0:0:0:
481,283,163697,2,0,L|452:220,1,70,2|0,0:0|0:0,0:0:0:0:
346,156,164030,2,0,L|376:220,1,70,0|0,0:0|0:0,0:0:0:0:
332,284,164363,2,0,P|292:312|200:312,1,140,0|0,0:0|0:0,0:0:0:0:
128,312,164863,2,0,L|100:224,1,70,0|2,0:0|0:0,0:0:0:0:
256,204,165363,1,0,0:0:0:0:
405,245,165697,6,0,L|384:312,2,70,0|0|0,0:0|0:0|0:0,0:0:0:0:
404,92,166363,1,2,0:0:0:0:
336,56,166530,2,0,P|300:56|200:116,1,140,0|0,0:0|0:0,0:0:0:0:
160,164,167030,2,0,B|160:232|160:232|112:292,1,140,0|0,0:0|0:0,0:0:0:0:
256,348,167697,2,0,L|256:264,2,70,2|2|0,0:0|0:0|0:0,0:0:0:0:
396,288,168363,6,0,B|352:232|352:232|352:164,1,140,2|0,0:0|0:0,0:0:0:0:
220,84,169030,2,0,L|144:116,1,70,2|0,0:0|0:0,0:0:0:0:
88,148,169363,2,0,P|64:176|64:280,1,140,0|0,0:0|0:0,0:0:0:0:
204,332,170030,1,0,0:0:0:0:
356,328,170363,2,0,P|392:304|392:196,1,140,2|0,0:0|0:0,0:0:0:0:
368,144,170863,2,0,L|320:68,1,70,0|0,0:0|0:0,0:0:0:0:
256,220,171363,5,0,0:0:0:0:
144,144,171697,2,0,L|181:84,2,70,2|0|0,0:0|0:0|0:0,0:0:0:0:
148,296,172363,2,0,P|172:320|224:328,1,70,0|0,0:0|0:0,0:0:0:0:
284,316,172697,2,0,P|328:316|396:248,1,140,0|2,0:0|0:0,0:0:0:0:
348,192,173197,1,2,0:0:0:0:
394,130,173363,2,0,P|351:77|284:68,1,140,0|2,0:0|0:0,0:0:0:0:
128,68,174030,6,0,P|96:108|96:216,1,140,0|2,0:0|0:0,0:0:0:0:
124,264,174530,1,0,0:0:0:0:
180,320,174697,2,0,P|232:320|312:264,1,140,0|0,0:0|0:0,0:0:0:0:
436,192,175363,1,0,0:0:0:0:
304,109,175697,2,0,P|248:68|180:64,1,140,2|0,0:0|0:0,0:0:0:0:
192,216,176363,6,0,P|192:260|112:316,2,140,2|0|2,0:0|0:0|0:0,0:0:0:0:
256,172,177197,1,0,0:0:0:0:
320,216,177363,2,0,P|320:260|400:316,1,140,0|0,0:0|0:0,0:0:0:0:
440,256,177863,1,0,0:0:0:0:
440,180,178030,2,0,P|440:128|388:56,1,140,0|2,0:0|0:0,0:0:0:0:
312,56,178530,2,0,L|260:112,1,70,2|2,0:0|0:0,0:0:0:0:
144,204,179030,6,2,B|256:288|256:288|368:204,1,280,0|0,0:0|0:0,0:0:0:0:
256,100,180030,1,2,0:0:0:0:
116,40,180363,2,0,L|24:176,2,140,0|0|2,0:0|0:0|0:0,0:0:0:0:
256,100,181363,1,0,0:0:0:0:
396,40,181697,2,0,L|488:176,1,140,0|0,0:0|0:0,0:0:0:0:
468,308,182363,6,0,L|392:324,1,70,2|0,0:0|0:0,0:0:0:0:
320,320,182697,2,0,B|240:320|240:320|156:280,1,140,0|0,0:0|0:0,0:0:0:0:
72,192,183363,1,0,0:0:0:0:
192,64,183697,1,2,0:0:0:0:
192,64,183863,1,2,0:0:0:0:
192,64,184030,2,0,B|272:64|272:64|326:89,1,140,0|2,0:0|0:0,0:0:0:0:
372,236,184697,6,0,L|418:288,1,70,0|0,0:0|0:0,0:0:0:0:
296,256,185030,2,0,L|321:321,1,70,0|0,0:0|0:0,0:0:0:0:
216,256,185363,2,0,L|190:321,1,70,0|0,0:0|0:0,0:0:0:0:
140,236,185697,2,0,L|93:288,1,70,0|0,0:0|0:0,0:0:0:0:
140,148,186030,2,0,L|93:95,1,70,0|0,0:0|0:0,0:0:0:0:
48,36,186363,5,2,0:0:0:0:
48,36,187030,1,0,0:0:0:0:
256,192,187197,12,2,197363,0:0:0:0:
256,192,197697,5,4,0:0:0:0:
220,44,198030,2,0,L|187:105,1,70,8|0,0:0|0:0,0:0:0:0:
292,44,198363,2,0,L|324:105,1,70,0|0,0:0|0:0,0:0:0:0:
256,144,198697,2,0,L|256:240,1,70,8|0,0:0|0:0,0:0:0:0:
280,288,199030,2,0,P|324:288|404:220,1,140,0|8,0:0|0:0,0:0:0:0:
398,151,199530,2,0,P|348:104|280:96,1,140,0|0,0:0|0:0,0:0:0:0:
240,28,200030,2,0,L|240:196,1,140,8|2,0:0|0:0,0:0:0:0:
256,244,200530,5,0,0:0:0:0:
324,288,200697,2,0,L|284:368,1,70,8|0,0:0|0:0,0:0:0:0:
219,350,201030,2,0,L|188:288,1,70,2|0,0:0|0:0,0:0:0:0:
116,256,201363,2,0,L|116:176,1,70,8|0,0:0|0:0,0:0:0:0:
116,108,201697,2,0,P|116:104|232:88,1,140,2|8,0:0|0:0,0:0:0:0:
295,62,202197,2,0,P|361:51|396:108,1,140,2|0,0:0|0:0,0:0:0:0:
396,184,202697,1,10,0:0:0:0:
360,252,202863,1,0,0:0:0:0:
288,276,203030,6,0,P|244:276|140:332,1,140,6|8,0:0|0:0,0:0:0:0:
96,364,203530,2,0,L|40:220,1,140,0|0,0:0|0:0,0:0:0:0:
45,150,204030,2,0,L|96:20,1,140,8|0,0:0|0:0,0:0:0:0:
172,16,204530,1,0,0:0:0:0:
240,52,204697,1,8,0:0:0:0:
316,52,204863,2,0,P|316:84|404:148,1,140,0|0,0:0|0:0,0:0:0:0:
456,192,205363,1,8,0:0:0:0:
392,236,205530,1,0,0:0:0:0:
320,268,205697,6,0,B|264:268|240:288|240:288|172:288,1,140,2|8,0:0|0:0,0:0:0:0:
320,116,206363,2,0,B|264:116|240:96|240:96|172:96,1,140,2|8,0:0|0:0,0:0:0:0:
64,192,207030,6,0,L|356:192,2,280,2|2|6,0:0|0:0|0:0,0:0:0:0:
64,268,208530,1,0,0:0:0:0:
116,324,208697,2,0,P|144:324|196:356,1,70,8|0,0:0|0:0,0:0:0:0:
260,340,209030,2,0,P|304:340|344:252,1,140,0|8,0:0|0:0,0:0:0:0:
380,192,209530,1,0,0:0:0:0:
347,119,209697,2,0,P|325:56|260:44,1,140,0|8,0:0|0:0,0:0:0:0:
256,120,210197,2,0,L|108:120,1,140,0|0,0:0|0:0,0:0:0:0:
68,60,210697,2,0,L|68:220,1,140,8|2,0:0|0:0,0:0:0:0:
72,276,211197,5,0,0:0:0:0:
124,332,211363,2,0,P|164:332|204:296,1,70,8|0,0:0|0:0,0:0:0:0:
256,276,211697,1,2,0:0:0:0:
256,276,211780,1,0,0:0:0:0:
256,276,211863,1,0,0:0:0:0:
322,317,212030,2,0,P|353:333|388:332,1,70,8|0,0:0|0:0,0:0:0:0:
464,332,212363,2,0,L|464:176,1,140,0|8,0:0|0:0,0:0:0:0:
464,116,212863,2,0,P|432:116|340:172,1,140,2|0,0:0|0:0,0:0:0:0:
288,224,213363,2,0,B|256:237|256:237|212:220,1,70,10|0,0:0|0:0,0:0:0:0:
170,169,213697,6,0,P|116:125|48:116,1,140,4|8,0:0|0:0,0:0:0:0:
48,192,214197,2,0,P|48:220|128:316,1,140,0|0,0:0|0:0,0:0:0:0:
188,308,214697,2,0,P|256:308|348:352,1,140,8|0,0:0|0:0,0:0:0:0:
396,308,215197,2,0,L|524:224,1,140,0|0,0:0|0:0,0:0:0:0:
512,152,215697,2,0,L|396:76,1,140,0|8,0:0|0:0,0:0:0:0:
320,76,216197,1,0,0:0:0:0:
256,120,216363,6,0,P|212:120|128:56,1,140,0|8,0:0|0:0,0:0:0:0:
256,264,217030,2,0,P|212:264|128:328,1,140,0|8,0:0|0:0,0:0:0:0:
256,192,217697,12,0,218697,0:0:0:0:
100,196,219030,6,0,P|132:196|172:160,1,70,4|4,0:0|0:0,0:0:0:0:
216,120,219363,2,0,L|200:80,2,35,8|0|0,0:0|0:0|0:0,0:0:0:0:
292,120,219697,1,0,0:0:0:0:
349,175,219863,1,0,0:0:0:0:
424,192,220030,1,8,0:0:0:0:
424,192,220113,1,0,0:0:0:0:
424,192,220197,1,0,0:0:0:0:
408,272,220363,6,0,L|352:332,1,70,0|0,0:0|0:0,0:0:0:0:
240,351,220697,2,0,L|288:300,1,70,8|0,0:0|0:0,0:0:0:0:
256,232,221030,1,0,0:0:0:0:
212,168,221197,1,4,0:0:0:0:
256,104,221363,1,12,0:0:0:0:
256,28,221530,1,0,0:0:0:0:
188,64,221697,6,0,L|128:120,2,70,4|0|8,0:0|0:0|0:0,0:0:0:0:
256,104,222197,1,0,0:0:0:0:
324,64,222363,1,0,0:0:0:0:
324,64,222447,1,0,0:0:0:0:
324,64,222530,2,0,L|384:120,1,70,0|8,0:0|0:0,0:0:0:0:
428,168,222863,1,0,0:0:0:0:
428,244,223030,2,0,P|400:244|284:312,1,140,0|8,0:0|0:0,0:0:0:0:
256,352,223530,1,0,0:0:0:0:
210,291,223697,2,0,P|152:253|84:244,1,140,0|8,0:0|0:1,0:0:0:0:
28,192,224197,1,2,0:2:0:0:
88,144,224363,6,0,L|77:74,1,70,4|0,0:0|0:0,0:0:0:0:
164,140,224697,2,0,L|153:70,1,70,8|0,0:0|0:0,0:0:0:0:
220,196,225030,2,0,L|200:284,1,70,0|0,0:0|0:0,0:0:0:0:
292,196,225363,2,0,L|312:284,1,70,8|0,0:0|0:0,0:0:0:0:
348,140,225697,2,0,L|358:70,1,70,0|0,0:0|0:0,0:0:0:0:
408,192,226030,2,0,L|504:192,1,70,8|0,0:0|0:0,0:0:0:0:
476,268,226363,1,0,0:0:0:0:
432,332,226530,1,0,0:0:0:0:
356,332,226697,1,12,0:0:0:0:
316,268,226863,1,0,0:0:0:0:
256,220,227030,6,0,L|256:144,1,70,4|0,0:0|0:0,0:0:0:0:
332,132,227363,2,0,L|292:72,1,70,8|0,0:0|0:0,0:0:0:0:
218,73,227697,1,0,0:0:0:0:
218,73,227780,1,0,0:0:0:0:
218,73,227863,2,0,L|180:132,1,70,0|12,0:0|0:0,0:0:0:0:
148,200,228197,1,0,0:0:0:0:
148,200,228363,2,0,P|148:244|216:316,1,140,0|12,0:0|0:0,0:0:0:0:
256,376,228863,1,0,0:0:0:0:
303,313,229030,2,0,P|355:267|364:200,1,140,0|8,0:0|0:0,0:0:0:0:
96,120,229697,6,0,P|140:120|228:200,1,140,4|8,0:0|0:0,0:0:0:0:
295,173,230197,2,0,P|347:127|416:120,1,140,0|0,0:0|0:0,0:0:0:0:
480,164,230697,2,0,B|480:236|480:236|416:304,1,140,8|0,0:0|0:0,0:0:0:0:
364,316,231197,1,0,0:0:0:0:
288,316,231363,2,0,P|248:316|136:264,1,140,8|0,0:0|0:0,0:0:0:0:
48,172,232030,6,0,P|92:172|176:96,1,140,8|2,0:0|0:0,0:0:0:0:
216,56,232530,1,0,0:0:0:0:
256,120,232697,2,0,L|256:200,2,70,8|0|2,0:0|0:0|0:0,0:0:0:0:
296,56,233197,1,0,0:0:0:0:
372,56,233363,2,0,P|396:56|440:24,1,70,8|0,0:0|0:0,0:0:0:0:
512,32,233697,2,0,P|512:68|444:160,1,140,2|8,0:0|0:0,0:0:0:0:
457,231,234197,2,0,P|502:283|512:352,1,140,2|0,0:0|0:0,0:0:0:0:
434,351,234697,2,0,P|406:330|372:328,1,70,10|0,0:0|0:0,0:0:0:0:
296,312,235030,6,0,P|264:312|168:240,1,140,0|8,0:0|0:0,0:0:0:0:
140,188,235530,2,0,P|140:148|244:116,1,140,0|0,0:0|0:0,0:0:0:0:
293,103,236030,2,0,P|357:122|372:188,1,140,8|0,0:0|0:0,0:0:0:0:
356,264,236530,2,0,L|336:340,1,70,0|8,0:0|0:0,0:0:0:0:
208,248,237030,2,0,P|168:232|120:236,1,70,0|0,0:0|0:0,0:0:0:0:
141,152,237363,2,0,P|176:150|208:136,1,70,8|0,0:0|0:0,0:0:0:0:
256,76,237697,6,0,P|288:76|392:156,1,140,2|8,0:0|0:0,0:0:0:0:
256,308,238363,2,0,P|288:308|392:228,1,140,2|8,0:0|0:0,0:0:0:0:
272,140,239030,2,0,P|245:118|211:111,1,70,2|0,0:0|0:0,0:0:0:0:
142,192,239363,2,0,L|212:192,1,70,8|0,0:0|0:0,0:0:0:0:
272,243,239697,2,0,P|245:265|211:272,1,70,0|0,0:0|0:0,0:0:0:0:
238,343,240030,2,0,P|272:337|300:316,1,70,8|0,0:0|2:0,0:0:0:0:
356,260,240363,5,2,0:0:0:0:
116,72,242363,1,2,2:0:0:0:
396,72,243030,5,2,2:0:0:0:
256,192,243113,12,0,249697,0:0:0:0:
