osu file format v14

[General]
AudioFilename: Erasus.mp3
AudioLeadIn: 2000
PreviewTime: 37697
Countdown: 0
SampleSet: Normal
StackLeniency: 0.7
Mode: 0
LetterboxInBreaks: 0
WidescreenStoryboard: 0

[Editor]
Bookmarks: 5697,11030,21697,25030,27030,29863,32363,43030,64363,73363,75030,85697,91030,93697,96363,117697,120363,127030,128363,131030,141697,147030,163030,187030,197697,217697,219030,229697,240363,243030
DistanceSpacing: 1.2
BeatDivisor: 4
GridSize: 32
TimelineZoom: 1.3

[Metadata]
Title:Erasus
TitleUnicode:Erasus
Artist:Subkulture feat. Klayton of Celldweller
ArtistUnicode:Subkulture feat. Klayton of Celldweller
Creator:ErunamoJAZZ
Version:Normal
Source:
Tags:Nyukai Nyu-chan Inyuschan Kurokami xtrem3x Erase Us DotA2 DotaCinema CS Counter Strike Source Drum and Bass dnb Techno Trance Metal amazing noob never forget my real first rank thanks
BeatmapID:313960
BeatmapSetID:107979

[Difficulty]
HPDrainRate:4
CircleSize:3
OverallDifficulty:4
ApproachRate:5.5
SliderMultiplier:1
SliderTickRate:1

[Events]
//Background and Video events
0,0,"bg_erasus.png",0,0
//Break Periods
2,147230,161905
//Storyboard Layer 0 (Background)
//Storyboard Layer 1 (Fail)
//Storyboard Layer 2 (Pass)
//Storyboard Layer 3 (Foreground)
//Storyboard Sound Samples

[TimingPoints]
364,333.333333333333,4,1,0,20,1,0
11030,-100,4,2,0,50,0,0
21863,-100,4,1,0,30,0,0
25030,-100,4,1,0,45,0,0
25363,-100,4,1,0,50,0,0
27030,-100,4,1,0,30,0,0
30030,-100,4,1,0,50,0,0
32363,-100,4,1,0,30,0,0
36030,-100,4,1,0,50,0,0
37197,-100,4,1,0,40,0,0
43030,-100,4,1,0,50,0,1
64363,-100,4,1,0,50,0,0
73363,-100,4,1,0,50,0,1
75030,-100,4,1,0,40,0,0
85697,-100,4,1,0,50,0,0
96363,-100,4,1,0,50,0,1
117697,-100,4,1,0,50,0,0
127030,-100,4,1,0,30,0,0
129363,-100,4,1,0,50,0,1
131030,-100,4,1,0,50,0,0
161697,-100,4,2,0,50,0,0
178947,-100,4,2,0,30,0,0
179947,-100,4,2,0,40,0,0
180947,-100,4,2,0,50,0,0
186197,-100,4,2,0,40,0,0
188363,-100,4,2,0,30,0,0
189030,-100,4,2,0,25,0,0
189697,-100,4,2,0,20,0,0
190363,-100,4,2,0,15,0,0
191030,-100,4,2,0,5,0,0
197697,-100,4,1,0,50,0,1
217697,-100,4,1,0,50,0,0
219030,-100,4,1,0,50,0,1
240363,-100,4,2,0,50,0,0
243363,-100,4,2,0,10,0,0

[Colours]
Combo1 : 179,129,13
Combo2 : 0,83,166
Combo3 : 217,217,0
Combo4 : 192,192,192
Combo5 : 201,24,125
Combo6 : 31,91,124

[HitObjects]
256,192,5697,5,0,0:0:0:0:
368,240,6030,2,0,P|321:297|221:309,2,150,2|2|2,0:0|0:0|0:0,0:0:0:0:
444,148,7363,2,0,L|492:184,2,50,0|0|2,0:0|0:0|0:2,0:0:0:0:
344,80,8030,1,0,0:0:0:0:
228,44,8363,6,0,P|180:40|128:72,1,100,0|2,0:0|0:0,0:0:0:0:
52,152,9030,2,0,L|12:208,1,50,0|2,0:0|0:0,0:0:0:0:
72,304,9530,2,0,L|104:256,1,50,0|2,0:0|0:0,0:0:0:0:
220,260,10030,2,0,L|166:346,2,100,0|0|0,0:0|3:0|0:2,0:0:0:0:
256,144,11030,5,4,0:1:0:0:
308,36,11363,2,0,P|350:68|374:136,1,100,0|2,0:0|0:0,0:0:0:0:
372,168,11863,2,0,P|352:216|296:256,1,100,0|2,0:0|0:0,0:0:0:0:
260,264,12363,2,0,P|192:244|140:176,2,150,0|2|2,0:0|0:0|0:0,0:0:0:0:
256,144,13697,5,0,0:0:0:0:
372,168,14030,2,0,B|412:200|412:200|412:264,1,100,2|0,0:0|0:0,0:0:0:0:
380,300,14530,2,0,B|328:304|292:344|292:344|216:344,1,150,2|0,0:0|0:0,0:0:0:0:
132,292,15363,2,0,P|92:260|76:196,1,100,2|0,0:0|0:0,0:0:0:0:
72,156,15863,2,0,B|124:136|132:84|132:84|188:68,1,150,2|0,0:0|0:0,0:0:0:0:
300,44,16697,6,0,B|352:40|352:40|397:64,1,100,2|0,0:0|0:0,0:0:0:0:
420,116,17197,1,2,0:0:0:0:
428,236,17530,2,0,L|404:288,1,50,0|0,0:0|0:0,0:0:0:0:
308,352,18030,2,0,P|256:360|204:352,1,100,2|0,0:0|0:0,0:0:0:0:
172,308,18530,1,2,0:0:0:0:
229,202,18863,6,0,L|256:160,1,50,0|0,0:0|0:0,0:0:0:0:
362,104,19363,2,0,P|330:64|282:44,1,100,2|0,0:0|0:0,0:0:0:0:
226,44,19863,2,0,P|180:64|150:103,1,100,2|0,0:0|0:0,0:0:0:0:
96,124,20363,2,0,P|77:164|89:228,1,100,2|0,0:0|0:0,0:0:0:0:
88,276,20863,2,0,P|148:304|224:276,1,150,2|2,0:0|0:0,0:0:0:0:
256,160,21697,5,4,0:1:0:0:
352,88,22030,2,0,P|412:164|404:268,1,200
304,324,23030,1,0,0:0:0:0:
184,316,23363,2,0,L|88:284,2,100
304,324,24363,1,0,0:0:0:0:
384,240,24697,1,2,0:2:0:0:
320,140,25030,6,0,B|332:120|332:120|332:92,2,50,2|0|0,3:1|3:1|3:1,0:0:0:0:
234,225,25697,2,0,B|214:213|214:213|186:213,2,50,2|0|0,3:1|3:1|3:1,0:0:0:0:
304,324,26363,2,0,P|396:300|436:208,1,200,0|4,0:0|0:1,0:0:0:0:
412,92,27363,5,0,0:0:0:0:
292,96,27697,2,0,L|180:36,1,100,2|0,0:2|0:0,0:0:0:0:
224,168,28363,2,0,L|336:228,1,100,2|0,0:2|0:0,0:0:0:0:
304,336,29030,2,0,L|116:236,1,200
148,116,30030,6,0,L|112:180,1,50,0|2,0:0|0:0,0:0:0:0:
236,212,30530,2,0,L|264:156,1,50,0|2,0:0|0:0,0:0:0:0:
252,48,31030,2,2,L|184:12,2,50,0|2|2,0:0|0:0|0:0,0:0:0:0:
360,104,31697,2,0,B|396:68|396:68|456:68,2,100,0|0|4,0:0|0:0|2:1,0:0:0:0:
304,212,32697,5,0,0:0:0:0:
184,212,33030,1,0,0:0:0:0:
147,326,33363,2,0,P|191:334|243:318,1,100,0|2,0:0|0:2,0:0:0:0:
304,212,34030,1,0,0:0:0:0:
220,128,34363,2,0,P|315:92|396:140,1,200
430,252,35363,1,2,0:2:0:0:
343,335,35697,1,0,0:0:0:0:
223,336,36030,5,0,0:0:0:0:
118,276,36363,2,2,P|102:228|113:178,1,100
220,128,37030,1,0,0:0:0:0:
336,100,37363,1,0,0:0:0:0:
412,192,37697,5,2,2:1:0:0:
368,304,38030,1,0,0:0:0:0:
256,268,38363,2,0,L|256:192,2,50
144,304,39030,1,2,2:1:0:0:
100,192,39363,1,0,0:0:0:0:
164,90,39697,2,0,P|257:57|348:90,1,200
256,192,40697,12,4,43030,0:0:0:0:
173,109,44030,5,0,0:0:0:0:
256,20,44363,2,0,P|332:20|380:88,2,150,2|0|0,0:2|0:0|0:0,0:0:0:0:
173,109,45697,2,2,B|159:150|173:192|214:205|256:192|256:192|297:178|338:192|352:233|338:274,1,300,2|0,0:0|0:0,0:0:0:0:
256,364,47030,2,0,P|180:364|132:296,2,150,2|2|2,0:0|0:0|0:0,0:0:0:0:
338,272,48363,5,4,0:1:0:0:
221,240,48697,1,0,0:2:0:0:
221,240,48864,2,0,P|260:177|329:148,1,150,2|2,0:2|0:2,0:0:0:0:
422,228,49697,1,0,0:2:0:0:
422,228,49863,2,8,P|450:160|429:88,1,150,2|2,0:2|0:2,0:2:0:0:
387,46,50531,1,2,0:2:0:0:
228,128,51030,6,2,P|129:129|54:219,1,200
179,248,52030,1,0,0:0:0:0:
130,367,52363,2,2,P|227:366|297:297,1,200,2|2,0:2|0:0,0:0:0:0:
124,132,53697,5,4,0:1:0:0:
12,176,54030,1,0,0:0:0:0:
12,176,54197,2,0,P|12:92|60:32,1,150,2|0,0:2|0:0,0:0:0:0:
168,52,55030,2,0,B|240:80|240:40|316:60,1,150,2|0,0:2|0:0,0:0:0:0:
273,237,56030,6,2,P|242:257|169:251,2,100,0|2|2,0:0|0:0|0:0,0:0:0:0:
373,171,57030,2,0,P|411:155|475:163,1,100,2|2,0:0|0:0,0:0:0:0:
432,276,57697,2,2,P|402:338|329:376,2,150
313,254,59030,5,4,0:0:0:0:
197,287,59363,1,2,0:0:0:0:
197,287,59530,2,0,P|197:218|250:152,1,150,2|2,0:0|0:0,0:0:0:0:
332,74,60363,2,2,P|282:43|228:38,1,100,0|2,0:0|0:0,0:0:0:0:
124,66,61030,2,0,L|88:24,2,50,2|2|0,0:0|0:0|0:0,0:0:0:0:
77,177,61697,6,0,P|107:264|204:315,1,200,6|0,0:0|0:0,0:0:0:0:
316,296,62697,1,0,0:0:0:0:
256,192,63030,12,8,64363,0:3:0:0:
316,296,65363,6,0,L|380:252,2,50
196,296,66030,2,0,P|152:278|120:234,2,100,0|0|2,0:0|0:0|0:2,0:0:0:0:
227,179,67030,6,0,P|197:139|152:120,1,100,0|2,0:0|0:2,0:0:0:0:
47,178,67697,2,0,P|76:217|122:237,1,100,0|2,0:0|0:2,0:0:0:0:
180,244,68197,1,2,0:2:0:0:
296,220,68530,1,0,0:0:0:0:
352,324,68863,1,0,0:0:0:0:
457,263,69197,2,0,P|471:212|451:145,1,100
409,138,69697,5,0,0:0:0:0:
295,99,70030,2,0,P|235:94|187:120,2,100,0|0|2,0:0|0:0|0:2,0:0:0:0:
260,212,71030,1,0,0:0:0:0:
276,332,71363,1,0,0:0:0:0:
260,212,71697,2,0,P|304:213|364:251,2,100
184,304,72697,5,2,0:2:0:0:
132,196,73030,2,0,P|143:148|180:108,1,100,0|4,0:0|0:0,0:0:0:0:
352,80,73863,1,4,0:0:0:0:
284,248,74363,1,0,0:0:0:0:
380,320,74697,1,4,0:0:0:0:
472,243,75030,6,0,P|493:267|498:299,2,50
421,212,75530,1,2,0:2:0:0:
365,188,75697,2,0,P|320:168|280:138,1,100,2|8,0:2|0:0,0:0:0:0:
196,56,76363,2,0,P|173:80|168:112,2,50
228,108,76863,2,0,P|232:183|216:256,1,150,2|8,0:2|0:0,0:0:0:0:
96,244,77697,6,0,P|100:296|144:348,1,100,0|2,0:0|0:2,0:0:0:0:
240,372,78363,2,0,P|288:352|325:295,1,100,0|8,0:0|0:0,0:0:0:0:
328,196,79030,1,0,0:0:0:0:
444,220,79363,2,0,P|448:196|441:165,2,50
408,268,79863,1,0,0:0:0:0:
352,292,80030,2,0,P|288:280|236:288,1,100,8|2,0:0|0:2,0:0:0:0:
132,284,80697,6,0,P|136:244|100:176,1,100,0|2,0:0|0:2,0:0:0:0:
68,80,81363,2,0,L|12:44,2,50,0|0|2,0:0|0:0|0:2,0:0:0:0:
172,140,82030,1,2,0:2:0:0:
280,188,82363,2,0,P|331:172|368:129,1,100,2|0,0:2|0:0,0:0:0:0:
451,57,83030,6,0,L|444:8,2,50,2|0|2,0:2|0:0|0:2,0:0:0:0:
462,176,83697,2,0,P|478:232|506:276,1,100,2|0,0:2|0:0,0:0:0:0:
495,327,84197,2,0,P|467:327|431:343,1,50,0|2,0:0|0:2,0:0:0:0:
328,344,84697,2,0,B|268:340|244:296|244:296|244:248|296:208,1,200
352,112,85697,5,4,0:1:0:0:
352,112,87697,2,0,B|256:152|256:64|160:112,1,200,4|4,0:1|0:1,2:2:0:0:
160,112,89697,1,4,0:0:0:0:
164,192,91030,6,0,L|112:264,2,66.6666666666667
220,168,91697,2,0,L|272:96,2,66.6666666666667
252,220,92363,2,0,L|200:292,2,66.6666666666667
312,204,93030,2,0,L|364:132,2,66.6666666666667
308,264,93697,1,2,2:0:0:0:
256,192,95030,12,4,96363,0:0:0:0:
356,204,97363,5,0,0:0:0:0:
262,279,97697,2,0,P|189:292|123:259,1,150,2|0,0:2|0:0,0:0:0:0:
111,82,98697,1,0,0:0:0:0:
212,17,99030,6,2,B|308:41|308:41|256:109|296:189|360:205,1,300
476,217,100363,1,10,0:0:0:0:
476,217,100697,2,0,P|469:160|441:119,2,100,0|8|2,0:0|0:0|0:2,0:0:0:0:
404,313,101697,6,2,P|352:327|298:309,1,100,6|2,0:0|0:0,0:0:0:0:
255,288,102197,1,2,0:0:0:0:
78,323,102697,2,2,P|39:290|19:218,1,100
35,187,103197,1,2,0:0:0:0:
148,48,103697,2,0,L|118:8,2,50,0|2|2,0:0|0:0|0:0,0:0:0:0:
223,141,104363,6,0,P|312:141|448:298,1,300,4|8,0:0|0:0,0:0:0:0:
348,354,105697,2,0,P|259:334|185:255,1,200
112,162,106697,1,8,0:0:0:0:
148,48,107030,6,0,P|84:44|38:75,2,100,2|0|0,0:2|0:0|0:0,0:0:0:0:
236,128,108030,1,0,0:0:0:0:
324,48,108363,2,0,P|385:29|439:53,2,100,2|0|0,0:2|0:0|0:0,0:0:0:0:
236,128,109363,1,0,0:0:0:0:
156,216,109697,6,2,P|124:244|64:260,1,100,2|10,0:0|0:0,0:0:0:0:
180,308,110363,2,2,P|228:328|272:380,1,100,2|10,0:0|0:0,0:0:0:0:
272,240,111030,1,2,0:0:0:0:
272,240,111363,2,2,P|252:192|264:124,2,100,10|2|10,0:0|0:0|0:0,0:0:0:0:
336,344,112363,6,0,P|391:273|369:168,1,200,4|0,0:0|0:0,0:0:0:0:
331,57,113363,2,0,P|391:49|443:81,2,100,2|0|2,0:2|0:0|0:2,0:0:0:0:
256,152,114363,1,0,0:0:0:0:
96,332,115030,6,0,B|192:332|256:228|256:228|320:332|416:332,1,400
256,152,117030,1,0,0:0:0:0:
256,192,117697,12,2,120363,3:2:0:0:
84,264,121363,5,2,1:2:0:0:
200,234,121697,2,0,P|250:236|295:255,1,100,2|0,0:2|0:2,0:2:0:0:
349,284,122197,2,0,P|382:232|378:177,2,100,0|0|0,0:0|0:0|0:0,0:0:0:0:
300,319,123030,5,2,0:2:0:0:
272,204,123363,2,0,L|241:108,1,100
328,28,124030,2,0,L|361:128,1,100
372,240,124697,1,0,0:0:0:0:
424,268,124863,2,0,B|447:289|447:289|462:319|462:319|493:345,2,100,2|2|0,0:2|0:2|0:0,0:0:0:0:
372,240,125697,5,0,0:0:0:0:
256,216,126030,1,0,0:0:0:0:
140,240,126363,2,0,P|92:268|60:316,1,100
68,184,127030,1,0,0:0:0:0:
68,184,127363,2,0,P|38:156|20:97,2,100,0|0|0,0:0|0:0|0:0,2:0:0:0:
184,156,128363,5,0,0:0:0:0:
300,120,128697,2,0,P|300:184|268:240,1,100
253,266,129197,1,0,0:0:0:0:
280,320,129363,6,0,P|316:344|392:348,1,100,4|0,0:0|0:0,0:0:0:0:
428,336,129863,2,0,P|460:268|448:176,1,150,4|0,0:0|0:0,0:0:0:0:
414,81,130697,1,0,0:0:0:0:
300,120,131030,6,0,B|308:149|308:149|324:176,1,50,0|4,0:0|0:0,0:0:0:0:
340,224,131363,2,0,B|362:239|362:239|384:247,2,50,8|0|0,0:0|0:0|0:0,0:0:0:0:
224,184,132030,1,8,0:0:0:0:
136,104,132363,2,0,P|111:145|112:216,1,100,0|8,0:0|0:0,0:0:0:0:
128,252,132863,1,0,0:0:0:0:
164,300,133030,2,0,L|130:336,2,50,0|0|8,0:0|0:0|0:0,0:0:0:0:
256,224,133697,6,0,P|288:188|312:136,1,100,0|8,0:0|0:0,0:0:0:0:
324,84,134197,1,0,0:0:0:0:
308,28,134363,2,0,L|260:40,2,50,0|0|8,0:0|0:0|0:0,0:0:0:0:
424,52,135030,2,0,P|404:128|380:200,1,150,2|0,0:2|0:0,0:0:0:0:
336,308,135863,1,0,0:0:0:0:
215,308,136197,1,0,0:0:0:0:
155,308,136363,6,0,B|152:264|100:232|56:240|56:240|87:168,1,200,2|0,0:2|0:0,0:0:0:0:
131,69,137363,1,8,0:0:0:0:
247,39,137697,2,0,B|271:83|331:91|363:59|363:59|391:124,1,200
431,231,138697,1,8,0:0:0:0:
391,344,139030,6,0,B|340:326|319:287|310:239|310:239|239:268,1,200,2|0,0:2|0:0,0:0:0:0:
144,311,140030,1,8,0:0:0:0:
256,192,140363,12,4,141697,0:1:0:0:
352,116,143697,6,0,P|256:93|160:116,1,200,4|4,0:0|0:1,0:0:0:0:
256,336,145030,1,0,3:0:0:0:
256,96,145697,6,0,L|256:272,2,150,4|2|2,0:1|0:2|0:2,0:0:0:0:
256,96,147030,1,6,2:0:0:0:
400,148,163030,6,0,P|408:196|396:248,2,100,2|0|2,0:0|0:0|0:0,0:0:0:0:
256,192,164197,1,0,0:0:0:0:
305,50,164697,2,0,P|261:40|206:51,1,100,0|2,0:0|0:0,0:0:0:0:
72,196,165697,6,0,P|54:243|74:295,2,100,0|0|2,0:0|0:0|0:0,0:0:0:0:
216,152,166863,1,0,0:0:0:0:
216,152,167030,2,0,P|228:196|192:252,2,100,0|0|2,0:0|0:0|0:0,0:0:0:0:
184,112,167863,2,0,P|193:90|208:65,1,50,2|0,0:0|0:0,0:0:0:0:
308,64,168363,6,0,B|361:67|396:106|396:106|382:155|417:202,1,200,2|2,0:0|0:0,0:0:0:0:
480,336,169530,1,0,0:0:0:0:
330,336,170030,1,0,0:0:0:0:
230,336,170363,6,0,B|237:278|279:252|279:252|285:199|235:164,1,200,2|0,0:0|0:0,0:0:0:0:
151,119,171363,1,0,0:0:0:0:
51,134,171697,2,0,P|67:177|119:216,1,100,2|0,0:0|0:0,0:0:0:0:
156,224,172197,2,0,L|128:280,1,50
78,347,172697,1,0,0:0:0:0:
176,336,173030,2,0,L|148:392,2,50,2|2|2,0:0|0:0|0:0,0:0:0:0:
232,252,173697,5,2,0:0:0:0:
290,332,174030,2,0,P|323:294|331:245,1,100
272,164,174697,2,0,P|316:145|369:152,1,100
442,216,175363,1,0,0:0:0:0:
446,116,175697,1,2,0:0:0:0:
273,15,176363,6,0,B|229:47|185:67|185:67|197:163|69:243,1,300
153,307,177697,2,0,B|249:275|249:275|275:172|377:115,1,300
310,38,179030,6,2,B|356:57|400:10|400:10|420:65|468:77|468:77|434:133|453:174,1,300
366,121,180363,2,0,P|368:178|393:230,1,100
372,316,181030,5,2,0:0:0:0:
171,316,181697,1,0,0:0:0:0:
348,224,182363,2,0,L|397:274,2,50,2|2|2,0:0|0:0|0:0,0:0:0:0:
247,224,183030,1,0,0:0:0:0:
105,82,183697,2,0,L|52:31,2,50,2|2|2,0:0|0:0|0:0,0:0:0:0:
175,152,184363,5,2,0:0:0:0:
247,224,184697,2,0,P|298:183|312:140,2,100
175,294,185697,2,0,P|217:321|277:319,1,100
360,288,186363,5,2,0:0:0:0:
459,114,187030,1,2,0:0:0:0:
256,192,188363,12,0,196363,0:0:0:0:
256,192,197697,6,0,B|292:163|350:165|350:165|361:105|296:76,1,200,4|0,0:0|0:0,0:0:0:0:
192,56,198697,1,8,0:0:0:0:
76,92,199030,2,4,B|72:124|56:160|56:160|88:196,1,100,2|0,0:2|0:0,0:0:0:0:
132,200,199530,2,0,P|184:228|212:276,1,100,2|0,0:2|0:0,0:0:0:0:
236,312,200030,6,0,P|184:352|144:356,2,100,8|0|10,0:0|0:0|0:0,0:0:0:0:
321,226,201030,2,0,L|285:188,2,50,0|0|10,0:0|0:0|0:0,0:0:0:0:
406,311,201697,2,2,P|464:248|416:156,1,200
321,226,202697,1,8,0:0:0:0:
224,300,203030,6,0,P|196:248|204:200,1,100,4|2,0:0|0:2,0:0:0:0:
216,152,203530,1,0,0:0:0:0:
88,24,204030,2,0,P|72:60|84:140,1,100,0|2,0:0|0:2,0:0:0:0:
96,176,204530,1,0,0:0:0:0:
188,330,205030,2,0,P|167:346|134:346,1,50,0|2,0:2|0:2,0:0:0:0:
96,176,205697,6,2,P|180:77|357:77,1,300,2|10,0:0|0:0,0:0:0:0:
400,174,207030,2,2,P|385:244|278:306,1,200
184,236,208030,1,8,0:0:0:0:
216,120,208363,6,0,L|60:92,2,150,4|0|0,0:0|0:0|0:0,0:0:0:0:
184,236,209697,2,0,L|28:208,2,150
304,256,211030,5,0,0:0:0:0:
416,300,211363,2,0,P|472:264|496:228,1,100,10|0,0:0|0:0,0:0:0:0:
376,204,212030,2,0,P|320:168|296:132,1,100,10|2,0:0|0:0,0:0:0:0:
420,120,212697,2,2,P|476:84|500:48,2,100,10|2|10,0:0|0:0|0:0,0:0:0:0:
300,140,213697,5,4,0:1:0:0:
215,55,214030,2,0,P|164:80|128:128,1,100,8|0,0:0|0:0,0:0:0:0:
104,164,214530,1,0,0:0:0:0:
68,212,214697,2,0,P|84:236|88:264,1,50,8|0,0:0|0:0,0:0:0:0:
96,316,215030,6,0,P|147:322|199:346,1,100,2|8,0:2|0:0,0:0:0:0:
311,337,215697,2,0,P|356:317|406:311,1,100,0|8,0:0|0:0,0:0:0:0:
384,192,216363,2,0,P|256:124|128:192,1,300
256,192,217697,12,4,219030,0:1:0:0:
256,192,219697,6,0,L|300:160,2,50,0|0|8,0:0|0:0|0:0,0:0:0:0:
184,288,220363,2,0,P|148:252|137:200,1,100,0|8,0:0|0:0,0:0:0:0:
156,88,221030,2,0,P|180:84|208:72,1,50
264,60,221363,1,8,0:0:0:0:
384,40,221697,6,0,P|392:96|412:136,1,100,0|8,0:0|0:0,0:0:0:0:
464,240,222363,2,0,L|508:280,2,50,0|0|8,0:0|0:0|0:0,0:0:0:0:
352,192,223030,2,0,P|304:216|272:264,1,100,0|8,0:0|0:0,0:0:0:0:
224,360,223697,1,0,0:0:0:0:
205,120,224363,6,0,P|217:185|204:229,1,100,4|8,0:0|0:0,0:0:0:0:
154,323,225030,2,0,P|135:341|103:354,2,50,0|0|8,0:0|0:0|0:0,0:0:0:0:
134,204,225697,2,0,P|111:164|60:132,1,100,0|8,0:0|0:0,0:0:0:0:
184,108,226363,2,0,P|232:100|292:72,1,100,0|8,0:0|0:0,0:0:0:0:
392,36,227030,6,0,P|404:84|456:156,1,100,0|8,0:0|0:0,0:0:0:0:
460,244,227697,2,0,L|504:276,2,50,0|0|8,0:0|0:0|0:0,0:0:0:0:
340,252,228363,2,0,L|374:298,2,50,0|0|8,0:0|0:0|0:0,0:0:0:0:
224,276,229030,2,0,P|249:329|288:359,2,100,0|8|4,0:0|0:0|0:1,0:0:0:0:
196,160,230030,6,0,P|170:115|113:87,1,100
80,200,230697,2,0,P|105:244|162:272,1,100,0|2,0:0|0:2,0:0:0:0:
260,236,231363,1,0,0:0:0:0:
348,156,231697,1,0,0:0:0:0:
468,156,232030,2,0,P|488:224|480:260,1,100,2|0,0:2|0:0,0:0:0:0:
428,360,232697,6,0,L|384:256,1,100,8|0,0:0|0:0,0:0:0:0:
348,156,233363,2,0,L|400:71,2,100,8|0|8,0:0|0:0|0:0,0:0:0:0:
228,156,234363,2,0,L|280:71,2,100,0|8|4,0:0|0:0|0:0,0:0:0:0:
112,188,235363,5,8,0:0:0:0:
112,188,235530,2,0,P|116:112|184:44,1,150,2|2,0:2|0:2,0:0:0:0:
280,72,236363,1,8,0:2:0:0:
280,72,236530,2,8,P|348:120|416:112,1,150,2|2,0:2|0:2,0:2:0:0:
468,92,237197,1,2,0:2:0:0:
420,268,237697,6,0,L|452:332,2,50,0|0|10,0:0|0:0|0:1,0:0:0:0:
332,188,238363,2,0,L|372:132,2,50,0|0|10,0:0|0:0|0:0,0:0:0:0:
308,304,239030,2,0,P|260:332|208:324,1,100,0|10,0:0|0:2,0:0:0:0:
236,208,239697,1,0,0:0:0:0:
312,116,240030,1,8,0:0:0:0:
256,12,240363,5,2,2:0:0:0:
256,288,242363,2,0,B|296:208|216:176|256:88,1,200,2|2,2:0|2:0,2:0:0:0:
256,192,243363,12,0,249697,0:0:0:0:
