osu file format v14

[General]
AudioFilename: Erasus.mp3
AudioLeadIn: 2000
PreviewTime: 37697
Countdown: 0
SampleSet: Normal
StackLeniency: 0.7
Mode: 2
LetterboxInBreaks: 0
WidescreenStoryboard: 0

[Editor]
DistanceSpacing: 1.8
BeatDivisor: 4
GridSize: 16
TimelineZoom: 1

[Metadata]
Title:Erasus
TitleUnicode:Erasus
Artist:Subkulture feat. Klayton of Celldweller
ArtistUnicode:Subkulture feat. Klayton of Celldweller
Creator:ErunamoJAZZ
Version:Kurokami's Rain
Source:
Tags:Nyukai Nyu-chan Inyuschan Kurokami xtrem3x Erase Us DotA2 DotaCinema CS Counter Strike Source Drum and Bass dnb Techno Trance Metal amazing noob never forget my real first rank thanks
BeatmapID:401615
BeatmapSetID:107979

[Difficulty]
HPDrainRate:6
CircleSize:4
OverallDifficulty:9
ApproachRate:9
SliderMultiplier:1.8
SliderTickRate:2

[Events]
//Background and Video events
0,0,"bg_erasus.png",0,0
//Break Periods
2,85897,90097
2,147230,157097
//Storyboard Layer 0 (Background)
//Storyboard Layer 1 (Fail)
//Storyboard Layer 2 (Pass)
//Storyboard Layer 3 (Foreground)
//Storyboard Sound Samples

[TimingPoints]
364,333.333333333333,4,1,0,50,1,0
1155,-100,4,2,0,60,0,0
1238,-100,4,1,0,50,0,0
6363,-66.6666666666667,4,1,0,50,0,0
6488,-66.6666666666667,4,2,0,70,0,0
6572,-66.6666666666667,4,1,0,50,0,0
6697,-100,4,1,0,50,0,0
7363,-50,4,1,0,50,0,0
8363,-100,4,1,0,50,0,0
11030,-100,4,2,0,70,0,0
12697,-66.6666666666667,4,2,0,70,0,0
13030,-100,4,2,0,70,0,0
21697,-100,4,1,0,70,0,0
28363,-80,4,1,0,70,0,0
28697,-100,4,1,0,70,0,0
29530,-80,4,1,0,70,0,0
29863,-100,4,1,0,70,0,0
32363,-80,4,1,0,70,0,0
32697,-100,4,1,0,70,0,0
36363,-80,4,1,0,70,0,0
36697,-100,4,1,0,70,0,0
39030,-98.0392156862745,4,1,0,70,0,0
39363,-100,4,1,0,70,0,0
39697,-80,4,1,0,70,0,0
40030,-100,4,1,0,70,0,0
43030,-100,4,1,0,70,0,1
45697,-50,4,1,0,70,0,1
46030,-100,4,1,0,70,0,1
48363,-66.6666666666667,4,1,0,70,0,1
48697,-100,4,1,0,70,0,1
52363,-66.6666666666667,4,1,0,70,0,1
52697,-100,4,1,0,70,0,1
53030,-66.6666666666667,4,1,0,70,0,1
53363,-100,4,1,0,70,0,1
56363,-57.1428571428571,4,1,0,70,0,1
56697,-100,4,1,0,70,0,1
59030,-80,4,1,0,70,0,1
59363,-100,4,1,0,70,0,1
64363,-100,4,3,0,70,0,0
65697,-66.6666666666667,4,3,0,70,0,0
66030,-100,4,3,0,70,0,0
67030,-66.6666666666667,4,3,0,70,0,0
67363,-100,4,3,0,70,0,0
72363,-66.6666666666667,4,3,0,70,0,0
72697,-100,4,3,0,70,0,0
73363,-83.3333333333333,4,1,0,70,0,0
74197,-100,4,1,0,70,0,0
75030,-100,4,3,0,70,0,0
96363,-100,4,1,0,70,0,1
100363,-57.1428571428571,4,1,0,70,0,1
100697,-100,4,1,0,70,0,1
103030,-57.1428571428571,4,1,0,70,0,1
103363,-100,4,1,0,70,0,1
104363,-66.6666666666667,4,1,0,70,0,1
104697,-100,4,1,0,70,0,1
105697,-66.6666666666667,4,1,0,70,0,1
106030,-100,4,1,0,70,0,1
108363,-66.6666666666667,4,1,0,70,0,1
108697,-100,4,1,0,70,0,1
111030,-66.6666666666667,4,1,0,70,0,1
111363,-100,4,1,0,70,0,1
115030,-66.6666666666667,4,1,0,70,0,1
115363,-100,4,1,0,70,0,1
117697,-100,4,1,0,70,0,0
126363,-66.6666666666667,4,1,0,70,0,0
126697,-100,4,1,0,70,0,0
131030,-100,4,3,0,70,0,0
142030,-66.6666666666667,4,3,0,70,0,0
142363,-100,4,3,0,70,0,0
145697,-66.6666666666667,4,3,0,70,0,0
146030,-100,4,3,0,70,0,0
157697,-100,4,2,0,40,0,0
159697,-55.5555555555556,4,2,0,40,0,0
160363,-100,4,2,0,40,0,0
163030,-66.6666666666667,4,2,0,40,0,0
163363,-100,4,2,0,40,0,0
165030,-50,4,2,0,40,0,0
165530,-100,4,2,0,40,0,0
168363,-66.6666666666667,4,2,0,40,0,0
168697,-100,4,2,0,40,0,0
169697,-66.6666666666667,4,2,0,40,0,0
170030,-100,4,2,0,40,0,0
174030,-66.6666666666667,4,2,0,40,0,0
174530,-100,4,2,0,40,0,0
175697,-66.6666666666667,4,2,0,40,0,0
176030,-100,4,2,0,40,0,0
180363,-100,4,2,0,30,0,0
181697,-100,4,2,0,40,0,0
187030,-100,4,2,0,35,0,0
188363,-100,4,2,0,30,0,0
189697,-100,4,2,0,25,0,0
191030,-100,4,2,0,20,0,0
192363,-100,4,2,0,15,0,0
193697,-100,4,2,0,10,0,0
195030,-100,4,2,0,5,0,0
197697,-100,4,1,0,70,0,1
201697,-57.1428571428571,4,1,0,70,0,1
202030,-100,4,1,0,70,0,1
204363,-57.1428571428571,4,1,0,70,0,1
204697,-100,4,1,0,70,0,1
205697,-66.6666666666667,4,1,0,70,0,1
206030,-100,4,1,0,70,0,1
207030,-66.6666666666667,4,1,0,70,0,1
207363,-100,4,1,0,70,0,1
209697,-66.6666666666667,4,1,0,70,0,1
210030,-100,4,1,0,70,0,1
212363,-66.6666666666667,4,1,0,70,0,1
212697,-100,4,1,0,70,0,1
216363,-66.6666666666667,4,1,0,70,0,1
216697,-100,4,1,0,70,0,1
217697,-100,4,1,0,70,0,0
219030,-100,4,1,0,70,0,1
229697,-66.6666666666667,4,1,0,70,0,1
230030,-100,4,1,0,70,0,1
232363,-66.6666666666667,4,1,0,70,0,1
232697,-100,4,1,0,70,0,1
235030,-66.6666666666667,4,1,0,70,0,1
235363,-100,4,1,0,70,0,1
237697,-66.6666666666667,4,1,0,70,0,1
238030,-100,4,1,0,70,0,1
240363,-163.934426229508,4,2,0,35,0,0
242197,-100,4,2,0,25,0,0
244197,-100,4,2,0,20,0,0
246030,-100,4,2,0,15,0,0
247863,-100,4,2,0,10,0,0
249697,-100,4,2,0,5,0,0

[Colours]
Combo1 : 179,129,13
Combo2 : 0,83,166
Combo3 : 217,217,0
Combo4 : 192,192,192
Combo5 : 201,24,125
Combo6 : 31,91,124

[HitObjects]
112,304,364,6,0,L|48:240,1,90,0|0,0:0|0:0,0:2:0:0:
176,208,697,2,0,L|256:160,1,90,2|0,0:2|0:0,0:2:0:0:
336,128,947,1,0,0:2:0:0:
416,80,1030,2,0,L|496:128,2,90,0|2|0,0:0|0:2|0:0,0:2:0:0:
336,32,1447,1,0,0:2:0:0:
256,16,1530,1,0,0:2:0:0:
176,32,1697,6,0,L|128:112,1,90,2|0,0:2|0:0,0:2:0:0:
256,128,2030,2,0,L|208:208,1,90,0|0,0:0|0:0,0:2:0:0:
160,272,2280,1,0,0:2:0:0:
96,336,2363,2,0,L|176:384,2,90,0|0|0,0:0|0:0|0:0,0:2:0:0:
16,288,2780,2,0,L|48:256,1,45,0|0,0:0|0:0,0:2:0:0:
192,192,3030,6,0,L|128:128,1,90,0|0,0:0|0:0,0:2:0:0:
256,128,3363,2,0,L|336:80,1,90,2|0,0:2|0:0,0:2:0:0:
416,32,3613,1,0,0:2:0:0:
496,48,3697,2,0,L|448:128,1,90,0|2,0:0|0:2,0:2:0:0:
368,160,4030,1,0,0:2:0:0:
432,208,4113,1,0,0:2:0:0:
496,256,4197,1,0,0:2:0:0:
368,272,4363,6,0,L|304:336,1,90,0|0,0:0|0:0,0:2:0:0:
176,352,4697,2,0,L|240:288,1,90,2|0,0:2|0:0,0:2:0:0:
304,224,4947,1,0,0:2:0:0:
368,160,5030,1,0,0:2:0:0:
240,128,5197,1,2,0:2:0:0:
112,160,5363,2,0,L|64:80,1,90,0|0,0:0|0:0,0:2:0:0:
192,48,5697,6,0,L|240:128,1,90,0|0,0:0|0:0,0:2:0:0:
368,160,6030,2,0,L|320:80,1,90,2|0,0:2|0:0,0:2:0:0:
400,48,6280,1,0,0:2:0:0:
480,80,6363,2,0,L|368:160,2,135.000005149842,0|2|0,0:0|0:0|0:2,0:0:0:0:
400,48,6780,1,0,0:0:0:0:
320,80,6863,1,0,0:0:0:0:
192,112,7030,6,0,L|112:64,1,90,0|2,0:2|0:2,0:0:0:0:
240,80,7363,2,0,B|304:160|304:160|176:256|176:256|240:336,1,360,0|2,0:2|0:2,0:0:0:0:
368,304,7863,1,0,0:2:0:0:
288,288,7947,1,0,0:0:0:0:
208,304,8030,2,0,B|96:176|96:176|208:16,1,360,0|0,0:2|0:2,0:0:0:0:
400,144,8697,1,2,0:2:0:0:
256,192,9030,12,0,10697,0:2:0:0:
224,288,11030,6,0,L|288:224,1,90,4|0,2:2|0:0,0:0:0:0:
416,160,11363,2,0,B|336:112|336:112|256:144,2,180,0|0|0,0:0|0:0|0:0,0:0:0:0:
288,224,12197,1,0,0:0:0:0:
160,224,12363,6,0,L|80:176,1,90,0|0,0:0|0:0,0:0:0:0:
208,224,12697,2,0,B|304:128|304:128|208:32,1,270.000010299683,2|0,0:2|0:2,0:0:0:0:
96,96,13197,2,0,L|272:144,1,180,2|0,0:0|0:0,0:0:0:0:
400,176,13697,6,0,L|448:256,1,90,2|0,0:0|0:0,0:0:0:0:
320,352,14030,2,0,L|272:272,1,90,0|0,0:0|0:0,0:0:0:0:
192,224,14280,1,0,0:0:0:0:
112,176,14363,2,0,L|32:128,2,90,0|2|0,0:0|0:0|0:0,0:0:0:0:
192,224,14780,1,0,0:0:0:0:
288,176,14863,1,0,0:0:0:0:
160,112,15030,6,0,L|240:64,1,90,2|0,0:0|0:0,0:0:0:0:
368,128,15363,2,0,L|288:176,1,90,2|0,0:0|0:0,0:0:0:0:
160,112,15697,2,0,B|96:192|96:192|176:272|176:272|112:352,1,315,0|0,0:0|0:0,0:0:0:0:
208,368,16363,6,0,L|272:304,1,90,0|0,0:0|0:0,0:0:0:0:
400,288,16697,2,0,L|336:224,1,90,2|0,0:0|0:0,0:0:0:0:
256,192,16947,1,0,0:0:0:0:
176,160,17030,2,0,L|256:112,1,90,0|2,0:0|0:0,0:0:0:0:
384,80,17363,1,0,0:0:0:0:
304,48,17447,1,0,0:0:0:0:
224,16,17530,1,0,0:0:0:0:
96,48,17697,6,0,L|240:160,2,180,2|2|0,0:0|0:0|0:0,0:0:0:0:
224,224,18530,2,0,L|304:272,2,90,0|0|0,0:0|0:0|0:0,0:0:0:0:
96,224,19030,6,0,L|128:336,1,90,0|0,0:0|0:0,0:0:0:0:
240,336,19363,2,0,L|304:272,1,90,0|0,0:0|0:0,0:0:0:0:
384,240,19613,1,0,0:0:0:0:
464,208,19697,2,0,L|416:128,1,90,0|0,0:0|0:0,0:0:0:0:
288,96,20030,1,0,0:0:0:0:
368,64,20113,1,0,0:0:0:0:
448,32,20197,1,0,0:0:0:0:
320,16,20363,6,0,L|240:64,1,90,0|0,0:0|0:0,0:0:0:0:
160,96,20613,1,0,0:0:0:0:
80,128,20697,1,0,0:0:0:0:
208,160,20863,2,0,L|288:208,1,90,0|0,0:0|0:0,0:0:0:0:
368,240,21113,1,0,0:0:0:0:
448,272,21197,1,0,0:0:0:0:
320,336,21363,1,0,0:0:0:0:
192,272,21530,1,0,0:0:0:0:
448,272,21697,6,0,L|400:192,1,90,4|0,2:1|0:0,0:0:0:0:
256,160,22030,1,0,0:0:0:0:
112,112,22197,1,0,0:0:0:0:
256,160,22363,2,0,L|336:112,1,90,0|0,0:0|0:0,0:0:0:0:
480,96,22697,1,0,0:0:0:0:
400,64,22780,1,0,0:0:0:0:
320,32,22863,1,0,0:0:0:0:
144,32,23030,6,0,L|64:80,2,90,0|0|0,0:0|0:0|0:0,0:0:0:0:
288,80,23530,1,0,3:0:0:0:
224,112,23613,1,0,0:0:0:0:
160,144,23697,1,0,0:0:0:0:
96,176,23780,1,0,0:0:0:0:
32,208,23863,1,0,0:0:0:0:
176,240,24030,2,0,L|144:336,1,90
304,336,24363,5,0,0:0:0:0:
208,240,24530,1,0,0:0:0:0:
384,240,24697,1,0,0:0:0:0:
272,192,24863,1,0,0:0:0:0:
336,144,24947,1,0,0:0:0:0:
400,96,25030,1,0,0:0:0:0:
320,64,25113,1,0,0:0:0:0:
240,32,25197,1,0,0:0:0:0:
96,64,25363,1,0,0:0:0:0:
320,64,25530,1,0,0:0:0:0:
208,128,25697,6,0,L|272:192,1,90,0|0,0:0|0:0,0:0:0:0:
336,240,25947,1,0,0:0:0:0:
400,288,26030,1,0,0:0:0:0:
272,336,26197,1,0,0:0:0:0:
208,304,26280,1,0,0:0:0:0:
144,272,26363,1,0,0:0:0:0:
224,224,26447,1,0,0:0:0:0:
304,192,26530,2,0,L|384:144,2,90,0|0|0,0:0|0:0|0:0,0:0:0:0:
160,160,27030,6,0,L|240:112,1,90,4|0,0:0|0:0,0:0:0:0:
432,80,27363,2,0,L|352:32,1,90,0|0,0:0|0:0,0:0:0:0:
176,32,27697,2,0,L|80:64,2,90,0|0|0,0:0|0:0|0:0,0:0:0:0:
320,32,28197,1,0,0:0:0:0:
464,96,28363,6,0,B|384:176|384:176|464:256,1,225,0|0,0:0|0:0,0:0:0:0:
320,304,28863,1,0,0:0:0:0:
240,272,28947,1,0,0:0:0:0:
160,240,29030,2,0,L|288:112,1,180,2|2,0:0|0:0,0:0:0:0:
112,32,29530,2,0,B|32:112|32:112|112:192,1,225,0|0,0:0|0:0,0:0:0:0:
256,208,30030,5,0,0:0:0:0:
192,256,30113,1,0,0:0:0:0:
128,304,30197,1,2,0:0:0:0:
336,336,30530,1,0,0:0:0:0:
400,304,30613,1,0,0:0:0:0:
464,272,30697,6,0,L|336:144,1,180,2|0,0:0|0:0,0:0:0:0:
400,96,31113,1,0,0:0:0:0:
464,48,31197,1,2,0:0:0:0:
320,32,31363,2,0,L|240:80,2,90,2|2|2,0:0|0:0|0:0,0:0:0:0:
176,32,31863,5,2,0:0:0:0:
112,64,31947,1,0,0:0:0:0:
48,96,32030,1,0,0:0:0:0:
128,144,32113,1,0,0:0:0:0:
208,192,32197,1,0,0:0:0:0:
352,208,32363,6,0,B|432:288|432:288|352:368,1,225,4|0,0:1|0:0,0:0:0:0:
208,352,32863,1,0,0:0:0:0:
64,304,33030,2,0,L|144:256,1,90,0|0,0:0|0:0,0:0:0:0:
288,176,33363,2,0,L|208:224,1,90,0|0,0:0|0:0,0:0:0:0:
32,240,33697,6,0,B|96:176|96:176|32:112,1,180,0|0,0:0|0:0,0:0:0:0:
160,64,34197,2,0,L|240:112,2,90,0|0|0,0:0|0:0|0:0,0:0:0:0:
304,48,34697,2,0,L|384:96,1,90,0|0,0:0|0:0,0:0:0:0:
240,144,35030,6,0,L|192:224,1,90,0|2,0:0|0:0,0:0:0:0:
352,288,35363,2,0,L|400:208,1,90,0|0,0:0|0:0,0:0:0:0:
240,144,35697,2,0,L|160:96,2,90,2|2|0,0:0|0:0|0:0,0:0:0:0:
96,176,36197,1,0,0:0:0:0:
240,144,36363,6,0,B|320:224|320:224|240:304,1,225,2|2,0:0|0:0,0:0:0:0:
96,288,36863,1,0,0:0:0:0:
160,256,36947,1,0,0:0:0:0:
224,224,37030,2,0,L|112:80,1,180,2|2,0:0|0:0,0:0:0:0:
192,48,37447,1,0,0:0:0:0:
272,16,37530,1,0,0:0:0:0:
464,32,37697,6,0,L|336:80,1,135,4|0,0:0|0:0,0:0:0:0:
400,128,38030,2,0,L|336:192,1,90,2|0,0:0|0:0,0:0:0:0:
160,256,38363,2,0,L|80:208,2,90,0|0|0,0:0|0:0|0:0,0:0:0:0:
304,288,38863,1,0,0:0:0:0:
448,256,39030,6,0,B|496:176|496:176|448:96,1,183.600001120605,2|0,0:0|0:0,0:0:0:0:
320,48,39530,1,0,0:0:0:0:
240,80,39613,1,0,0:0:0:0:
160,112,39697,2,0,B|80:192|80:192|160:272,1,225,0|0,0:0|0:0,0:0:0:0:
304,288,40197,1,0,0:0:0:0:
224,320,40280,1,0,0:0:0:0:
144,352,40363,6,0,B|144:256|144:256|224:208,1,180,2|0,0:0|0:0,0:0:0:0:
336,192,40863,1,0,0:0:0:0:
240,272,41030,1,0,0:0:0:0:
144,352,41197,1,0,0:0:0:0:
288,368,41363,1,0,0:0:0:0:
416,384,41530,1,0,0:0:0:0:
288,368,41697,5,0,0:0:0:0:
352,336,41780,1,0,0:0:0:0:
416,304,41863,1,0,0:0:0:0:
336,256,41947,1,0,0:0:0:0:
256,208,42030,1,0,0:0:0:0:
320,160,42113,1,0,0:0:0:0:
384,112,42197,5,0,0:0:0:0:
304,64,42280,1,0,0:0:0:0:
224,32,42363,1,0,0:0:0:0:
144,64,42447,1,0,0:0:0:0:
240,112,42530,1,0,0:0:0:0:
336,160,42613,1,0,0:0:0:0:
480,192,42697,1,4,1:1:0:0:
224,208,43030,5,2,0:0:0:0:
112,288,43197,1,0,0:0:0:0:
192,304,43280,1,0,0:0:0:0:
272,320,43363,2,0,L|336:256,1,90,8|0,0:0|0:0,0:0:0:0:
496,128,43697,2,0,L|448:48,1,90,2|0,0:0|0:0,0:0:0:0:
368,32,43947,1,0,0:0:0:0:
288,64,44030,2,0,L|368:112,1,90,8|0,0:0|0:0,0:0:0:0:
160,144,44363,6,0,L|96:208,1,90,2|0,0:0|0:0,0:0:0:0:
288,224,44697,2,0,L|368:272,1,90,8|0,0:0|0:0,0:0:0:0:
208,272,45030,2,0,L|288:224,1,90,0|0,0:0|0:0,0:0:0:0:
384,192,45280,1,0,0:0:0:0:
480,160,45363,2,0,L|432:80,1,90,12|0,0:0|0:0,0:0:0:0:
176,32,45697,6,0,B|112:112|112:112|240:208|240:208|176:288,1,360,2|8,0:0|0:0,0:0:0:0:
16,336,46197,1,0,0:0:0:0:
192,336,46363,2,0,L|272:384,2,90,2|0|8,0:0|0:0|0:0,0:0:0:0:
64,224,46863,1,0,0:0:0:0:
256,192,47030,6,0,L|112:80,1,180,2|8,0:0|0:0,0:0:0:0:
288,32,47530,1,0,0:0:0:0:
464,64,47697,2,0,L|416:144,1,90,2|0,0:0|0:0,0:0:0:0:
256,192,48030,2,0,L|304:112,1,90,8|0,0:0|0:0,0:0:0:0:
96,48,48363,6,0,B|16:112|16:112|142:222,1,270.000010299683,6|8,0:0|0:0,0:0:0:0:
304,256,48863,1,0,0:0:0:0:
224,288,48947,1,0,0:0:0:0:
144,320,49030,2,0,L|64:368,2,90,2|0|8,0:0|0:0|0:0,0:0:0:0:
304,256,49530,1,0,0:0:0:0:
48,224,49697,6,0,L|192:112,1,180,0|8,0:0|0:0,0:0:0:0:
336,64,50197,1,0,0:0:0:0:
416,64,50280,1,0,0:0:0:0:
496,80,50363,2,0,L|448:160,1,90,2|2,0:0|0:0,0:0:0:0:
288,144,50697,2,0,L|336:64,1,90,8|0,0:0|0:0,0:0:0:0:
96,64,51030,6,0,L|16:16,2,90,2|0|8,0:0|0:0|0:0,0:0:0:0:
288,144,51530,1,0,0:0:0:0:
352,176,51613,1,0,0:0:0:0:
416,208,51697,2,0,L|496:256,2,90,2|0|8,0:0|0:0|0:0,0:0:0:0:
256,256,52197,1,0,0:0:0:0:
16,256,52363,6,0,B|112:160|112:160|16:64,1,270,2|8,0:0|0:0,0:0:0:0:
160,48,52863,1,0,0:0:0:0:
304,48,53030,2,0,B|192:48|192:48|304:160,1,270.000010299683,2|8,0:0|0:0,0:0:0:0:
160,240,53530,1,0,3:0:0:0:
424,240,53697,6,0,L|472:320,1,90,6|0,0:0|0:0,0:0:0:0:
288,336,54030,2,0,L|240:256,1,90,8|0,0:0|0:0,0:0:0:0:
424,240,54363,2,0,L|472:160,1,90,2|0,0:0|0:0,0:0:0:0:
288,176,54697,2,0,L|240:256,1,90,8|0,0:0|0:0,0:0:0:0:
16,256,55030,6,0,L|96:208,1,90,2|0,0:0|0:0,0:0:0:0:
320,96,55363,1,8,0:0:0:0:
192,96,55530,1,0,0:0:0:0:
432,96,55697,2,0,L|352:144,1,90,2|0,0:0|0:0,0:0:0:0:
192,224,56030,2,0,L|272:176,1,90,8|0,0:0|0:0,0:0:0:0:
16,256,56363,6,0,B|128:144|128:144|16:32,1,315.000003004074,2|8,0:0|0:0,0:0:0:0:
160,32,56863,1,0,0:0:0:0:
304,112,57030,1,2,0:0:0:0:
384,96,57113,1,0,0:0:0:0:
464,80,57197,1,2,0:0:0:0:
320,208,57363,2,0,L|384:144,1,90,8|0,0:0|0:0,0:0:0:0:
176,144,57697,6,0,L|288:288,1,180,2|8,0:0|0:0,0:0:0:0:
448,272,58197,1,0,0:0:0:0:
272,288,58363,2,0,L|320:208,1,90,2|0,0:0|0:0,0:0:0:0:
176,144,58697,1,8,0:0:0:0:
336,96,58863,1,0,0:0:0:0:
80,208,59030,6,0,B|0:128|0:128|80:48,1,225,6|8,0:0|0:0,0:0:0:0:
224,48,59530,2,0,L|304:96,2,90,0|2|0,0:0|0:0|0:0,0:0:0:0:
384,16,60030,2,0,L|336:96,1,90,8|0,0:0|0:0,0:0:0:0:
144,128,60363,5,0,0:0:0:0:
224,176,60447,1,0,0:0:0:0:
304,224,60530,2,0,L|384:272,2,90,2|8|0,0:0|0:0|0:0,0:0:0:0:
160,192,61030,1,2,0:0:0:0:
336,192,61197,1,2,0:0:0:0:
128,256,61363,1,8,0:0:0:0:
400,240,61530,1,0,0:0:0:0:
160,208,61697,6,0,L|304:96,1,180,2|8,0:0|0:0,0:0:0:0:
448,48,62197,1,0,0:0:0:0:
272,80,62363,1,2,0:0:0:0:
336,48,62447,1,0,0:0:0:0:
400,16,62530,1,0,0:0:0:0:
240,80,62697,2,0,L|160:32,1,90,8|0,0:0|0:0,0:0:0:0:
16,48,63030,6,0,L|96:96,1,90,2|0,0:0|0:0,0:0:0:0:
288,128,63363,2,0,L|240:208,1,90,8|0,0:0|0:0,0:0:0:0:
80,224,63697,2,0,L|128:304,1,90,2|0,0:0|0:0,0:0:0:0:
400,224,64030,2,0,L|320:272,1,90,8|0,0:0|0:0,0:0:0:0:
80,224,64363,6,0,L|16:160,2,90,4|0|8,1:1|0:0|0:0,0:0:0:0:
208,240,64863,1,0,0:0:0:0:
336,224,65030,2,0,L|272:160,1,90,2|0,0:0|0:0,0:0:0:0:
144,96,65363,1,8,0:0:0:0:
288,80,65530,1,0,0:0:0:0:
432,96,65697,6,0,B|336:192|336:192|432:288,1,270,2|8,0:2|0:0,0:0:0:0:
304,352,66197,2,0,L|240:288,1,90,0|2,0:0|0:0,0:0:0:0:
112,224,66530,1,0,0:0:0:0:
240,208,66697,2,0,L|176:144,1,90,8|0,0:2|0:0,0:0:0:0:
320,192,67030,6,0,B|416:96|416:96|320:0,1,270,0|10,0:0|0:2,0:0:0:0:
192,0,67530,1,0,0:0:0:0:
64,16,67697,2,0,L|112:96,1,90,0|0,0:0|0:0,0:0:0:0:
208,112,67947,1,0,0:0:0:0:
304,144,68030,2,0,L|240:208,1,90,10|0,0:2|0:0,0:0:0:0:
96,240,68363,6,0,L|240:352,1,180,0|8,0:0|0:0,0:0:0:0:
368,288,68863,1,0,0:0:0:0:
240,272,69030,1,0,0:0:0:0:
400,192,69197,1,2,0:2:0:0:
208,192,69363,2,0,L|272:128,1,90,10|0,0:2|0:0,0:0:0:0:
128,112,69697,6,0,L|64:48,1,90,0|0,0:0|0:0,0:0:0:0:
208,32,70030,1,10,0:2:0:0:
352,32,70197,1,0,0:0:0:0:
480,96,70363,2,0,L|384:96,1,90,0|0,0:0|0:0,0:0:0:0:
192,160,70697,2,0,L|352:256,1,180,10|0,0:2|0:0,0:0:0:0:
80,288,71363,6,0,L|160:240,1,90,10|0,0:2|0:0,0:0:0:0:
304,192,71697,2,0,L|208:96,1,135,0|0,0:0|0:0,0:0:0:0:
112,64,72030,2,0,L|192:16,1,90,8|0,0:0|0:0,0:0:0:0:
384,16,72363,2,0,B|480:112|480:112|384:208,1,270,0|10,0:0|0:2,0:0:0:0:
240,240,72863,1,0,0:0:0:0:
96,240,73030,2,0,L|32:176,1,90,0|0,0:0|0:0,0:0:0:0:
288,192,73363,6,0,B|80:128,1,215.999993408203,2|2,0:0|0:0,0:0:0:0:
336,128,73863,2,0,B|128:64,1,215.999993408203,2|2,0:0|0:0,0:0:0:0:
384,64,74363,2,0,L|288:32,1,90,2|0,0:0|0:0,0:0:0:0:
144,128,74697,2,0,L|240:96,1,90,2|0,0:0|0:0,0:0:0:0:
384,176,75030,6,0,L|288:208,1,90
144,192,75363,1,8,0:2:0:0:
256,128,75530,1,0,0:0:0:0:
176,96,75613,1,0,0:0:0:0:
96,64,75697,1,0,0:0:0:0:
208,16,75863,1,0,0:0:0:0:
352,16,76030,2,0,L|416:80,1,90,8|0,0:2|0:0,0:0:0:0:
288,160,76363,6,0,L|208:208,2,90,0|0|8,0:0|0:0|0:2,0:0:0:0:
432,192,76863,1,0,0:0:0:0:
352,240,76947,1,0,0:0:0:0:
272,288,77030,1,0,0:0:0:0:
144,272,77197,1,0,0:0:0:0:
16,240,77363,2,0,L|80:176,1,90,8|0,0:2|0:0,0:0:0:0:
208,144,77697,6,0,L|128:96,1,90,0|0,0:0|0:0,0:0:0:0:
288,96,78030,2,0,L|208:144,1,90,8|0,0:2|0:0,0:0:0:0:
112,192,78280,1,0,0:0:0:0:
16,240,78363,2,0,L|80:304,1,90,0|0,0:0|0:0,0:0:0:0:
256,336,78697,2,0,L|192:272,1,90,8|0,0:0|0:0,0:0:0:0:
384,224,79030,6,0,L|448:288,1,90,0|0,0:0|0:0,0:0:0:0:
256,192,79363,1,8,0:2:0:0:
128,144,79530,1,0,0:0:0:0:
192,112,79613,1,0,0:0:0:0:
256,80,79697,2,0,L|176:32,1,90,0|0,0:0|3:0,0:0:0:0:
32,32,80030,2,0,L|112:80,1,90,8|0,0:0|1:0,0:0:0:0:
256,192,80363,6,0,L|336:144,2,90,2|0|8,1:2|0:0|0:2,0:0:0:0:
112,240,80863,1,0,0:0:0:0:
192,272,80947,1,0,0:0:0:0:
272,304,81030,2,0,L|352:256,1,90,2|0,0:2|0:0,0:0:0:0:
480,192,81363,1,8,0:2:0:0:
368,144,81530,1,0,0:0:0:0:
240,96,81697,6,0,L|320:48,1,90,2|0,0:2|0:0,0:0:0:0:
176,48,82030,2,0,L|96:96,1,90,8|2,0:2|0:2,0:0:0:0:
32,160,82280,1,0,0:0:0:0:
96,224,82363,2,0,L|16:272,1,90,0|0,0:0|0:0,0:0:0:0:
160,288,82697,2,0,L|240:240,1,90,8|0,0:2|0:0,0:0:0:0:
368,144,83030,6,0,L|448:192,2,90,2|2|8,0:2|0:2|0:2,0:0:0:0:
224,112,83530,1,0,0:0:0:0:
304,80,83613,1,0,0:0:0:0:
384,48,83697,2,0,L|304:0,1,90,2|0,0:2|0:0,0:0:0:0:
176,16,84030,1,8,0:2:0:0:
48,80,84197,1,0,0:0:0:0:
160,128,84363,6,0,L|80:176,1,90,2|0,0:2|0:0,0:0:0:0:
224,192,84697,2,0,L|304:240,1,90,8|0,0:2|0:0,0:0:0:0:
400,240,84947,1,0,0:0:0:0:
496,192,85030,2,0,L|416:144,2,90,0|0|8,0:0|0:0|0:0,0:0:0:0:
352,304,85530,1,0,0:0:0:0:
96,304,85697,1,4,0:0:0:0:
144,304,90697,6,0,L|64:256,1,90,0|0,0:0|3:3,0:0:0:0:
224,288,91030,2,0,L|320:352,2,112.5,2|0|0,0:2|0:0|0:0,0:0:0:0:
384,256,91697,2,0,L|480:192,1,112.5,2|0,0:2|0:0,0:0:0:0:
336,128,92113,1,0,0:0:0:0:
192,96,92363,6,0,L|96:32,2,112.5,2|0|0,0:2|0:0|0:0,0:0:0:0:
336,128,93030,2,0,L|232:176,1,112.5,2|0,0:2|0:0,0:0:0:0:
80,272,93447,1,0,0:0:0:0:
272,296,93697,2,0,B|432:208,2,180,4|0|0,0:0|0:0|0:0,0:0:0:0:
80,368,94697,6,0,L|208:320,1,135,0|0,0:0|0:0,0:0:0:0:
304,320,95030,2,0,L|224:272,1,90,0|0,0:0|0:0,0:0:0:0:
400,256,95363,1,0,0:0:0:0:
320,224,95447,1,0,0:0:0:0:
240,192,95530,1,0,0:0:0:0:
400,160,95697,6,0,L|320:112,1,90
144,64,96030,1,0,0:0:0:0:
80,96,96113,1,0,0:0:0:0:
128,144,96197,1,0,0:0:0:0:
176,192,96280,1,0,0:0:0:0:
320,224,96363,5,2,0:0:0:0:
224,128,96530,1,0,0:0:0:0:
64,128,96697,2,0,L|128:192,1,90,8|0,0:0|0:0,0:0:0:0:
304,224,97030,2,0,L|368:160,1,90,2|0,0:0|0:0,0:0:0:0:
416,112,97280,1,0,0:0:0:0:
384,64,97363,2,0,L|320:0,1,90,8|0,0:0|0:0,0:0:0:0:
80,16,97697,6,0,L|144:80,1,90,2|0,0:0|0:0,0:0:0:0:
336,112,98030,2,0,L|272:176,1,90,8|0,0:0|0:0,0:0:0:0:
96,192,98363,2,0,L|160:256,1,90,2|0,0:0|0:0,0:0:0:0:
256,288,98613,1,0,0:0:0:0:
352,256,98697,2,0,L|416:192,1,90,8|0,0:0|0:0,0:0:0:0:
272,176,99030,6,0,L|336:112,1,90,2|0,0:0|0:0,0:0:0:0:
224,80,99363,2,0,L|144:32,1,90,12|0,0:0|0:0,0:0:0:0:
32,48,99697,1,2,0:0:0:0:
112,112,99780,1,0,0:0:0:0:
192,176,99863,1,0,0:0:0:0:
32,192,100030,2,0,L|96:256,1,90,8|0,0:0|0:0,0:0:0:0:
368,320,100363,6,0,B|272:192|272:192|368:64,1,315.000003004074,2|8,0:0|0:0,0:0:0:0:
192,32,100863,1,0,0:0:0:0:
32,48,101030,1,2,0:0:0:0:
0,96,101113,1,0,0:0:0:0:
32,144,101197,1,0,0:0:0:0:
192,176,101363,2,0,L|256:112,1,90,8|0,0:0|0:0,0:0:0:0:
448,128,101697,6,0,B|384:192,1,90,6|0,0:0|0:0,0:0:0:0:
192,272,102030,2,0,L|288:272,1,90,8|0,0:0|0:0,0:0:0:0:
112,208,102363,1,2,0:0:0:0:
192,176,102447,1,0,0:0:0:0:
272,128,102530,1,0,0:0:0:0:
96,96,102697,2,0,L|32:32,1,90,8|0,0:0|0:0,0:0:0:0:
320,32,103030,6,0,B|416:160|416:160|320:288,1,315.000003004074,2|8,0:0|0:0,0:0:0:0:
160,288,103530,1,0,0:0:0:0:
240,288,103613,1,0,0:0:0:0:
320,288,103697,2,0,L|416:192,1,135,2|0,0:0|0:0,0:0:0:0:
496,144,104030,2,0,L|400:48,1,135,8|0,0:0|0:0,0:0:0:0:
320,96,104363,6,0,B|416:192|416:192|320:288,1,270.000010299683,2|12,0:0|0:0,0:0:0:0:
160,288,104863,1,0,0:0:0:0:
304,240,105030,1,2,0:0:0:0:
128,176,105197,1,0,0:0:0:0:
336,176,105363,2,0,L|400:112,1,90,12|0,0:0|0:0,0:0:0:0:
128,176,105697,6,0,B|224:272|224:272|128:368,1,270,2|12,0:0|0:0,0:0:0:0:
288,368,106197,1,0,0:0:0:0:
464,336,106363,2,0,L|400:272,1,90,2|2,0:0|0:0,0:0:0:0:
208,240,106697,2,0,L|272:176,1,90,8|2,0:0|0:0,0:0:0:0:
128,176,107030,6,0,L|192:112,1,90,6|0,0:0|0:0,0:0:0:0:
368,48,107363,2,0,L|304:112,1,90,12|0,0:0|0:0,0:0:0:0:
96,304,107697,2,0,L|160:240,1,90,2|0,0:0|0:0,0:0:0:0:
384,176,108030,2,0,L|320:112,1,90,8|0,0:0|0:0,0:0:0:0:
32,192,108363,6,0,B|128:96|128:96|32:0,1,270.000010299683,2|8,0:0|0:0,0:0:0:0:
208,16,108863,1,0,0:0:0:0:
128,48,108947,1,0,0:0:0:0:
48,80,109030,2,0,L|112:144,1,90,2|0,0:0|0:0,0:0:0:0:
288,128,109363,2,0,L|368:176,1,90,8|0,0:0|0:0,0:0:0:0:
496,256,109697,6,0,B|416:208,1,90,0|0,0:0|0:0,0:0:0:0:
272,192,110030,1,8,0:0:0:0:
128,192,110197,1,0,0:0:0:0:
208,160,110280,1,0,0:0:0:0:
288,128,110363,1,2,0:0:0:0:
432,64,110530,1,0,0:0:0:0:
256,64,110697,2,0,L|336:16,1,90,8|0,0:0|0:0,0:0:0:0:
128,48,111030,6,0,B|32:144|32:144|128:240,1,270.000010299683,2|8,0:0|0:0,0:0:0:0:
288,272,111530,1,0,0:0:0:0:
368,240,111613,1,0,0:0:0:0:
448,208,111697,2,0,L|384:144,1,90,2|0,0:0|0:0,0:0:0:0:
224,128,112030,2,0,L|288:192,1,90,8|0,0:0|0:0,0:0:0:0:
96,240,112363,6,0,L|32:176,1,90,6|0,0:0|0:0,0:0:0:0:
224,128,112697,2,0,L|288:64,1,90,8|0,0:0|0:0,0:0:0:0:
464,64,113030,2,0,L|400:128,1,90,2|0,0:0|0:0,0:0:0:0:
224,128,113363,2,0,L|288:192,1,90,8|0,0:0|0:0,0:0:0:0:
96,256,113697,6,0,L|224:128,1,180,2|8,0:0|0:0,0:0:0:0:
368,96,114197,1,0,0:0:0:0:
432,112,114280,1,0,0:0:0:0:
480,160,114363,2,0,L|416:224,1,90,2|0,0:0|0:0,0:0:0:0:
336,240,114613,1,0,0:0:0:0:
256,256,114697,2,0,L|320:320,1,90,8|0,0:0|0:0,0:0:0:0:
48,352,115030,6,0,B|144:256|144:256|48:160,1,270.000010299683,2|8,0:0|0:0,0:0:0:0:
192,192,115530,2,0,L|64:64,1,180,0|0,0:0|0:0,0:0:0:0:
208,96,116030,2,0,L|272:160,1,90,8|0,0:0|0:0,0:0:0:0:
464,144,116363,6,0,L|400:80,1,90,2|0,0:0|0:0,0:0:0:0:
208,96,116697,2,0,L|144:160,1,90,8|0,0:0|0:0,0:0:0:0:
352,192,117030,2,0,L|416:256,1,90,2|0,0:2|0:0,0:0:0:0:
80,224,117363,2,0,L|144:288,1,90,8|0,0:0|0:0,0:0:0:0:
288,320,117697,5,0,0:0:0:0:
480,272,117947,1,0,0:0:0:0:
320,240,118197,1,0,0:0:0:0:
448,176,118447,1,0,0:0:0:0:
320,112,118697,1,0,0:0:0:0:
480,64,118947,1,0,0:0:0:0:
368,32,119030,1,0,0:0:0:0:
208,32,119197,5,0,0:0:0:0:
128,64,119280,1,0,0:0:0:0:
64,96,119363,1,0,0:0:0:0:
16,144,119447,1,0,0:0:0:0:
32,192,119530,1,0,0:0:0:0:
64,240,119613,1,0,0:0:0:0:
112,288,119697,1,0,0:0:0:0:
176,288,119780,5,0,0:0:0:0:
256,288,119863,1,0,0:0:0:0:
352,240,119947,1,0,0:0:0:0:
432,160,120030,1,0,0:0:0:0:
368,128,120113,1,0,0:0:0:0:
304,96,120197,1,0,0:0:0:0:
240,64,120280,1,0,0:0:0:0:
64,96,120363,5,0,0:0:0:0:
176,16,120530,1,0,0:0:0:0:
320,16,120697,2,0,L|240:64,1,90,2|0,0:2|0:0,0:0:0:0:
368,128,121030,2,0,L|288:176,2,90,0|2|0,0:0|0:2|0:0,0:0:0:0:
240,64,121530,1,0,0:0:0:0:
96,96,121697,6,0,L|160:160,1,90,0|0,0:0|0:0,0:0:0:0:
32,208,122030,1,0,0:0:0:0:
192,224,122197,1,0,0:2:0:0:
128,256,122280,1,0,0:0:0:0:
64,288,122363,1,0,0:0:0:0:
224,336,122530,1,0,0:2:0:0:
304,304,122613,1,0,0:0:0:0:
384,272,122697,2,0,L|336:192,1,90,2|0,0:2|0:0,0:0:0:0:
176,144,123030,6,0,L|240:80,1,90,0|0,0:0|0:0,0:0:0:0:
368,32,123363,1,2,0:2:0:0:
496,48,123530,1,0,0:0:0:0:
416,96,123613,1,0,0:0:0:0:
336,144,123697,1,0,0:0:0:0:
464,224,123863,1,0,0:0:0:0:
384,224,123947,1,0,0:0:0:0:
304,224,124030,2,0,L|240:160,1,90,2|0,0:2|0:0,0:0:0:0:
80,112,124363,6,0,L|160:64,2,90,0|0|0,0:0|0:0|0:0,0:0:0:0:
224,192,124863,2,0,L|256:224,2,45,0|0|0,0:2|0:0|0:0,0:0:0:0:
416,192,125197,2,0,L|384:224,1,45,0|0,0:2|0:0,0:0:0:0:
416,192,125363,2,0,L|352:128,1,90,0|0,0:0|0:0,0:0:0:0:
176,112,125697,6,0,L|144:80,1,45,0|0,0:0|0:0,0:0:0:0:
224,96,125863,2,0,L|192:64,1,45,0|0,0:0|0:0,0:0:0:0:
256,112,126030,2,0,L|320:48,1,90,2|0,0:2|0:0,0:0:0:0:
496,48,126363,2,0,L|384:128,2,135.000005149842,0|0|2,0:0|0:0|0:2,0:0:0:0:
320,32,126863,1,0,0:0:0:0:
144,48,127030,6,0,L|208:112,1,90,2|2,0:2|0:2,0:0:0:0:
416,144,127363,2,0,L|352:208,1,90,2|2,0:2|0:2,0:0:0:0:
112,240,127697,2,0,L|224:320,1,135
128,320,128030,2,0,L|224:224,1,135,0|0,0:0|0:0,0:0:0:0:
320,208,128363,6,0,L|224:112,1,135,0|0,0:0|0:0,0:0:0:0:
128,80,128697,2,0,L|48:128,2,90,0|0|0,0:0|0:0|0:0,0:0:0:0:
272,48,129197,1,0,0:0:0:0:
416,80,129363,2,0,B|272:112|272:112|352:208,2,270,4|4|4,0:0|0:0|0:0,0:0:0:0:
96,80,130697,1,4,0:0:0:0:
336,80,130863,1,0,0:0:0:0:
192,144,131030,6,0,L|128:208,1,90,0|0,0:0|0:0,0:0:0:0:
304,320,131363,1,8,0:0:0:0:
480,272,131530,1,0,0:0:0:0:
400,240,131613,1,0,0:0:0:0:
320,208,131697,1,0,0:0:0:0:
176,128,131863,1,0,0:0:0:0:
32,16,132030,2,0,L|96:80,1,90,8|0,0:0|0:0,0:0:0:0:
256,144,132363,6,0,L|176:192,2,90,0|0|8,0:0|0:0|0:0,0:0:0:0:
416,96,132863,1,0,0:0:0:0:
336,64,132947,1,0,0:0:0:0:
256,32,133030,1,0,0:0:0:0:
96,48,133197,1,0,0:0:0:0:
240,96,133363,2,0,L|160:144,1,90,8|0,0:0|0:0,0:0:0:0:
432,192,133697,6,0,L|352:240,1,90,0|0,0:0|0:0,0:0:0:0:
208,272,134030,1,8,0:0:0:0:
64,272,134197,2,0,L|64:320,2,45,0|0|0,0:0|0:0|0:0,0:0:0:0:
208,272,134530,1,0,0:0:0:0:
384,272,134697,2,0,L|304:224,1,90,8|0,0:0|0:0,0:0:0:0:
144,224,135030,6,0,L|64:272,2,90,4|0|8,0:0|0:0|0:0,0:0:0:0:
288,176,135530,1,0,0:0:0:0:
208,128,135613,1,0,0:0:0:0:
128,80,135697,2,0,L|208:32,1,90,0|0,0:0|0:0,0:0:0:0:
352,32,136030,2,0,L|272:80,1,90,8|0,0:0|0:0,0:0:0:0:
448,112,136363,6,0,L|368:160,2,90,0|0|8,0:0|0:0|0:0,0:0:0:0:
288,176,136863,1,0,0:0:0:0:
352,224,136947,1,0,0:0:0:0:
416,272,137030,2,0,L|352:336,1,90,0|0,0:0|0:0,0:0:0:0:
208,352,137363,2,0,L|272:288,1,90,8|0,0:0|0:0,0:0:0:0:
96,288,137697,6,0,L|192:192,1,135,0|0,0:0|0:0,0:0:0:0:
288,176,138030,2,0,L|224:112,1,90,8|0,0:0|0:0,0:0:0:0:
144,80,138280,1,0,0:0:0:0:
64,112,138363,2,0,L|128:176,1,90,0|0,0:0|0:0,0:0:0:0:
288,176,138697,2,0,L|224:240,1,90,8|0,0:0|0:0,0:0:0:0:
432,256,139030,6,0,L|368:320,2,90,0|0|8,0:0|0:0|0:0,0:0:0:0:
288,176,139530,1,0,0:0:0:0:
352,144,139613,1,0,0:0:0:0:
416,112,139697,1,0,0:0:0:0:
272,64,139863,1,0,0:0:0:0:
128,112,140030,2,0,L|48:160,1,90,8|0,0:0|0:0,0:0:0:0:
208,192,140363,6,0,L|128:240,2,90,0|0|8,0:0|0:0|0:0,0:0:0:0:
368,224,140863,1,0,0:0:0:0:
288,272,140947,1,0,0:0:0:0:
208,320,141030,2,0,L|128:368,2,90,0|0|8,0:0|0:0|0:0,0:0:0:0:
368,224,141530,1,0,0:0:0:0:
96,224,141697,5,4,0:0:0:0:
224,128,141863,1,0,0:0:0:0:
368,112,142030,2,0,B|448:224|448:224|368:336,2,270,8|0|8,0:0|0:0|0:0,0:0:0:0:
240,336,142863,1,0,0:0:0:0:
96,304,143030,5,0,0:0:0:0:
256,256,143197,2,0,L|112:144,1,180,0|0,0:0|0:0,0:0:0:0:
256,160,143697,2,0,L|368:80,1,135,6|0,0:2|0:0,0:0:0:0:
192,64,144197,1,0,0:0:0:0:
464,64,144363,5,4,0:0:0:0:
352,144,144530,1,0,0:0:0:0:
464,192,144697,2,0,L|400:256,1,90,8|0,0:0|0:0,0:0:0:0:
272,256,145030,2,0,L|352:144,1,135,0|0,0:0|0:0,0:0:0:0:
256,160,145363,2,0,L|144:80,1,135,8|0,0:0|0:0,0:0:0:0:
304,80,145697,6,0,B|400:176|400:176|304:272,1,270,6|8,0:2|0:0,0:0:0:0:
160,304,146197,2,0,L|288:176,1,180,0|0,0:0|0:0,0:0:0:0:
320,144,146613,1,0,0:0:0:0:
240,144,146697,2,0,L|208:112,1,45,8|0,0:0|0:0,0:0:0:0:
352,112,146863,2,0,L|384:80,1,45,0|0,0:0|0:0,0:0:0:0:
176,80,147030,1,6,0:0:0:0:
432,192,157697,6,0,B|336:192|336:192|256:160,2,180,2|0|8,0:0|0:0|0:0,0:0:0:0:
320,272,158530,1,0,0:0:0:0:
208,272,158697,1,0,0:0:0:0:
96,272,158863,1,0,0:0:0:0:
240,208,159030,2,0,L|96:96,1,180,0|0,0:0|0:0,0:0:0:0:
304,48,159697,2,0,B|480:80|480:80|384:192|384:192|480:304|480:304|304:336,1,647.99998022461,2|0,0:0|0:0,0:0:0:0:
144,192,160697,6,0,L|240:96,2,135
320,96,161363,2,0,B|448:96|448:96|384:96,2,180,0|0|0,0:0|0:0|0:0,0:0:0:0:
176,96,162363,1,8,0:0:0:0:
64,128,162530,2,0,L|144:176,2,90,8|0|0,0:0|0:0|0:0,0:0:0:0:
208,288,163030,6,0,B|304:192|304:192|208:96,1,270.000010299683,2|0,0:0|0:0,0:0:0:0:
336,64,163530,1,0,0:0:0:0:
464,80,163697,2,0,L|416:160,1,90,8|0,0:0|0:0,0:0:0:0:
288,144,164030,2,0,L|336:64,1,90,0|0,0:0|0:0,0:0:0:0:
160,64,164363,6,0,L|48:208,1,180,0|0,0:0|0:0,0:0:0:0:
192,256,164863,1,0,0:0:0:0:
336,336,165030,2,0,B|448:240|448:240|224:128|224:128|336:32,1,540,2|0,0:0|0:0,0:0:0:0:
480,48,165697,6,0,L|352:176,1,180,2|0,0:0|0:0,0:0:0:0:
176,256,166363,1,8,0:0:0:0:
304,320,166530,1,0,0:0:0:0:
432,288,166697,2,0,L|368:224,1,90,0|0,0:0|0:0,0:0:0:0:
240,192,167030,6,0,L|304:256,1,90,0|0,0:0|0:0,0:0:0:0:
176,256,167363,2,0,L|240:192,1,90,0|0,0:0|0:0,0:0:0:0:
96,176,167697,1,8,0:0:0:0:
224,112,167863,1,8,0:0:0:0:
352,176,168030,2,0,L|288:112,1,90,0|0,0:0|0:0,0:0:0:0:
112,80,168363,6,0,B|16:176|16:176|112:272,1,270.000010299683,2|0,0:0|0:0,0:0:0:0:
288,272,169030,2,0,L|224:208,1,90,8|0,0:0|0:0,0:0:0:0:
352,176,169363,2,0,L|288:112,1,90,0|0,0:0|0:0,0:0:0:0:
416,80,169697,6,0,B|496:192|496:192|416:304,1,270.000010299683,0|0,0:0|0:0,0:0:0:0:
240,336,170363,2,0,B|112:224|112:224|224:224,1,270,2|0,0:0|0:0,0:0:0:0:
352,160,171030,2,0,L|224:112,2,135,2|0|0,0:0|0:0|0:0,0:0:0:0:
496,112,171697,2,0,L|432:176,1,90,8|0,0:0|0:0,0:0:0:0:
304,208,172030,1,0,0:0:0:0:
416,272,172197,1,0,0:0:0:0:
240,272,172363,6,0,L|304:208,1,90,0|0,0:0|0:0,0:0:0:0:
160,208,172697,2,0,L|96:144,1,90,0|0,0:0|0:0,0:0:0:0:
224,112,173030,1,8,0:0:0:0:
352,144,173197,1,8,0:0:0:0:
224,112,173363,2,0,L|272:32,1,90,0|0,0:0|0:0,0:0:0:0:
128,32,173697,6,0,L|80:112,1,90,2|0,0:0|0:0,0:0:0:0:
224,112,174030,2,0,L|336:192,3,135.000005149842,0|0|8|0,0:0|0:0|0:0|0:0,0:0:0:0:
464,224,174697,2,0,L|416:304,1,90,0|0,0:0|0:0,0:0:0:0:
288,336,175030,5,0,0:0:0:0:
112,304,175363,2,0,B|160:224,1,90,0|0,0:0|0:0,0:0:0:0:
320,208,175697,2,0,B|432:128|432:128|320:48,1,270,2|0,0:0|0:0,0:0:0:0:
128,128,176363,6,0,L|320:128,1,180,2|0,0:0|0:0,0:0:0:0:
176,192,177030,2,0,L|96:240,2,90,8|0|0,0:0|0:0|0:0,0:0:0:0:
304,192,177530,1,0,0:0:0:0:
432,192,177697,6,0,L|304:320,2,180,0|0|8,0:0|0:0|0:0,0:0:0:0:
320,128,178530,1,8,0:0:0:0:
464,80,178697,2,0,L|400:16,1,90,2|0,0:0|0:0,0:0:0:0:
240,16,179030,6,0,P|128:128|240:256,1,360,2|8,0:0|0:0,0:0:0:0:
384,320,179863,2,0,L|208:272,1,180,0|0,0:0|0:0,0:0:0:0:
64,192,180363,2,0,L|240:144,1,180,0|0,0:0|0:0,0:0:0:0:
384,80,180863,1,0,0:0:0:0:
208,32,181030,6,0,B|48:192|48:192|208:352,1,450,2|0,0:0|0:0,0:0:0:0:
352,192,182030,2,0,L|160:192,2,180,0|8|0,0:0|0:0|0:0,0:0:0:0:
480,144,182863,1,0,0:0:0:0:
288,96,183030,5,0,0:0:0:0:
112,144,183363,1,0,0:0:0:0:
320,208,183697,2,0,L|384:272,2,90,8|8|0,0:0|0:0|0:0,0:0:0:0:
112,144,184363,5,2,0:0:0:0:
288,304,184697,2,0,L|368:256,1,90,0|0,0:0|0:0,0:0:0:0:
240,224,185030,2,0,L|176:156,1,90,0|0,0:0|0:0,0:0:0:0:
304,112,185363,2,0,L|224:64,1,90,0|0,0:0|0:0,0:0:0:0:
96,64,185697,6,0,L|16:112,2,90,0|0|0,0:0|0:0|0:0,0:0:0:0:
256,32,186197,1,0,0:0:0:0:
432,64,186363,2,0,L|288:176,2,180,2|0|2,0:0|0:0|0:0,0:0:0:0:
256,192,187197,12,2,192197,0:0:0:0:
256,192,192363,12,0,197363,0:0:0:0:
304,192,197697,6,0,L|256:112,1,90,2|0,0:0|0:0,0:0:0:0:
160,112,197947,1,0,0:0:0:0:
64,128,198030,2,0,L|112:208,1,90,8|0,0:0|0:0,0:0:0:0:
304,192,198363,2,0,L|240:256,1,90,2|0,0:0|0:0,0:0:0:0:
160,288,198613,1,0,0:0:0:0:
64,288,198697,2,0,L|112:208,1,90,8|0,0:0|0:0,0:0:0:0:
304,192,199030,6,0,L|256:112,1,90,2|0,0:0|0:0,0:0:0:0:
432,112,199363,2,0,L|384:32,1,90,8|2,0:0|0:0,0:0:0:0:
208,80,199697,2,0,L|288:32,1,90,2|0,0:0|0:0,0:0:0:0:
384,32,199947,1,0,0:0:0:0:
480,32,200030,2,0,L|432:112,1,90,8|0,0:0|0:0,0:0:0:0:
160,160,200363,6,0,L|208:80,1,90,2|0,0:0|0:0,0:0:0:0:
432,112,200697,2,0,L|384:32,1,90,8|0,0:0|0:0,0:0:0:0:
224,80,201030,1,2,0:0:0:0:
304,128,201113,1,0,0:0:0:0:
400,176,201197,1,0,0:0:0:0:
224,192,201363,2,0,L|304:240,1,90,8|0,0:0|0:0,0:0:0:0:
112,320,201697,6,0,B|16:192|16:192|112:64,1,315.000003004074,2|8,0:0|0:0,0:0:0:0:
288,32,202197,1,0,0:0:0:0:
448,32,202363,1,2,0:0:0:0:
384,80,202447,1,0,0:0:0:0:
304,128,202530,1,0,0:0:0:0:
128,128,202697,2,0,L|208:80,1,90,8|0,0:0|0:0,0:0:0:0:
384,80,203030,6,0,B|304:128,1,90,2|0,0:0|0:0,0:0:0:0:
96,240,203363,2,0,L|176:192,1,90,8|0,0:0|0:0,0:0:0:0:
384,176,203697,1,2,0:0:0:0:
288,224,203780,1,0,0:0:0:0:
192,272,203863,1,0,0:0:0:0:
352,288,204030,2,0,L|288:224,1,90,8|0,0:0|0:0,0:0:0:0:
16,64,204363,6,0,B|112:192|112:192|16:320,1,315.000003004074,2|8,0:0|0:0,0:0:0:0:
192,352,204863,1,0,0:0:0:0:
240,304,204947,1,0,0:0:0:0:
288,256,205030,2,0,L|208:144,1,135,2|0,0:0|0:0,0:0:0:0:
304,144,205363,2,0,L|224:32,1,135,8|0,0:0|0:0,0:0:0:0:
320,48,205697,6,0,B|416:144|416:144|320:240,1,270.000010299683,2|8,0:0|0:0,0:0:0:0:
176,240,206197,1,0,0:0:0:0:
320,240,206363,1,2,0:0:0:0:
128,176,206530,1,0,0:0:0:0:
352,176,206697,2,0,L|416:112,1,90,8|0,0:0|0:0,0:0:0:0:
80,112,207030,6,0,B|176:208|176:208|80:304,1,270,2|8,0:0|0:0,0:0:0:0:
224,352,207530,1,0,0:0:0:0:
384,304,207697,2,0,L|432:224,1,90,2|0,0:0|0:0,0:0:0:0:
240,192,208030,2,0,L|288:112,1,90,8|0,0:0|0:0,0:0:0:0:
96,112,208363,6,0,L|144:32,1,90,2|0,0:0|0:0,0:0:0:0:
288,112,208697,2,0,L|208:64,1,90,8|0,0:0|0:0,0:0:0:0:
384,64,209030,2,0,L|464:112,1,90,2|0,0:0|0:0,0:0:0:0:
288,112,209363,2,0,L|240:192,1,90,8|0,0:0|0:0,0:0:0:0:
16,304,209697,6,0,B|112:208|112:208|16:112,1,270.000010299683,2|8,0:0|0:0,0:0:0:0:
160,112,210197,1,0,0:0:0:0:
192,64,210280,1,0,0:0:0:0:
112,144,210363,2,0,L|176:208,1,90,2|0,0:0|0:0,0:0:0:0:
352,224,210697,2,0,L|288:288,1,90,8|0,0:0|0:0,0:0:0:0:
464,352,211030,6,0,B|384:304,1,90,2|0,0:0|0:0,0:0:0:0:
224,304,211363,1,8,0:0:0:0:
80,256,211530,1,0,0:0:0:0:
144,208,211613,1,0,0:0:0:0:
224,160,211697,1,2,0:0:0:0:
352,48,211863,1,0,0:0:0:0:
192,80,212030,2,0,L|112:32,1,90,8|0,0:0|0:0,0:0:0:0:
400,32,212363,6,0,B|496:128|496:128|400:224,1,270.000010299683,2|8,0:0|0:0,0:0:0:0:
256,272,212863,1,0,0:0:0:0:
192,208,212947,1,0,0:0:0:0:
144,144,213030,2,0,L|208:80,1,90,2|0,0:0|0:0,0:0:0:0:
384,96,213363,2,0,L|320:160,1,90,8|0,0:0|0:0,0:0:0:0:
480,176,213697,6,0,L|416:240,1,90,6|0,0:0|0:0,0:0:0:0:
192,208,214030,2,0,L|256:272,1,90,8|0,0:0|0:0,0:0:0:0:
80,208,214363,2,0,L|144:144,1,90,2|0,0:0|0:0,0:0:0:0:
320,128,214697,2,0,L|256:64,1,90,8|0,0:0|0:0,0:0:0:0:
16,176,215030,6,0,L|144:48,1,180,2|8,0:0|0:0,0:0:0:0:
320,16,215530,1,0,0:0:0:0:
240,80,215613,1,0,0:0:0:0:
160,144,215697,2,0,L|96:208,1,90,2|0,0:0|0:0,0:0:0:0:
192,256,215947,1,0,0:0:0:0:
288,256,216030,2,0,L|384:352,1,135,8|0,0:0|0:0,0:0:0:0:
272,352,216363,6,0,B|176:256|176:256|272:160,1,270.000010299683,2|8,0:0|0:0,0:0:0:0:
416,144,216863,2,0,L|272:32,1,180,0|0,0:0|0:0,0:0:0:0:
416,224,217363,2,0,L|496:176,2,90,8|0|0,0:0|0:0|0:0,0:0:0:0:
256,352,217863,5,0,0:0:0:0:
192,320,217947,1,0,0:0:0:0:
128,288,218030,1,0,0:0:0:0:
208,240,218113,1,0,0:0:0:0:
288,192,218197,1,0,0:0:0:0:
192,144,218280,1,0,0:0:0:0:
96,96,218363,1,0,0:0:0:0:
176,64,218447,5,0,0:0:0:0:
256,32,218530,1,0,0:0:0:0:
336,32,218613,1,0,0:0:0:0:
416,64,218697,1,0,0:0:0:0:
352,96,218780,1,0,0:0:0:0:
288,128,218863,1,0,0:0:0:0:
224,160,218947,1,0,0:0:0:0:
80,208,219030,5,4,0:0:0:0:
208,240,219197,1,4,0:0:0:0:
336,304,219363,2,0,L|256:352,1,90,8|0,0:0|0:0,0:0:0:0:
160,352,219613,1,0,0:0:0:0:
64,304,219697,2,0,L|128:240,1,90,0|0,0:0|0:0,0:0:0:0:
320,224,220030,2,0,L|256:160,1,90,8|0,0:0|0:0,0:0:0:0:
16,160,220363,6,0,L|160:48,1,180,0|8,0:0|0:0,0:0:0:0:
336,32,220863,1,0,0:0:0:0:
256,96,220947,1,0,0:0:0:0:
160,160,221030,2,0,L|224:224,1,90,0|4,0:0|0:0,0:0:0:0:
48,240,221363,2,0,L|112:304,1,90,12|0,0:0|0:0,0:0:0:0:
384,304,221697,6,0,L|304:352,1,90,0|0,0:0|0:0,0:0:0:0:
144,336,222030,2,0,L|224:288,1,90,8|0,0:0|0:0,0:0:0:0:
304,240,222280,1,0,0:0:0:0:
384,192,222363,2,0,L|320:128,1,90,0|0,0:0|0:0,0:0:0:0:
400,96,222613,1,0,0:0:0:0:
480,64,222697,2,0,L|416:0,1,90,8|0,0:0|0:0,0:0:0:0:
208,16,223030,6,0,L|128:64,2,90,0|0|8,0:0|0:0|0:0,0:0:0:0:
64,160,223530,1,0,0:0:0:0:
144,144,223613,1,0,0:0:0:0:
224,144,223697,2,0,L|176:224,1,90,0|0,0:0|0:0,0:0:0:0:
368,240,224030,2,0,L|416:160,1,90,8|0,0:0|0:0,0:0:0:0:
144,144,224363,6,0,L|288:32,1,180,4|8,0:0|0:0,0:0:0:0:
400,32,224863,2,0,L|368:64,1,45
336,112,225030,2,0,L|400:176,2,90,0|0|8,0:0|0:0|0:0,0:0:0:0:
176,64,225530,1,0,0:0:0:0:
336,112,225697,6,0,L|192:224,1,180,0|8,0:0|0:0,0:0:0:0:
16,224,226197,1,0,0:0:0:0:
96,176,226280,1,0,0:0:0:0:
176,128,226363,2,0,L|256:80,2,90,0|0|8,0:0|0:0|0:0,0:0:0:0:
336,112,226863,1,0,0:0:0:0:
496,128,227030,6,0,L|416:176,1,90,0|0,0:0|0:0,0:0:0:0:
256,256,227363,1,12,0:0:0:0:
400,224,227530,1,0,0:0:0:0:
320,192,227613,1,0,0:0:0:0:
240,160,227697,2,0,L|288:80,1,90,0|0,0:0|0:0,0:0:0:0:
208,96,227947,1,0,0:0:0:0:
128,112,228030,2,0,L|176:32,1,90,12|0,0:0|0:0,0:0:0:0:
416,80,228363,6,0,L|496:128,2,90,0|0|8,0:0|0:0|0:0,0:0:0:0:
256,48,228863,1,0,0:0:0:0:
192,80,228947,1,0,0:0:0:0:
128,112,229030,2,0,L|176:192,1,90,0|0,0:0|0:0,0:0:0:0:
32,192,229363,2,0,L|80:272,1,90,8|0,0:0|0:0,0:0:0:0:
336,272,229697,6,0,B|448:192|448:192|336:112,1,270,6|8,0:0|0:0,0:0:0:0:
160,128,230197,1,0,0:0:0:0:
240,160,230280,1,0,0:0:0:0:
320,192,230363,2,0,L|256:256,1,90,2|0,0:0|0:0,0:0:0:0:
112,320,230697,1,8,0:0:0:0:
272,352,230863,1,0,0:0:0:0:
32,352,231030,6,0,L|160:224,1,180,2|8,0:0|0:0,0:0:0:0:
16,208,231530,1,0,0:0:0:0:
96,160,231613,1,0,0:0:0:0:
176,112,231697,2,0,L|256:64,1,90,2|0,0:0|0:0,0:0:0:0:
96,64,232030,2,0,L|16:112,1,90,8|0,0:0|0:0,0:0:0:0:
288,112,232363,6,0,B|400:192|400:192|288:272,1,270,2|8,0:0|0:0,0:0:0:0:
128,240,232863,1,0,0:0:0:0:
208,176,232947,1,0,0:0:0:0:
288,112,233030,2,0,L|208:64,1,90,2|0,0:0|0:0,0:0:0:0:
128,32,233280,1,0,0:0:0:0:
48,64,233363,2,0,L|128:112,1,90,8|0,0:0|0:0,0:0:0:0:
384,112,233697,6,0,L|464:64,2,90,2|0|8,0:0|0:0|0:0,0:0:0:0:
208,176,234197,1,0,0:0:0:0:
288,192,234280,1,0,0:0:0:0:
368,208,234363,1,2,0:0:0:0:
288,272,234447,1,0,0:0:0:0:
208,336,234530,1,0,0:0:0:0:
48,288,234697,2,0,L|128:240,1,90,8|0,0:0|0:0,0:0:0:0:
400,272,235030,6,0,B|480:160|480:160|400:48,1,270,2|8,0:0|0:0,0:0:0:0:
224,112,235530,1,0,0:0:0:0:
304,128,235613,1,0,0:0:0:0:
384,144,235697,2,0,L|480:160,2,90,2|0|8,0:0|0:0|0:0,0:0:0:0:
480,288,236197,1,0,0:0:0:0:
400,272,236280,1,0,0:0:0:0:
320,256,236363,6,0,L|144:208,1,180,2|8,0:0|0:0,0:0:0:0:
16,112,236863,1,0,0:0:0:0:
96,128,236947,1,0,0:0:0:0:
176,144,237030,2,0,L|160:48,1,90,2|0,0:0|0:0,0:0:0:0:
352,64,237363,2,0,L|368:160,1,90,8|0,0:0|0:0,0:0:0:0:
128,272,237697,6,0,B|16:192|16:192|128:112,1,270,2|8,0:0|0:0,0:0:0:0:
304,80,238197,1,0,0:0:0:0:
224,112,238280,1,0,0:0:0:0:
144,144,238363,2,0,L|192:224,1,90,2|0,0:0|0:0,0:0:0:0:
368,208,238697,2,0,L|320:128,1,90,8|0,0:0|0:0,0:0:0:0:
176,144,239030,6,0,L|224:64,1,90,2|0,0:0|0:0,0:0:0:0:
48,128,239363,2,0,L|96:48,1,90,8|0,0:0|0:0,0:0:0:0:
304,80,239697,2,0,L|224:32,1,90,2|0,0:0|0:0,0:0:0:0:
400,208,240030,2,0,L|320:160,1,90,8|0,0:0|0:0,0:0:0:0:
176,32,240363,6,0,B|48:128|48:128|304:256|304:256|176:352,1,603.899975120088,2|0,2:0|0:0,0:0:0:0:
16,320,242363,2,0,B|256:224|256:224|176:160,1,360,2|2,2:0|2:0,0:0:0:0:
256,192,243197,12,0,249697,0:0:0:0:
