osu file format v14

[General]
AudioFilename: Erasus.mp3
AudioLeadIn: 2000
PreviewTime: 37697
Countdown: 0
SampleSet: Soft
StackLeniency: 0.7
Mode: 0
LetterboxInBreaks: 0
WidescreenStoryboard: 0

[Editor]
Bookmarks: 5697,11030,21697,25030,27030,29863,32363,43030,64363,73363,75030,85697,91030,93697,96363,117697,120363,127030,128363,131030,141697,147030,163030,187030,197697,217697,219030,229697,240363,243030
DistanceSpacing: 1.8
BeatDivisor: 4
GridSize: 32
TimelineZoom: 1.8

[Metadata]
Title:Erasus
TitleUnicode:Erasus
Artist:Subkulture feat. Klayton of Celldweller
ArtistUnicode:Subkulture feat. Klayton of Celldweller
Creator:ErunamoJAZZ
Version:Insane
Source:
Tags:Nyukai Nyu-chan Inyuschan Kurokami xtrem3x Erase Us DotA2 DotaCinema CS Counter Strike Source Drum and Bass dnb Techno Trance Metal amazing noob never forget my real first rank thanks
BeatmapID:655216
BeatmapSetID:107979

[Difficulty]
HPDrainRate:5.5
CircleSize:4
OverallDifficulty:7.5
ApproachRate:9
SliderMultiplier:1
SliderTickRate:1

[Events]
//Background and Video events
0,0,"bg_erasus.png",0,0
//Break Periods
2,149896,162430
//Storyboard Layer 0 (Background)
//Storyboard Layer 1 (Fail)
//Storyboard Layer 2 (Pass)
//Storyboard Layer 3 (Foreground)
//Storyboard Sound Samples

[TimingPoints]
364,333.333333333333,4,1,0,30,1,0
4363,-83.3333333333333,4,1,0,20,0,0
11030,-100,4,2,0,50,0,0
19363,-83.3333333333333,4,2,0,50,0,0
22030,-83.3333333333333,4,1,0,30,0,0
25030,-66.6666666666667,4,1,0,45,0,0
25363,-66.6666666666667,4,1,0,50,0,0
27030,-83.3333333333333,4,1,0,30,0,0
29030,-66.6666666666667,4,1,0,30,0,0
30030,-66.6666666666667,4,1,0,50,0,0
32363,-83.3333333333333,4,1,0,30,0,0
36030,-66.6666666666667,4,1,0,50,0,0
37197,-83.3333333333333,4,1,0,40,0,0
43030,-66.6666666666667,4,1,0,55,0,1
64363,-100,4,1,0,45,0,0
73363,-55.5555555555556,4,1,0,50,0,1
75030,-90.9090909090909,4,1,0,40,0,0
77030,-76.9230769230769,4,1,0,40,0,0
77697,-90.9090909090909,4,1,0,40,0,0
79863,-66.6666666666667,4,1,0,40,0,0
80447,-90.9090909090909,4,1,0,40,0,0
85697,-133.333333333333,4,3,0,40,0,0
91030,-90.9090909090909,4,1,0,40,0,0
93697,-66.6666666666667,4,1,0,45,0,0
96363,-66.6666666666667,4,1,0,50,0,1
117697,-133.333333333333,4,1,0,45,0,0
120363,-80,4,3,0,45,0,0
128363,-58.8235294117647,4,1,0,45,0,0
129363,-58.8235294117647,4,1,0,55,0,1
131030,-66.6666666666667,4,1,0,45,0,0
141697,-133.333333333333,4,1,0,40,0,0
149697,-125,4,2,0,30,0,0
178947,-125,4,2,0,25,0,0
179947,-125,4,2,0,30,0,0
180947,-125,4,2,0,40,0,0
186197,-125,4,2,0,35,0,0
188363,-125,4,2,0,30,0,0
189030,-125,4,2,0,25,0,0
189697,-125,4,2,0,20,0,0
190363,-125,4,2,0,15,0,0
191030,-125,4,2,0,5,0,0
197697,-58.8235294117647,4,1,0,50,0,1
217697,-83.3333333333333,4,1,0,40,0,0
219030,-58.8235294117647,4,1,0,60,0,1
235030,-58.8235294117647,4,1,0,65,0,1
240363,-100,4,2,0,40,0,0
243363,-100,4,2,0,10,0,0

[Colours]
Combo1 : 179,129,13
Combo2 : 0,83,166
Combo3 : 217,217,0
Combo4 : 192,192,192
Combo5 : 201,24,125
Combo6 : 31,91,124

[HitObjects]
223,47,5697,6,0,P|248:89|325:100,1,119.999996337891,0|8,0:0|0:0,0:0:0:0:
377,69,6197,2,0,L|370:22,2,29.9999990844727,0|0|0,0:0|0:0|0:0,0:0:0:0:
375,141,6530,2,0,P|366:173|375:206,1,59.9999981689454,8|0,0:0|0:0,0:0:0:0:
380,220,6780,1,0,0:0:0:0:
396,237,6863,1,0,0:0:0:0:
348,292,7030,6,0,P|283:282|220:288,1,119.999996337891,0|8,0:0|0:0,0:0:0:0:
178,234,7530,1,0,0:0:0:0:
178,234,7613,1,0,0:0:0:0:
178,234,7697,2,0,P|148:268|116:280,1,59.9999981689454,0|8,0:0|0:0,0:0:0:0:
110,207,8030,2,0,L|99:166,2,29.9999990844727,0|0|0,0:0|0:0|0:0,0:0:0:0:
119,111,8363,6,0,P|168:103|213:36,1,119.999996337891,0|8,0:0|0:0,0:0:0:0:
281,38,8863,2,0,L|312:73,2,29.9999990844727,0|0|0,0:0|0:0|0:0,0:0:0:0:
270,133,9196,2,0,P|299:138|328:134,1,59.9999981689454,8|0,0:0|0:0,0:0:0:0:
352,128,9446,1,0,0:0:0:0:
375,120,9529,1,0,0:0:0:0:
464,156,9696,6,0,P|422:207|351:213,1,119.999996337891,2|2,0:3|0:3,0:0:0:0:
257,177,10197,1,0,0:0:0:0:
169,95,10363,2,0,P|139:108|106:134,1,59.9999981689454,2|0,0:3|0:0,0:0:0:0:
122,244,10697,2,0,P|100:268|82:306,1,59.9999981689454,2|0,0:3|0:0,0:0:0:0:
257,176,11030,5,4,0:0:0:0:
295,331,11363,2,0,P|341:318|385:264,1,100,2|0,0:2|2:0,0:0:0:0:
457,277,11863,2,0,P|455:230|431:178,1,100,2|0,2:0|2:0,0:0:0:0:
487,122,12363,6,0,P|450:74|402:52,1,100,2|2,0:0|0:0,0:0:0:0:
358,111,12863,1,0,0:0:0:0:
223,62,13197,2,0,P|291:107|367:110,1,150,2|2,0:0|0:0,0:0:0:0:
158,87,14030,6,0,P|136:122|105:151,1,75,2|0,0:0|0:0,0:0:0:0:
88,177,14363,2,0,P|97:204|102:236,1,50,0|2,0:0|0:0,0:0:0:0:
55,292,14697,2,0,L|15:293,2,25,0|0|0,0:0|0:0|0:0,0:0:0:0:
134,303,15030,6,0,P|158:308|183:320,1,50,2|0,0:0|0:0,0:0:0:0:
261,317,15363,2,0,P|281:308|312:304,1,50,2|0,0:0|0:0,0:0:0:0:
357,368,15697,2,0,P|391:299|307:226,1,200,2|0,0:0|0:0,0:0:0:0:
311,225,16697,6,0,P|343:197|363:151,1,75,2|0,0:0|0:0,0:0:0:0:
373,131,17030,2,0,P|398:128|434:135,1,50,0|2,0:0|0:0,0:0:0:0:
395,55,17364,2,0,L|423:25,2,25,0|0|0,0:0|0:0|0:0,0:0:0:0:
314,58,17697,6,0,L|276:101,1,50,2|0,0:0|0:0,0:0:0:0:
241,26,18030,2,0,L|207:63,1,50,2|0,0:0|0:0,0:0:0:0:
138,22,18363,2,0,B|113:63|126:105|165:131|165:131|233:172,1,200,0|0,0:0|0:0,0:0:0:0:
33,238,19363,6,0,P|71:263|101:317,1,89.9999972534181,2|0,0:0|0:0,0:0:0:0:
117,342,19696,2,0,B|149:350|149:334|181:342,1,59.9999981689454,0|2,0:0|0:0,0:0:0:0:
272,347,20030,2,0,L|296:383,2,29.9999990844727,0|0|0,0:0|0:0|0:0,0:0:0:0:
256,252,20363,6,0,P|278:215|329:190,1,89.9999972534181,2|0,0:0|0:0,0:0:0:0:
366,197,20697,2,0,B|382:168|394:180|411:151,1,59.9999981689454,0|2,0:0|0:0,0:0:0:0:
457,73,21030,2,0,L|502:86,2,29.9999990844727,0|0|0,0:0|0:0|0:0,0:0:0:0:
362,55,21363,2,0,P|324:70|307:87,1,59.9999981689454,2|0,0:0|0:0,0:0:0:0:
256,252,21697,5,4,0:3:0:0:
199,82,22030,6,0,P|176:63|148:55,1,59.9999981689454,0|0,1:0|3:0,3:0:0:0:
85,119,22363,2,0,P|108:137|136:146,1,59.9999981689454,0|0,3:0|3:0,3:0:0:0:
288,96,22697,1,0,1:0:0:0:
225,161,22863,1,0,3:0:0:0:
190,245,23030,6,0,P|150:210|137:143,1,119.999996337891,0|0,3:0|1:0,3:0:0:0:
190,245,23530,1,0,3:0:0:0:
237,321,23697,2,0,P|177:333|121:301,2,119.999996337891,0|0|0,0:0|1:0|3:0,0:0:0:0:
352,182,24697,1,8,0:0:0:0:
152,81,25030,6,0,P|170:49|212:20,1,75.0000028610231,0|8,0:0|0:2,0:0:0:0:
256,124,25363,1,8,0:0:0:0:
312,25,25530,1,0,0:0:0:0:
345,42,25613,1,0,0:0:0:0:
373,66,25697,2,0,P|404:101|417:142,1,75.0000028610231,0|8,0:0|0:0,0:0:0:0:
414,239,26030,1,0,3:0:0:0:
396,272,26113,1,0,3:0:0:0:
372,300,26197,2,0,P|340:324|300:340,1,75.0000028610231,0|8,3:0|3:1,0:0:0:0:
256,238,26530,2,0,L|256:159,2,75.0000028610231,0|0|0,3:0|3:0|3:0,0:0:0:0:
180,73,27030,6,0,L|180:144,1,59.9999981689454,0|0,3:0|3:0,3:0:0:0:
93,106,27363,2,0,L|93:177,1,59.9999981689454,0|0,1:0|3:0,3:0:0:0:
167,217,27697,1,0,3:0:0:0:
88,259,27863,1,0,3:0:0:0:
168,299,28030,2,0,L|231:339,1,59.9999981689454,0|0,1:0|3:0,3:0:0:0:
415,273,28363,2,0,P|420:214|389:165,1,119.999996337891,0|0,3:0|1:0,3:0:0:0:
312,120,28863,1,0,3:0:0:0:
280,229,29030,6,0,P|202:231|97:53,1,300.000011444092,2|0,0:0|0:0,0:0:0:0:
312,120,30030,2,0,B|345:105|345:105|347:100|347:100|395:80,1,75.0000028610231,0|4,0:0|0:0,0:0:0:0:
200,120,30530,2,0,B|166:105|166:105|164:100|164:100|134:87,1,75.0000028610231,0|4,0:0|0:0,0:0:0:0:
256,172,31030,6,0,L|256:272,1,75.0000028610231,0|4,0:0|0:0,0:0:0:0:
224,356,31363,2,0,B|256:376|256:376|288:356,2,75.0000028610231,0|0|0,0:0|0:0|0:0,0:0:0:0:
256,248,31863,1,0,0:0:0:0:
256,95,32030,2,0,L|256:20,1,75.0000028610231,0|0,0:0|0:0,0:0:0:0:
256,172,32363,6,0,P|192:172|132:120,1,119.999996337891,4|0,0:3|0:0,0:0:0:0:
76,80,32863,1,0,0:0:0:0:
168,48,33030,1,0,0:0:0:0:
56,176,33197,1,0,0:0:0:0:
116,252,33363,1,0,0:0:0:0:
208,248,33530,1,0,0:0:0:0:
256,172,33697,6,0,P|304:140|380:132,1,119.999996337891,4|0,0:3|0:0,0:0:0:0:
428,192,34197,1,0,0:0:0:0:
384,268,34363,2,0,P|336:300|260:308,1,119.999996337891,0|0,0:0|0:0,0:0:0:0:
208,248,34863,1,0,0:0:0:0:
155,140,35030,6,0,L|209:248,1,119.999996337891,4|0,0:3|0:0,0:0:0:0:
256,72,35697,1,0,0:0:0:0:
304,248,36030,6,0,L|336:180,1,75.0000028610231,2|2,0:2|0:2,0:0:0:0:
384,76,36363,1,0,0:2:0:0:
304,248,36530,2,2,P|288:152|256:76,1,150.000005722046,2|2,0:2|0:2,0:0:0:0:
164,68,37030,2,0,P|128:88|94:121,1,75.0000028610231,2|0,0:0|0:2,0:0:0:0:
88,216,37363,2,0,P|70:242|56:272,1,59.9999981689454,2|0,0:0|0:0,0:0:0:0:
88,216,37697,5,2,0:2:0:0:
384,76,38030,2,0,P|428:120|444:192,1,119.999996337891,0|0,0:0|0:0,0:0:0:0:
442,262,38530,1,0,0:0:0:0:
352,248,38697,1,2,0:2:0:0:
352,248,39030,6,0,P|329:193|281:158,1,119.999996337891,2|0,0:2|0:0,0:0:0:0:
161,152,39530,1,2,0:3:0:0:
221,257,39697,2,0,P|265:212|281:140,1,119.999996337891,2|2,0:3|0:3,0:0:0:0:
256,40,40197,1,0,0:0:0:0:
372,68,40363,6,0,L|452:96,1,59.9999981689454,2|8,1:3|1:3,0:0:0:0:
376,196,40697,2,0,L|436:252,1,59.9999981689454,2|8,1:3|1:3,0:0:0:0:
280,292,41030,2,0,L|304:352,1,59.9999981689454,2|2,1:3|1:3,0:0:0:0:
140,268,41364,2,0,L|108:344,1,59.9999981689454,2|2,1:3|1:3,0:0:0:0:
256,192,41697,12,4,42697,0:2:0:0:
60,148,43030,6,0,P|112:88|176:64,1,150.000005722046,6|8,0:0|0:0,0:0:0:0:
256,104,43530,1,2,0:0:0:0:
405,90,43697,2,0,P|372:72|336:64,1,75.0000028610231,0|0,0:0|0:0,0:0:0:0:
256,104,44030,1,10,0:0:0:0:
256,196,44197,1,0,0:0:0:0:
256,284,44363,6,2,B|260:308|260:308|252:336|252:336|256:360,2,75.0000028610231,2|0|8,0:0|0:0|0:0,0:0:0:0:
256,196,44863,1,2,0:0:0:0:
104,340,45030,2,0,L|197:313,1,75.0000028610231,0|0,0:0|0:0,0:0:0:0:
408,340,45363,2,0,L|315:313,1,75.0000028610231,10|0,0:0|0:0,0:0:0:0:
104,236,45697,6,2,P|116:196|156:156,1,75.0000028610231,2|0,0:0|0:0,0:0:0:0:
256,104,46030,1,8,0:0:0:0:
380,156,46197,1,0,0:0:0:0:
404,184,46280,1,0,0:0:0:0:
416,220,46363,2,0,P|404:256|368:288,1,75.0000028610231,0|0,0:0|0:0,0:0:0:0:
300,236,46697,1,10,0:0:0:0:
212,236,46863,1,0,0:0:0:0:
124,224,47030,6,2,P|120:144|184:80,1,150.000005722046,2|8,0:0|0:0,0:0:0:0:
350,91,47530,2,2,P|394:150|388:224,1,150.000005722046,2|0,0:0|0:0,0:0:0:0:
300,236,48030,1,10,0:0:0:0:
212,236,48197,1,0,0:0:0:0:
109,150,48363,6,2,P|72:216|88:299,1,150.000005722046,6|8,0:0|0:0,0:0:0:0:
109,150,48863,2,0,P|106:109|68:75,2,75.0000028610231,2|0|0,0:0|0:0|0:0,0:0:0:0:
81,287,49363,2,2,P|140:360|208:376,1,150.000005722046,10|0,0:0|0:0,0:0:0:0:
212,236,49863,6,2,P|234:171|301:112,1,150.000005722046,2|0,0:0|0:0,0:0:0:0:
423,89,50363,1,2,0:0:0:0:
412,224,50530,2,0,P|374:217|342:194,1,75.0000028610231,2|8,0:0|0:0,0:0:0:0:
292,116,50863,1,0,0:0:0:0:
224,59,51030,6,2,P|184:40|151:38,1,75.0000028610231,2|0,0:0|0:0,0:0:0:0:
64,48,51363,1,8,0:0:0:0:
24,128,51530,1,0,0:0:0:0:
13,164,51613,1,0,0:0:0:0:
8,203,51697,2,0,P|25:235|60:254,1,75.0000028610231,0|0,0:0|0:0,0:0:0:0:
148,255,52030,1,10,0:0:0:0:
151,345,52197,1,0,0:0:0:0:
284,356,52363,6,2,P|349:321|383:256,1,150.000005722046,2|8,0:0|0:0,0:0:0:0:
324,136,52863,1,0,0:0:0:0:
200,188,53030,2,2,P|231:229|256:244,1,75.0000028610231,2|0,0:0|0:0,0:0:0:0:
383,256,53363,1,8,0:0:0:0:
460,144,53530,1,0,0:0:0:0:
460,144,53613,1,0,0:0:0:0:
460,144,53697,6,2,P|432:68|368:20,1,150.000005722046,6|8,0:0|0:0,0:0:0:0:
296,56,54197,1,2,0:0:0:0:
272,144,54364,2,0,P|288:180|324:208,1,75.0000028610231,0|0,0:0|0:0,0:0:0:0:
356,124,54697,1,10,0:0:0:0:
296,56,54864,1,0,0:0:0:0:
208,52,55030,6,2,P|180:77|164:111,1,75.0000028610231,2|0,0:0|0:0,0:0:0:0:
103,180,55364,1,8,0:0:0:0:
122,270,55530,1,2,0:0:0:0:
111,357,55697,2,0,L|36:347,1,75.0000028610231,0|0,0:0|0:0,0:0:0:0:
193,326,56030,2,0,L|267:335,1,75.0000028610231,10|0,0:0|0:0,0:0:0:0:
122,270,56363,6,2,L|47:260,1,75.0000028610231,6|0,0:0|0:0,0:0:0:0:
208,240,56697,1,8,0:0:0:0:
296,212,56864,1,0,0:0:0:0:
331,224,56947,1,0,0:0:0:0:
367,237,57030,2,0,L|393:307,1,75.0000028610231,0|0,0:0|0:0,0:0:0:0:
416,160,57364,1,10,0:0:0:0:
388,76,57530,1,0,0:0:0:0:
252,92,57697,6,2,P|178:100|116:62,1,150.000005722046,2|0,0:0|0:0,0:0:0:0:
24,160,58197,2,2,P|48:240|108:296,1,150.000005722046,2|0,0:0|0:0,0:0:0:0:
208,220,58697,1,10,0:0:0:0:
252,92,58863,1,0,0:0:0:0:
208,220,59030,6,2,P|248:304|320:340,1,150.000005722046,6|8,0:0|0:0,0:0:0:0:
336,204,59530,2,0,P|321:169|321:132,2,75.0000028610231,2|0|0,0:0|0:0|0:0,0:0:0:0:
452,92,60030,2,2,P|368:40|300:44,1,150.000005722046,10|0,0:0|0:0,0:0:0:0:
60,92,60530,6,2,P|144:40|212:44,1,150.000005722046,2|0,0:0|0:0,0:0:0:0:
192,132,61030,1,2,0:0:0:0:
192,132,61197,2,0,P|191:169|177:203,1,75.0000028610231,2|8,0:0|0:0,0:0:0:0:
47,243,61530,1,0,0:0:0:0:
100,316,61697,6,2,P|132:336|184:336,1,75.0000028610231,2|0,0:0|0:0,0:0:0:0:
256,312,62030,1,8,0:0:0:0:
344,339,62197,1,0,0:0:0:0:
380,336,62280,1,0,0:0:0:0:
412,316,62364,2,0,P|424:280|416:236,1,75.0000028610231,0|0,0:0|0:0,0:0:0:0:
384,160,62697,1,10,0:0:0:0:
311,107,62863,1,0,0:0:0:0:
126,57,63030,6,2,P|160:123|229:147,1,150.000005722046,2|8,0:0|0:0,0:0:0:0:
228,147,63530,1,0,0:0:0:0:
256,59,63697,2,0,P|289:76|311:107,1,75.0000028610231,2|0,0:0|0:0,0:0:0:0:
328,196,64030,1,8,0:0:0:0:
300,280,64197,1,0,0:0:0:0:
300,280,64363,6,0,P|260:304|200:300,1,100,4|8,0:0|0:2,0:0:0:0:
140,299,64863,1,0,0:0:0:0:
140,299,64947,1,0,0:0:0:0:
140,299,65030,2,0,P|117:311|99:328,1,50,0|8,0:0|0:3,0:0:0:0:
132,220,65363,2,0,P|152:200|168:172,1,50,8|0,0:2|0:0,0:0:0:0:
171,112,65697,6,0,P|200:80|256:63,1,100,8|8,0:3|0:2,0:0:0:0:
296,4,66197,1,0,0:0:0:0:
304,124,66363,2,0,P|328:136|356:136,2,50,0|8|8,0:0|0:3|0:2,0:0:0:0:
344,64,66863,1,0,0:0:0:0:
416,168,67030,6,0,P|396:192|368:208,1,50,8|0,0:3|0:0,0:0:0:0:
312,220,67363,2,0,P|284:232|264:256,1,50,8|0,0:2|0:0,0:0:0:0:
227,301,67697,2,0,P|179:277|143:245,1,100,0|8,0:0|0:2,0:0:0:0:
188,112,68197,5,2,0:2:0:0:
76,28,68530,1,2,0:2:0:0:
32,160,68863,1,2,0:2:0:0:
144,247,69197,2,0,P|160:299|160:355,1,100,8|0,0:3|0:0,0:0:0:0:
351,341,69697,6,0,P|352:316|356:280,1,50,8|0,0:3|0:0,0:0:0:0:
392,232,70030,2,0,P|404:208|408:184,1,50,8|0,0:2|0:0,0:0:0:0:
408,116,70363,2,0,P|360:100|316:60,1,100,0|8,0:0|0:2,0:0:0:0:
256,48,70863,1,0,0:0:0:0:
256,48,70947,1,0,0:0:0:0:
256,48,71030,1,8,0:3:0:0:
132,112,71363,5,8,0:2:0:0:
84,244,71697,2,0,P|58:263|48:285,2,50,0|8|8,0:0|0:3|0:2,0:0:0:0:
148,216,72197,1,0,0:0:0:0:
212,244,72363,2,0,P|256:224|292:180,1,100,8|8,0:3|0:2,0:0:0:0:
256,48,73030,1,0,0:0:0:0:
400,40,73363,6,2,P|432:124|440:244,1,179.999994506836,6|2,0:0|0:0,0:0:0:0:
380,324,73863,2,2,P|312:272|252:188,1,179.999994506836,6|2,0:0|0:0,0:0:0:0:
180,96,74363,2,2,P|96:152|32:240,1,179.999994506836,6|2,0:0|0:0,0:0:0:0:
136,340,75030,6,0,P|160:336|192:328,1,55.0000016784668,4|0,0:3|0:3,0:0:0:0:
240,272,75363,1,8,0:2:0:0:
296,220,75530,1,8,0:3:0:0:
296,220,75613,1,8,0:3:0:0:
296,220,75697,2,0,P|321:233|352:264,1,55.0000016784668,8|0,0:3|0:0,0:0:0:0:
356,324,76030,1,8,0:2:0:0:
416,272,76197,1,0,0:0:0:0:
464,212,76363,6,0,P|444:184|432:152,1,55.0000016784668,4|0,0:3|0:0,0:0:0:0:
480,100,76697,1,8,0:2:0:0:
384,36,76863,1,8,0:3:0:0:
384,36,76947,1,8,0:3:0:0:
384,36,77030,2,0,P|320:52|244:36,1,129.999994049073,8|8,0:3|0:2,0:0:0:0:
124,12,77530,1,0,0:0:0:0:
180,68,77697,6,0,L|200:132,1,55.0000016784668,4|0,0:3|0:0,0:0:0:0:
140,172,78030,2,0,L|108:224,1,55.0000016784668,8|8,0:2|0:3,0:0:0:0:
96,256,78280,1,8,0:3:0:0:
96,256,78363,2,0,L|124:324,1,55.0000016784668,8|0,0:3|0:0,0:0:0:0:
196,300,78697,1,8,0:2:0:0:
256,348,78863,1,0,0:0:0:0:
312,296,79030,6,0,L|344:236,1,55.0000016784668,4|0,0:3|0:0,0:0:0:0:
412,224,79363,1,8,0:2:0:0:
376,156,79530,1,8,0:3:0:0:
376,156,79613,1,8,0:3:0:0:
376,156,79697,2,0,P|328:120|292:64,1,110.000003356934,8|8,0:3|0:2,0:0:0:0:
96,24,80363,5,6,0:2:0:0:
186,148,80697,1,10,0:2:0:0:
310,57,81030,1,10,0:2:0:0:
400,181,81363,1,8,0:2:0:0:
456,128,81530,1,0,0:2:0:0:
416,256,81697,6,0,P|400:308|352:356,1,110.000003356934,4|8,0:3|0:2,0:0:0:0:
288,344,82197,1,8,0:3:0:0:
288,344,82280,1,8,0:3:0:0:
288,344,82363,2,0,L|228:304,1,55.0000016784668,8|0,0:3|0:0,0:0:0:0:
190,205,82697,2,0,L|236:236,1,55.0000016784668,8|0,0:2|0:0,0:0:0:0:
145,329,83030,6,0,L|176:284,2,55.0000016784668,4|0|8,0:3|0:0|0:2,0:0:0:0:
76,300,83530,1,8,0:3:0:0:
76,300,83613,1,8,0:3:0:0:
76,300,83697,2,0,L|24:260,1,55.0000016784668,8|0,0:3|0:0,0:0:0:0:
60,196,84030,1,8,0:2:0:0:
104,132,84197,1,0,0:0:0:0:
144,64,84363,6,0,P|199:73|256:60,1,110.000003356934,4|8,0:3|0:2,0:0:0:0:
320,28,84863,1,8,0:3:0:0:
348,56,84947,1,8,0:3:0:0:
376,80,85030,2,0,P|404:100|436:112,1,55.0000016784668,8|0,0:3|0:0,0:0:0:0:
500,120,85363,2,0,P|499:91|479:55,1,55.0000016784668,8|0,0:2|0:0,0:0:0:0:
452,180,85697,6,0,P|379:303|232:277,1,300.000011444092,6|0,2:2|2:0,2:0:0:0:
264,76,87697,6,0,L|337:207,1,150.000005722046,4|4,2:2|2:2,2:0:0:0:
96,246,89697,6,0,P|146:128|263:76,1,262.500010013581,4|0,2:2|2:0,2:0:0:0:
332,108,91030,6,0,P|352:140|392:160,1,73.3333355712891,0|0,0:0|0:0,0:0:0:0:
480,192,91475,1,0,0:0:0:0:
382,226,91697,2,0,P|350:245|332:276,1,73.3333355712891,0|0,0:0|0:0,0:0:0:0:
276,192,92141,1,0,0:0:0:0:
188,244,92363,6,0,P|164:276|116:296,1,73.3333355712891,0|0,0:0|0:0,0:0:0:0:
96,192,92808,1,0,0:0:0:0:
135,92,93030,2,0,P|166:110|188:140,1,73.3333355712891,0|0,0:0|0:0,0:0:0:0:
256,216,93475,1,0,0:0:0:0:
256,316,93697,1,4,0:3:0:0:
256,192,95030,12,2,95697,3:0:0:0:
256,192,96030,5,2,3:0:0:0:
256,192,96113,1,2,3:0:0:0:
256,192,96197,1,2,3:0:0:0:
256,192,96280,1,2,3:0:0:0:
256,192,96363,2,2,P|332:174|392:116,1,150.000005722046,6|8,3:1|0:0,0:0:0:0:
464,88,96863,1,2,0:0:0:0:
472,176,97030,2,0,P|472:212|504:256,1,75.0000028610231,0|0,0:0|0:0,0:0:0:0:
440,320,97363,1,10,0:0:0:0:
360,276,97530,1,0,0:0:0:0:
284,324,97696,6,2,P|240:320|196:300,1,75.0000028610231,2|0,0:0|0:0,0:0:0:0:
140,252,98030,1,8,0:0:0:0:
132,164,98196,1,2,0:0:0:0:
172,84,98363,2,0,L|236:24,1,75.0000028610231,0|0,0:0|0:0,0:0:0:0:
352,84,98697,2,0,L|296:134,1,75.0000028610231,10|0,0:0|0:0,0:0:0:0:
188,212,99030,6,2,P|160:196|132:164,1,75.0000028610231,2|0,0:0|0:0,0:0:0:0:
88,84,99363,1,8,0:0:0:0:
48,164,99530,1,0,0:0:0:0:
48,164,99613,1,0,0:0:0:0:
48,164,99696,2,0,P|36:216|44:264,1,75.0000028610231,0|0,0:0|0:0,0:0:0:0:
56,324,100030,1,10,0:0:0:0:
120,264,100196,1,0,0:0:0:0:
148,352,100363,6,2,P|216:348|300:316,1,150.000005722046,2|8,0:0|0:0,0:0:0:0:
120,264,100863,1,2,0:0:0:0:
188,212,101030,2,0,P|210:184|222:142,1,75.0000028610231,0|0,0:0|0:0,0:0:0:0:
196,60,101363,1,10,0:0:0:0:
280,29,101530,1,0,0:0:0:0:
412,60,101697,6,2,P|424:132|396:208,1,150.000005722046,6|8,0:0|0:0,0:0:0:0:
311,207,102196,2,0,P|278:187|255:155,2,75.0000028610231,2|0|0,0:0|0:0|0:0,0:0:0:0:
368,280,102696,2,0,P|402:289|439:321,1,75.0000028610231,10|0,0:0|0:0,0:0:0:0:
292,284,103030,6,2,P|211:318|118:328,1,150.000005722046,2|8,0:0|0:0,0:0:0:0:
76,276,103530,1,0,0:0:0:0:
56,244,103613,1,0,0:0:0:0:
40,208,103696,1,2,0:0:0:0:
36,116,103863,2,0,P|59:85|126:71,1,75.0000028610231,2|8,0:0|0:0,0:0:0:0:
116,160,104196,1,0,0:0:0:0:
204,152,104363,6,2,P|244:160|280:144,1,75.0000028610231,2|0,0:0|0:0,0:0:0:0:
356,104,104696,1,8,0:0:0:0:
420,168,104863,1,0,0:0:0:0:
432,204,104946,1,0,0:0:0:0:
440,240,105030,2,0,P|416:288|376:304,1,75.0000028610231,0|0,0:0|0:0,0:0:0:0:
312,320,105363,1,10,0:0:0:0:
304,232,105530,1,0,0:0:0:0:
384,192,105696,6,2,P|326:134|240:105,1,150.000005722046,2|8,0:0|0:0,0:0:0:0:
128,112,106196,1,0,0:0:0:0:
178,237,106363,2,2,P|214:217|243:179,1,75.0000028610231,2|0,0:0|0:0,0:0:0:0:
264,108,106696,1,8,0:0:0:0:
336,56,106863,1,0,0:0:0:0:
336,56,106946,1,0,0:0:0:0:
336,56,107030,6,2,P|412:86|460:157,1,150.000005722046,6|8,0:0|0:0,0:0:0:0:
456,228,107530,1,2,0:0:0:0:
412,308,107697,2,0,P|384:336|335:347,1,75.0000028610231,0|0,0:0|0:0,0:0:0:0:
336,256,108030,1,10,0:0:0:0:
256,300,108197,1,0,0:0:0:0:
176,340,108363,6,2,P|164:300|176:264,1,75.0000028610231,2|0,0:0|0:0,0:0:0:0:
256,300,108697,1,8,0:0:0:0:
248,212,108863,1,2,0:0:0:0:
168,176,109030,2,0,L|81:205,1,75.0000028610231,0|0,0:0|0:0,0:0:0:0:
16,92,109363,2,0,L|102:64,1,75.0000028610231,10|0,0:0|0:0,0:0:0:0:
176,84,109697,6,2,P|208:88|260:68,1,75.0000028610231,2|0,0:0|0:0,0:0:0:0:
340,68,110030,1,8,0:0:0:0:
404,132,110197,1,0,0:0:0:0:
404,132,110280,1,0,0:0:0:0:
404,132,110363,2,0,P|432:168|468:184,1,75.0000028610231,0|0,0:0|0:0,0:0:0:0:
448,272,110697,1,10,0:0:0:0:
380,332,110863,1,0,0:0:0:0:
360,244,111030,6,2,P|308:204|228:216,1,150.000005722046,2|8,0:0|0:0,0:0:0:0:
160,276,111530,1,2,0:0:0:0:
228,216,111697,2,0,P|220:168|196:144,1,75.0000028610231,0|0,0:0|0:0,0:0:0:0:
116,128,112030,1,10,0:0:0:0:
88,212,112197,1,0,0:0:0:0:
244,304,112363,6,2,P|300:268|304:172,1,150.000005722046,6|8,0:0|0:0,0:0:0:0:
256,120,112863,1,2,0:0:0:0:
388,112,113030,2,0,P|360:86|327:68,1,75.0000028610231,0|0,0:0|0:0,0:0:0:0:
183,68,113363,2,2,P|148:86|107:136,1,75.0000028610231,10|0,0:0|0:0,0:0:0:0:
244,304,113697,6,2,L|344:168,1,150.000005722046,2|8,0:0|0:0,0:0:0:0:
388,112,114197,1,0,0:0:0:0:
388,112,114280,1,0,0:0:0:0:
388,112,114363,1,2,0:0:0:0:
428,192,114530,2,0,P|424:228|392:272,1,75.0000028610231,2|8,0:0|0:0,0:0:0:0:
336,320,114863,1,0,0:0:0:0:
208,364,115030,6,2,P|164:352|136:328,1,75.0000028610231,2|0,0:0|0:0,0:0:0:0:
72,276,115363,1,8,0:0:0:0:
96,188,115530,1,0,0:0:0:0:
96,188,115613,1,0,0:0:0:0:
96,188,115697,2,0,P|132:160|164:112,1,75.0000028610231,0|0,0:0|0:0,0:0:0:0:
208,68,116030,1,10,0:0:0:0:
256,144,116196,1,0,0:0:0:0:
168,248,116363,6,2,P|240:280|320:264,1,150.000005722046,2|8,0:0|0:0,0:0:0:0:
380,216,116863,1,0,0:0:0:0:
376,124,117030,2,2,P|368:84|336:48,1,75.0000028610231,2|0,0:0|0:0,0:0:0:0:
256,52,117363,1,8,0:0:0:0:
256,144,117530,1,0,0:0:0:0:
256,236,117697,6,0,P|232:256|209:267,1,56.2500021457673,2|0,0:3|0:3,0:0:0:0:
124,244,118197,2,0,P|104:220|92:197,1,56.2500021457673,2|0,0:3|0:3,0:0:0:0:
104,108,118697,2,0,P|128:88|150:76,1,56.2500021457673,2|0,0:3|0:3,0:0:0:0:
149,76,119030,1,2,0:3:0:0:
224,60,119197,6,0,L|232:28,12,18.7500007152558,2|2|2|2|2|2|8|8|8|8|4|4|4,3:0|3:0|3:0|3:0|3:0|3:0|3:0|3:0|3:0|3:0|3:0|3:0|3:0,3:0:0:0:
201,168,120363,6,0,L|189:230,1,62.5,4|0,0:0|0:0,0:0:0:0:
196,304,120697,1,8,0:2:0:0:
128,272,120863,1,0,0:0:0:0:
189,230,121030,1,0,0:0:0:0:
256,268,121197,2,0,L|328:308,2,62.5,8|8|0,0:0|0:2|0:0,0:0:0:0:
384,280,121697,6,0,P|424:248|448:172,1,125,8|8,0:0|0:2,0:0:0:0:
424,68,122197,1,2,0:0:0:0:
204,20,122530,2,0,P|144:40|100:116,1,125,2|0,0:0|0:0,0:0:0:0:
107,87,123030,5,8,0:0:0:0:
88,160,123197,1,0,0:0:0:0:
88,236,123363,2,0,P|112:264|152:284,1,62.5,8|0,0:2|0:0,0:0:0:0:
208,272,123697,1,0,0:0:0:0:
276,244,123863,1,8,0:0:0:0:
340,204,124030,2,0,P|371:221|393:261,1,62.5,8|0,0:2|0:0,0:0:0:0:
441,292,124363,6,0,P|421:308|386:317,1,62.5,8|0,0:0|0:0,0:0:0:0:
160,332,124863,1,2,0:0:0:0:
20,156,125197,2,0,P|56:84|116:64,1,125,2|0,0:0|0:0,0:0:0:0:
152,184,125697,6,0,L|92:140,1,62.5,8|0,0:0|0:0,0:0:0:0:
186,106,126030,2,0,L|237:143,1,62.5,8|0,0:2|0:0,0:0:0:0:
312,200,126363,2,0,L|348:149,1,62.5,0|8,0:0|0:0,0:0:0:0:
442,144,126697,1,8,0:2:0:0:
398,327,127030,5,8,0:0:0:0:
399,229,127197,1,0,0:0:0:0:
312,200,127363,1,0,0:0:0:0:
258,276,127530,1,0,0:0:0:0:
312,350,127697,1,0,0:0:0:0:
399,229,128030,5,2,2:3:0:0:
398,327,128363,1,0,0:0:0:0:
258,276,128697,5,0,0:0:0:0:
258,276,128863,1,0,0:0:0:0:
192,240,129030,2,0,P|146:222|100:219,1,85.0000016212464,0|0,0:0|0:0,0:0:0:0:
76,148,129363,2,0,P|164:152|256:196,1,170.000003242493,4|0,0:0|0:0,0:0:0:0:
399,225,129863,2,0,P|316:220|236:182,1,170.000003242493,4|0,0:0|0:0,0:0:0:0:
248,100,130363,2,0,P|288:128|340:148,1,85.0000016212464,4|0,0:0|0:0,0:0:0:0:
396,100,130697,2,0,P|356:72|304:52,1,85.0000016212464,4|0,0:0|0:0,0:0:0:0:
248,100,131030,6,0,P|216:116|152:128,1,75.0000028610231,4|0,0:2|0:0,0:0:0:0:
96,92,131363,1,8,0:2:0:0:
40,164,131530,1,8,0:3:0:0:
40,164,131613,1,8,0:3:0:0:
40,164,131697,2,0,P|36:200|12:244,1,75.0000028610231,8|0,0:3|0:0,0:0:0:0:
96,284,132030,1,8,0:2:0:0:
180,248,132197,1,0,0:0:0:0:
268,272,132363,6,0,P|268:316|232:364,1,75.0000028610231,4|4,0:3|0:3,0:0:0:0:
164,340,132697,1,8,0:2:0:0:
248,188,132863,1,8,0:3:0:0:
248,188,132947,1,8,0:3:0:0:
248,188,133030,2,0,P|272:148|316:116,1,75.0000028610231,8|0,0:3|0:0,0:0:0:0:
428,144,133363,2,0,P|404:184|360:216,1,75.0000028610231,8|0,0:2|0:0,0:0:0:0:
248,188,133697,5,4,0:3:0:0:
168,148,133863,1,0,0:0:0:0:
212,68,134030,1,8,0:2:0:0:
292,108,134197,1,8,0:3:0:0:
248,188,134363,2,0,L|204:272,1,75.0000028610231,8|0,0:3|0:0,0:0:0:0:
292,296,134697,1,8,0:2:0:0:
336,216,134863,1,0,0:0:0:0:
120,232,135030,6,0,P|128:288|220:348,1,150.000005722046,4|8,0:3|0:2,0:0:0:0:
284,372,135530,1,8,0:3:0:0:
284,372,135613,1,8,0:3:0:0:
284,372,135697,2,0,P|324:368|360:332,1,75.0000028610231,8|0,0:3|0:0,0:0:0:0:
416,284,136030,1,8,0:2:0:0:
452,200,136197,1,0,0:0:0:0:
392,80,136363,6,0,L|332:8,1,75.0000028610231,4|0,0:3|0:0,0:0:0:0:
308,108,136697,1,8,0:2:0:0:
228,144,136863,1,8,0:3:0:0:
228,144,136947,1,8,0:3:0:0:
228,144,137030,2,0,L|176:80,1,75.0000028610231,8|0,0:3|0:0,0:0:0:0:
96,52,137363,1,8,0:2:0:0:
56,132,137530,1,0,0:0:0:0:
104,208,137697,6,0,L|48:272,1,75.0000028610231,4|0,0:3|0:0,0:0:0:0:
140,296,138030,1,8,0:2:0:0:
224,332,138197,1,8,0:3:0:0:
224,332,138280,1,8,0:3:0:0:
224,332,138363,2,0,L|282:268,1,75.0000028610231,8|0,0:3|0:0,0:0:0:0:
368,176,138697,2,0,L|428:112,1,75.0000028610231,8|0,0:2|0:0,0:0:0:0:
480,52,139030,5,4,0:3:0:0:
512,136,139197,1,0,0:0:0:0:
476,220,139363,1,8,0:2:0:0:
508,304,139530,1,8,0:3:0:0:
508,304,139613,1,8,0:3:0:0:
508,304,139697,2,0,L|440:372,1,75.0000028610231,8|0,0:3|0:0,0:0:0:0:
376,312,140030,1,8,0:2:0:0:
256,192,140363,12,6,141697,0:2:0:0:
452,192,143697,5,4,0:2:0:0:
256,268,144363,2,0,B|223:287|228:333|228:333|189:347|164:308|164:308|120:300|100:336|100:336|56:304|28:332,1,300.000011444092,6|6,0:2|0:2,0:0:0:0:
256,268,147030,5,4,2:1:0:0:
256,192,149030,2,0,B|288:120|224:120|256:48,1,150.000005722046,2|2,2:0|2:0,2:0:0:0:
160,44,163030,6,0,P|80:32|32:104,1,160,2|8,0:0|0:0,0:0:0:0:
112,108,164030,1,0,0:0:0:0:
108,148,164197,1,0,0:0:0:0:
104,188,164363,2,0,P|128:220|172:228,1,80,0|0,0:0|0:0,0:0:0:0:
300,144,165030,6,0,P|380:136|448:184,1,160,2|2,0:0|0:0,0:0:0:0:
476,252,166030,1,0,0:0:0:0:
412,300,166363,2,0,P|376:272|336:264,1,80,8|0,0:0|0:0,0:0:0:0:
308,280,166863,1,0,0:0:0:0:
272,300,167030,6,0,P|232:304|192:284,1,80,0|0,0:0|0:0,0:0:0:0:
256,140,167697,1,8,0:0:0:0:
272,104,167863,1,0,0:0:0:0:
288,68,168030,1,0,0:0:0:0:
288,68,168363,6,0,P|328:52|368:52,1,80,2|0,0:0|0:0,0:0:0:0:
392,128,169030,2,0,L|360:160,1,40,8|0,0:0|0:0,0:0:0:0:
400,204,169363,2,0,L|428:175,1,40,0|0,0:0|0:0,0:0:0:0:
332,220,169697,2,0,P|292:232|256:224,1,80,2|0,0:0|0:0,0:0:0:0:
136,120,170363,6,0,P|96:188|108:280,1,160,10|2,0:0|0:0,0:0:0:0:
136,120,171363,1,0,0:0:0:0:
204,80,171697,2,0,P|240:68|296:76,1,80,8|0,0:0|0:0,0:0:0:0:
320,84,172197,1,0,0:0:0:0:
348,112,172363,6,0,P|340:144|352:204,1,80,0|0,0:0|0:0,0:0:0:0:
460,304,173030,1,8,0:0:0:0:
428,328,173197,1,8,0:0:0:0:
396,352,173363,1,0,0:0:0:0:
235,351,173697,6,0,L|165:313,1,80,2|0,0:0|0:0,0:0:0:0:
165,313,174363,1,10,0:0:0:0:
132,292,174530,1,0,0:0:0:0:
100,268,174697,2,0,L|60:272,1,40,2|0,0:0|0:0,0:0:0:0:
36,216,175030,2,0,L|132:208,1,80,2|0,0:0|0:0,0:0:0:0:
252,124,175697,6,0,L|88:132,1,160,2|2,0:0|0:0,0:0:0:0:
115,209,176697,1,0,0:0:0:0:
92,131,177030,2,0,P|108:96|144:72,1,80,8|0,0:0|0:0,0:0:0:0:
180,72,177530,1,0,0:0:0:0:
216,84,177697,6,0,P|254:91|300:84,1,80,0|0,0:0|0:0,0:0:0:0:
452,48,178363,1,10,0:0:0:0:
476,80,178530,1,10,0:0:0:0:
480,120,178697,1,2,0:0:0:0:
376,292,179030,6,0,L|356:320,12,20,0|0|0|0|0|0|0|0|0|0|0|0|2,0:0|0:0|0:0|0:0|0:0|0:0|0:0|0:0|0:0|0:0|0:0|0:0|0:0,0:0:0:0:
256,188,180363,2,0,P|216:196|176:228,1,80,0|0,0:0|0:0,0:0:0:0:
76,100,181030,6,0,P|144:48|224:32,1,160,2|0,0:0|0:0,0:0:0:0:
372,72,182030,1,0,0:0:0:0:
404,144,182363,2,0,P|388:180|340:208,1,80,8|0,0:0|0:0,0:0:0:0:
320,216,182863,1,0,0:0:0:0:
280,212,183030,6,0,P|244:192|224:160,1,80,0|0,0:0|0:0,0:0:0:0:
200,84,183697,2,0,L|216:40,2,40,8|0|0,0:0|0:0|0:0,0:0:0:0:
152,236,184363,5,2,0:0:0:0:
360,236,186363,1,2,0:0:0:0:
256,112,187030,1,2,0:0:0:0:
256,192,187197,12,0,197363,0:0:0:0:
368,72,197697,6,2,P|444:124|480:200,1,170.000003242493,6|8,0:0|0:0,0:0:0:0:
444,288,198197,1,2,0:0:0:0:
344,260,198363,1,0,0:0:0:0:
272,332,198530,1,0,0:0:0:0:
172,304,198697,1,10,0:0:0:0:
88,364,198863,1,0,0:0:0:0:
40,220,199030,6,2,P|88:164|96:64,1,170.000003242493,2|8,0:0|0:0,0:0:0:0:
200,56,199530,1,2,0:0:0:0:
250,143,199697,2,0,P|209:156|168:152,1,85.0000016212464,0|0,0:0|0:0,0:0:0:0:
304,56,200030,2,0,P|340:92|352:140,1,85.0000016212464,10|0,0:0|0:0,0:0:0:0:
444,164,200363,6,2,P|435:211|408:242,1,85.0000016212464,2|0,0:0|0:0,0:0:0:0:
332,300,200697,1,8,0:0:0:0:
232,288,200863,1,0,0:0:0:0:
208,284,200947,1,0,0:0:0:0:
188,272,201030,2,0,P|164:248|152:200,1,85.0000016212464,0|0,0:0|0:0,0:0:0:0:
172,100,201363,1,10,0:0:0:0:
252,40,201530,1,0,0:0:0:0:
352,64,201697,6,2,P|408:92|436:220,1,170.000003242493,2|8,0:0|0:0,0:0:0:0:
332,300,202197,2,0,P|288:304|236:272,1,85.0000016212464,2|0,0:0|0:0,0:0:0:0:
172,224,202530,1,0,0:0:0:0:
252,160,202697,1,10,0:0:0:0:
172,100,202863,1,0,0:0:0:0:
72,216,203030,6,2,P|100:296|192:328,1,170.000003242493,2|8,0:0|0:0,0:0:0:0:
276,320,203530,1,2,0:0:0:0:
368,272,203697,2,0,L|416:176,1,85.0000016212464,0|0,0:0|0:0,0:0:0:0:
452,288,204030,2,2,L|492:204,1,85.0000016212464,10|0,0:0|0:0,0:0:0:0:
468,112,204363,6,2,P|416:60|304:32,1,170.000003242493,2|8,0:0|0:0,0:0:0:0:
224,28,204863,1,0,0:0:0:0:
124,56,205030,2,2,B|80:72|56:104|56:104|148:108|152:196|120:224,1,255.000004863739,2|0,0:0|0:0,0:0:0:0:
44,288,205697,6,0,P|84:320|148:312,1,85.0000016212464,2|0,0:0|0:0,0:0:0:0:
216,300,206030,1,8,0:0:0:0:
304,256,206197,1,0,0:0:0:0:
328,264,206280,1,0,0:0:0:0:
352,269,206363,2,0,P|392:267|439:230,1,85.0000016212464,0|0,0:0|0:0,0:0:0:0:
424,88,206697,1,10,0:0:0:0:
360,168,206863,1,0,0:0:0:0:
428,243,207030,6,2,P|452:209|461:167,1,85.0000016212464,2|0,0:0|0:0,0:0:0:0:
360,168,207363,1,8,0:0:0:0:
424,88,207530,1,0,0:0:0:0:
400,74,207613,1,0,0:0:0:0:
377,68,207697,2,0,P|328:72|296:92,1,85.0000016212464,2|0,0:0|0:0,0:0:0:0:
220,156,208030,1,8,0:0:0:0:
280,240,208197,1,0,0:0:0:0:
160,332,208363,6,2,P|92:292|44:200,1,170.000003242493,2|8,0:0|0:0,0:0:0:0:
40,112,208863,1,2,0:0:0:0:
140,112,209029,1,0,0:0:0:0:
204,32,209196,1,0,0:0:0:0:
308,32,209363,1,10,0:0:0:0:
372,112,209529,1,0,0:0:0:0:
455,240,209696,6,2,P|433:321|374:380,1,170.000003242493,2|8,0:0|0:0,0:0:0:0:
304,244,210196,1,2,0:0:0:0:
283,343,210363,2,0,P|245:325|217:294,1,85.0000016212464,0|0,0:0|0:0,0:0:0:0:
212,192,210696,2,0,P|236:160|296:136,1,85.0000016212464,10|0,0:0|0:0,0:0:0:0:
217,294,211030,6,2,P|192:328|144:352,1,85.0000016212464,2|0,0:0|0:0,0:0:0:0:
124,252,211363,1,8,0:0:0:0:
120,152,211529,1,0,0:0:0:0:
120,152,211613,1,0,0:0:0:0:
120,152,211696,2,0,P|112:108|80:68,1,85.0000016212464,0|0,0:0|0:0,0:0:0:0:
20,148,212029,1,10,0:0:0:0:
120,152,212196,1,0,0:0:0:0:
248,68,212363,6,2,P|324:116|408:108,1,170.000003242493,2|8,0:0|0:0,0:0:0:0:
508,224,212863,2,0,P|476:248|448:304,1,85.0000016212464,2|0,0:0|0:0,0:0:0:0:
420,384,213196,1,0,0:0:0:0:
336,324,213363,1,10,0:0:0:0:
236,348,213529,1,0,0:0:0:0:
319,217,213696,6,2,P|275:161|247:65,1,170.000003242493,2|8,0:0|0:0,0:0:0:0:
100,24,214196,1,2,0:0:0:0:
48,168,214363,2,0,L|12:272,1,85.0000016212464,0|0,0:0|0:0,0:0:0:0:
157,314,214696,2,0,L|261:358,1,85.0000016212464,10|0,0:0|0:0,0:0:0:0:
319,217,215029,6,0,P|372:160|480:140,1,170.000003242493,2|8,0:0|0:0,0:0:0:0:
452,292,215529,1,0,0:0:0:0:
319,217,215697,2,0,L|216:168,1,85.0000016212464,2|2,0:0|0:0,0:0:0:0:
157,314,216030,2,0,L|253:362,1,85.0000016212464,8|0,0:0|0:0,0:0:0:0:
383,324,216363,1,6,0:0:0:0:
256,192,216447,12,0,217363,0:0:0:0:
180,192,217697,6,0,L|148:228,3,29.9999990844727,0|0|0|0,0:0|0:0|0:0|0:0,0:0:0:0:
236,148,218030,2,0,L|206:118,3,29.9999990844727,0|0|0|0,0:0|0:0|0:0|0:0,0:0:0:0:
248,216,218363,2,0,L|224:244,3,29.9999990844727,0|0|8|8,0:3|0:3|0:3|0:3,0:0:0:0:
300,172,218697,2,0,L|328:200,3,29.9999990844727,8|8|8|0,0:3|0:3|0:3|0:0,0:0:0:0:
288,104,219030,6,0,P|316:72|372:52,1,85.0000016212464,4|0,0:0|0:0,0:0:0:0:
448,96,219363,1,8,0:0:0:0:
480,192,219530,1,0,0:0:0:0:
468,213,219613,1,0,0:0:0:0:
457,234,219697,1,0,0:0:0:0:
376,296,219863,1,0,0:0:0:0:
284,344,220030,2,0,P|244:332|208:308,1,85.0000016212464,8|0,0:0|0:0,0:0:0:0:
128,244,220363,6,0,P|96:272|40:292,1,85.0000016212464,0|0,0:0|0:0,0:0:0:0:
44,188,220697,1,8,0:0:0:0:
137,146,220863,1,0,0:0:0:0:
232,108,221030,2,0,L|332:64,1,85.0000016212464,0|0,0:0|0:0,0:0:0:0:
456,124,221363,2,0,L|379:159,1,85.0000016212464,8|0,0:0|0:0,0:0:0:0:
284,196,221697,6,0,P|296:236|284:284,1,85.0000016212464,4|0,0:0|0:0,0:0:0:0:
192,244,222030,1,8,0:0:0:0:
144,332,222197,1,0,0:0:0:0:
124,320,222280,1,0,0:0:0:0:
108,300,222363,2,0,P|92:260|100:208,1,85.0000016212464,0|0,0:0|0:0,0:0:0:0:
132,124,222697,1,8,0:0:0:0:
232,108,222863,1,0,0:0:0:0:
384,112,223030,6,0,L|496:252,1,170.000003242493,0|8,0:0|0:0,0:0:0:0:
338,240,223530,2,0,L|232:108,1,170.000003242493,0|0,0:0|0:0,0:0:0:0:
164,28,224030,1,8,0:0:0:0:
64,52,224197,1,0,0:0:0:0:
68,204,224363,6,0,P|104:228|152:228,1,85.0000016212464,4|0,0:0|0:0,0:0:0:0:
232,176,224696,1,8,0:0:0:0:
296,96,224863,1,0,0:0:0:0:
316,116,224947,1,0,0:0:0:0:
336,136,225030,1,0,0:0:0:0:
432,108,225196,1,0,0:0:0:0:
504,180,225363,2,0,P|488:224|440:272,1,85.0000016212464,8|0,0:0|0:0,0:0:0:0:
376,308,225697,6,0,P|340:288|296:276,1,85.0000016212464,0|0,0:0|0:0,0:0:0:0:
196,272,226030,1,8,0:0:0:0:
116,336,226196,1,0,0:0:0:0:
56,252,226363,2,0,L|-4:156,1,85.0000016212464,0|0,0:0|0:0,0:0:0:0:
52,32,226696,2,0,L|102:109,1,85.0000016212464,8|0,0:0|0:0,0:0:0:0:
176,172,227030,6,0,P|208:148|236:76,1,85.0000016212464,4|0,0:0|0:0,0:0:0:0:
256,12,227363,1,8,0:0:0:0:
230,109,227530,1,0,0:0:0:0:
230,109,227613,1,0,0:0:0:0:
230,109,227696,2,0,P|256:144|320:172,1,85.0000016212464,0|0,0:0|0:0,0:0:0:0:
324,68,228030,1,8,0:0:0:0:
416,24,228196,1,0,0:0:0:0:
432,176,228363,6,0,L|256:252,1,170.000003242493,0|8,0:0|0:0,0:0:0:0:
428,252,228863,2,0,L|264:324,1,170.000003242493,0|0,0:0|0:0,0:0:0:0:
188,264,229363,1,8,0:0:0:0:
284,232,229530,1,0,0:0:0:0:
220,92,229697,6,2,P|120:100|60:144,1,170.000003242493,6|8,0:0|0:0,0:0:0:0:
8,228,230197,1,2,0:0:0:0:
88,292,230363,1,0,0:0:0:0:
188,264,230530,1,0,0:0:0:0:
272,320,230697,1,10,0:0:0:0:
364,276,230863,1,0,0:0:0:0:
460,308,231030,6,2,L|504:224,1,85.0000016212464,2|0,0:0|0:0,0:0:0:0:
499,130,231363,1,8,0:0:0:0:
440,48,231530,1,2,0:0:0:0:
340,56,231697,2,0,L|301:132,1,85.0000016212464,0|0,0:0|0:0,0:0:0:0:
148,120,232030,2,0,L|191:37,1,85.0000016212464,10|0,0:0|0:0,0:0:0:0:
89,75,232363,6,2,P|74:111|88:164,1,85.0000016212464,2|0,0:0|0:0,0:0:0:0:
184,180,232697,1,8,0:0:0:0:
276,140,232863,1,0,0:0:0:0:
300,136,232947,1,0,0:0:0:0:
324,140,233030,2,0,P|360:172|368:224,1,85.0000016212464,0|0,0:0|0:0,0:0:0:0:
356,308,233363,1,10,0:0:0:0:
256,332,233530,1,0,0:0:0:0:
156,304,233697,6,2,P|120:276|72:256,1,85.0000016212464,2|0,0:0|0:0,0:0:0:0:
44,168,234030,1,8,0:0:0:0:
92,76,234197,1,2,0:0:0:0:
111,59,234280,1,0,0:0:0:0:
135,50,234363,2,0,P|174:44|231:66,1,85.0000016212464,0|0,0:0|0:0,0:0:0:0:
292,126,234697,1,10,0:0:0:0:
435,73,234863,1,0,0:0:0:0:
409,224,235030,6,2,P|341:273|226:269,1,170.000003242493,6|8,0:0|0:0,0:0:0:0:
108,242,235530,1,2,0:0:0:0:
222,139,235697,2,0,P|263:161|296:202,1,85.0000016212464,0|0,0:0|0:0,0:0:0:0:
309,341,236030,1,14,0:0:0:0:
409,224,236197,1,0,0:0:0:0:
363,78,236363,6,0,P|325:48|283:37,1,85.0000016212464,2|2,0:0|0:0,0:0:0:0:
139,64,236697,1,8,0:0:0:0:
84,206,236863,1,0,0:0:0:0:
78,230,236947,1,0,0:0:0:0:
71,255,237030,2,0,P|91:292|126:316,1,85.0000016212464,2|2,0:0|0:0,0:0:0:0:
274,351,237363,1,8,0:0:0:0:
422,313,237530,1,0,0:0:0:0:
493,178,237697,6,0,L|476:94,1,85.0000016212464,6|0,0:0|0:0,0:0:0:0:
344,172,238030,1,8,0:0:0:0:
208,104,238197,1,0,0:0:0:0:
208,104,238280,1,0,0:0:0:0:
208,104,238363,2,0,L|124:64,1,85.0000016212464,0|0,0:0|0:0,0:0:0:0:
208,200,238697,2,0,L|160:284,1,85.0000016212464,10|0,0:0|0:0,0:0:0:0:
316,300,239030,6,2,P|360:300|408:264,1,85.0000016212464,2|0,0:0|0:0,0:0:0:0:
394,104,239363,2,0,P|356:84|314:84,1,85.0000016212464,8|0,0:0|0:0,0:0:0:0:
180,192,239697,2,0,L|120:192,2,42.5000008106232,2|0|0,0:0|0:0|0:0,0:0:0:0:
332,192,240030,2,0,L|376:192,2,42.5000008106232,8|0|0,0:0|0:0|0:0,0:0:0:0:
256,144,240363,5,2,0:0:0:0:
76,192,242363,1,2,0:0:0:0:
436,192,243030,1,2,0:0:0:0:
256,192,243197,12,0,249697,0:0:0:0:
