osu file format v14

[General]
AudioFilename: Erasus.mp3
AudioLeadIn: 2000
PreviewTime: 37697
Countdown: 0
SampleSet: Normal
StackLeniency: 0.7
Mode: 1
LetterboxInBreaks: 0
WidescreenStoryboard: 0

[Editor]
Bookmarks: 5697,11030,21697,25030,27030,29863,32363,43030,64363,73363,75030,85697,91030,93697,96363,117697,120363,127030,128363,131030,141697,147030,163030,187030,197697,217697,219030,229697,240363,243030
DistanceSpacing: 1.1
BeatDivisor: 4
GridSize: 32
TimelineZoom: 1.6

[Metadata]
Title:Erasus
TitleUnicode:Erasus
Artist:Subkulture feat. Klayton of Celldweller
ArtistUnicode:Subkulture feat. Klayton of Celldweller
Creator:ErunamoJAZZ
Version:Inner'Us
Source:
Tags:Nyukai Nyu-chan Inyuschan Kurokami xtrem3x Erase Us DotA2 DotaCinema CS Counter Strike Source Drum and Bass dnb Techno Trance Metal amazing noob never forget my real first rank thanks
BeatmapID:1192239
BeatmapSetID:107979

[Difficulty]
HPDrainRate:6
CircleSize:4
OverallDifficulty:6
ApproachRate:7
SliderMultiplier:1.4
SliderTickRate:1

[Events]
//Background and Video events
0,0,"bg_erasus.png",0,0
//Break Periods
//Storyboard Layer 0 (Background)
//Storyboard Layer 1 (Fail)
//Storyboard Layer 2 (Pass)
//Storyboard Layer 3 (Foreground)
//Storyboard Sound Samples

[TimingPoints]
364,333.333333333333,4,1,0,80,1,0
364,-125,4,1,0,80,0,0
11030,-111.111111111111,4,1,0,80,0,0
21697,-100,4,1,0,80,0,0
25363,-105.263157894737,4,1,0,80,0,0
25697,-111.111111111111,4,1,0,80,0,0
26030,-117.647058823529,4,1,0,80,0,0
26363,-125,4,1,0,80,0,0
26697,-133.333333333333,4,1,0,80,0,0
27363,-100,4,1,0,80,0,0
31363,-111.111111111111,4,1,0,80,0,0
31697,-125,4,1,0,80,0,0
32030,-117.647058823529,4,1,0,80,0,0
32363,-111.111111111111,4,1,0,80,0,0
36030,-117.647058823529,4,1,0,80,0,0
36363,-125,4,1,0,80,0,0
36697,-133.333333333333,4,1,0,80,0,0
37030,-142.857142857143,4,1,0,80,0,0
37363,-133.333333333333,4,1,0,80,0,0
37697,-125,4,1,0,80,0,0
41697,-100,4,1,0,80,0,0
41780,-98.0392156862745,4,1,0,80,0,0
41863,-95.2380952380952,4,1,0,80,0,0
41947,-91.743119266055,4,1,0,80,0,0
42030,-87.719298245614,4,1,0,80,0,0
42113,-83.3333333333333,4,1,0,80,0,0
42197,-78.7401574803149,4,1,0,80,0,0
42280,-74.0740740740741,4,1,0,80,0,0
42363,-69.4444444444444,4,1,0,80,0,0
42447,-64.9350649350649,4,1,0,80,0,0
42530,-60.6060606060606,4,1,0,80,0,0
42613,-56.4971751412429,4,1,0,80,0,0
42697,-52.6315789473684,4,1,0,80,0,0
43030,-83.3333333333333,4,1,0,80,0,1
64363,-100,4,1,0,80,0,0
73363,-100,4,1,0,80,0,1
75030,-100,4,1,0,80,0,0
85697,-100,4,1,0,80,0,0
91030,-100,4,1,0,80,0,0
93697,-100,4,1,0,80,0,0
95863,-97.0873786407767,4,1,0,80,0,0
95947,-94.3396226415094,4,1,0,80,0,0
96030,-91.743119266055,4,1,0,80,0,0
96113,-89.2857142857143,4,1,0,80,0,0
96197,-86.9565217391304,4,1,0,80,0,0
96280,-84.7457627118644,4,1,0,80,0,0
96363,-83.3333333333333,4,1,0,80,0,1
117697,-100,4,1,0,80,0,0
117947,-105.263157894737,4,1,0,80,0,0
118197,-111.111111111111,4,1,0,80,0,0
118447,-117.647058823529,4,1,0,80,0,0
118697,-125,4,1,0,80,0,0
118947,-133.333333333333,4,1,0,80,0,0
120363,-100,4,1,0,80,0,0
128363,-100,4,1,0,80,0,0
129363,-100,4,1,0,80,0,1
131030,-100,4,1,0,80,0,0
146697,-133.333333333333,4,1,0,80,0,0
151030,-200,4,1,0,80,0,0
187697,-212.765957446809,4,1,0,80,0,0
188197,-227.272727272727,4,1,0,80,0,0
188697,-243.90243902439,4,1,0,80,0,0
189197,-263.157894736842,4,1,0,80,0,0
189697,-277.777777777778,4,1,0,70,0,0
190197,-294.117647058824,4,1,0,60,0,0
190697,-312.5,4,1,0,50,0,0
191197,-333.333333333333,4,1,0,40,0,0
191697,-357.142857142857,4,1,0,30,0,0
192197,-384.615384615385,4,1,0,20,0,0
192697,-416.666666666667,4,1,0,15,0,0
193197,-454.545454545455,4,1,0,10,0,0
193697,-500,4,1,0,5,0,0
194197,-555.555555555556,4,1,0,5,0,0
194697,-625,4,1,0,5,0,0
195197,-714.285714285714,4,1,0,5,0,0
195697,-833.333333333333,4,1,0,5,0,0
196197,-1000,4,1,0,5,0,0
197697,-33.3333333333333,4,1,0,80,0,1
198030,-83.3333333333333,4,1,0,80,0,1
217697,-83.3333333333333,4,1,0,80,0,0
219030,-76.9230769230769,4,1,0,80,0,1
229697,-74.0740740740741,4,1,0,80,0,1
240363,-74.0740740740741,4,1,0,80,0,0
242363,-200,4,1,0,80,0,0

[Colours]
Combo1 : 179,129,13
Combo2 : 0,83,166
Combo3 : 217,217,0
Combo4 : 192,192,192
Combo5 : 201,24,125
Combo6 : 31,91,124

[HitObjects]
256,192,364,5,8,0:0:0:0:
256,192,530,1,0,0:0:0:0:
256,192,697,1,8,0:0:0:0:
256,192,863,1,8,0:0:0:0:
256,192,947,1,8,0:0:0:0:
256,192,1030,1,8,0:0:0:0:
256,192,1197,1,0,0:0:0:0:
256,192,1363,1,8,0:0:0:0:
256,192,1447,1,8,0:0:0:0:
256,192,1530,1,8,0:0:0:0:
256,192,1697,1,0,0:0:0:0:
256,192,1863,1,8,0:0:0:0:
256,192,1947,1,8,0:0:0:0:
256,192,2030,1,8,0:0:0:0:
256,192,2197,1,0,0:0:0:0:
256,192,2363,1,8,0:0:0:0:
256,192,2447,1,8,0:0:0:0:
256,192,2530,1,0,0:0:0:0:
256,192,2613,1,8,0:0:0:0:
256,192,2697,1,8,0:0:0:0:
256,192,2863,1,0,0:0:0:0:
256,192,3030,1,8,0:0:0:0:
256,192,3197,1,0,0:0:0:0:
256,192,3280,1,0,0:0:0:0:
256,192,3363,1,0,0:0:0:0:
256,192,3530,1,8,0:0:0:0:
256,192,3697,1,0,0:0:0:0:
256,192,3780,1,0,0:0:0:0:
256,192,3863,1,0,0:0:0:0:
256,192,4030,1,8,0:0:0:0:
256,192,4197,1,0,0:0:0:0:
256,192,4280,1,0,0:0:0:0:
256,192,4363,1,0,0:0:0:0:
256,192,4530,1,8,0:0:0:0:
256,192,4697,1,0,0:0:0:0:
256,192,4863,1,0,0:0:0:0:
256,192,5030,1,8,0:0:0:0:
256,192,5197,1,8,0:0:0:0:
256,192,5363,1,8,0:0:0:0:
256,192,5530,1,0,0:0:0:0:
256,192,5697,1,8,0:0:0:0:
256,192,5863,1,8,0:0:0:0:
256,192,5947,1,8,0:0:0:0:
256,192,6030,1,8,0:0:0:0:
256,192,6197,1,0,0:0:0:0:
256,192,6363,1,8,0:0:0:0:
256,192,6447,1,8,0:0:0:0:
256,192,6530,1,8,0:0:0:0:
256,192,6697,1,0,0:0:0:0:
256,192,6863,1,0,0:0:0:0:
256,192,6946,1,0,0:0:0:0:
256,192,7030,1,8,0:0:0:0:
256,192,7113,1,8,0:0:0:0:
256,192,7197,1,8,0:0:0:0:
256,192,7363,1,0,0:0:0:0:
256,192,7530,1,8,0:0:0:0:
256,192,7613,1,0,0:0:0:0:
256,192,7696,1,0,0:0:0:0:
256,192,7780,1,8,0:0:0:0:
256,192,7863,1,8,0:0:0:0:
256,192,8030,1,0,0:0:0:0:
256,192,8197,1,8,0:0:0:0:
256,192,8280,1,8,0:0:0:0:
256,192,8363,1,0,0:0:0:0:
256,192,8697,1,8,0:0:0:0:
256,192,8863,1,0,0:0:0:0:
256,192,9030,1,8,0:0:0:0:
256,192,9197,1,8,0:0:0:0:
256,192,9363,1,0,0:0:0:0:
256,192,9530,1,0,0:0:0:0:
256,192,9697,1,8,0:0:0:0:
256,192,9863,1,0,0:0:0:0:
256,192,10029,1,8,0:0:0:0:
256,192,10196,1,0,0:0:0:0:
256,192,10363,1,8,0:0:0:0:
256,192,10530,1,0,0:0:0:0:
256,192,10614,1,0,0:0:0:0:
256,192,10697,1,8,0:0:0:0:
256,192,10863,1,8,0:0:0:0:
256,192,11030,1,4,0:0:0:0:
256,192,11363,1,8,0:0:0:0:
256,192,11530,1,0,0:0:0:0:
256,192,11863,1,8,0:0:0:0:
256,192,12030,1,0,0:0:0:0:
256,192,12363,1,0,0:0:0:0:
256,192,12530,1,0,0:0:0:0:
256,192,12697,1,8,0:0:0:0:
256,192,12863,1,0,0:0:0:0:
256,192,13030,1,8,0:0:0:0:
256,192,13363,1,8,0:0:0:0:
256,192,13530,1,0,0:0:0:0:
256,192,13697,1,8,0:0:0:0:
256,192,14030,1,8,0:0:0:0:
256,192,14197,1,0,0:0:0:0:
256,192,14530,1,0,0:0:0:0:
256,192,14696,1,8,0:0:0:0:
256,192,14863,1,0,0:0:0:0:
256,192,15030,1,0,0:0:0:0:
256,192,15363,1,8,0:0:0:0:
256,192,15530,1,0,0:0:0:0:
256,192,15697,1,8,0:0:0:0:
256,192,15863,1,0,0:0:0:0:
256,192,16030,1,0,0:0:0:0:
256,192,16197,1,0,0:0:0:0:
256,192,16280,1,0,0:0:0:0:
256,192,16363,1,8,0:0:0:0:
256,192,16697,1,8,0:0:0:0:
256,192,16863,1,0,0:0:0:0:
256,192,17196,1,8,0:0:0:0:
256,192,17363,1,0,0:0:0:0:
256,192,17696,1,8,0:0:0:0:
256,192,17863,1,8,0:0:0:0:
256,192,18030,1,8,0:0:0:0:
256,192,18196,1,0,0:0:0:0:
256,192,18363,1,8,0:0:0:0:
256,192,18697,1,8,0:0:0:0:
256,192,18863,1,8,0:0:0:0:
256,192,19030,1,0,0:0:0:0:
256,192,19363,1,8,0:0:0:0:
256,192,19530,1,0,0:0:0:0:
256,192,19863,1,8,0:0:0:0:
256,192,20030,1,0,0:0:0:0:
256,192,20197,1,0,0:0:0:0:
256,192,20363,1,8,0:0:0:0:
256,192,20530,1,0,0:0:0:0:
256,192,20613,1,8,0:0:0:0:
256,192,20780,1,0,0:0:0:0:
256,192,20863,1,8,0:0:0:0:
256,192,21030,1,0,0:0:0:0:
256,192,21197,1,8,0:0:0:0:
256,192,21363,1,8,0:0:0:0:
256,192,21447,1,0,0:0:0:0:
256,192,21530,1,8,0:0:0:0:
256,192,21697,1,0,0:0:0:0:
256,192,22030,1,8,0:0:0:0:
256,192,22197,1,0,0:0:0:0:
256,192,22363,1,8,0:0:0:0:
256,192,22530,1,0,0:0:0:0:
256,192,22613,1,0,0:0:0:0:
256,192,22697,1,8,0:0:0:0:
256,192,22863,1,0,0:0:0:0:
256,192,23030,1,8,0:0:0:0:
256,192,23197,1,8,0:0:0:0:
256,192,23363,1,0,0:0:0:0:
256,192,23530,1,8,0:0:0:0:
256,192,23697,1,0,0:0:0:0:
256,192,23863,1,0,0:0:0:0:
256,192,24030,1,8,0:0:0:0:
256,192,24363,1,0,0:0:0:0:
256,192,24530,1,0,0:0:0:0:
256,192,24697,1,8,0:0:0:0:
256,192,24863,1,8,0:0:0:0:
256,192,25030,1,0,0:0:0:0:
256,192,25197,1,8,0:0:0:0:
256,192,25363,1,8,0:0:0:0:
256,192,25447,1,0,0:0:0:0:
256,192,25613,1,0,0:0:0:0:
256,192,25780,1,0,0:0:0:0:
256,192,25863,1,8,0:0:0:0:
256,192,26030,1,8,0:0:0:0:
256,192,26113,1,0,0:0:0:0:
256,192,26197,1,8,0:0:0:0:
256,192,26363,1,0,0:0:0:0:
256,192,26447,1,8,0:0:0:0:
256,192,26530,1,0,0:0:0:0:
256,192,26697,1,8,0:0:0:0:
256,192,26863,1,8,0:0:0:0:
256,192,27030,1,0,0:0:0:0:
256,192,27363,1,0,0:0:0:0:
256,192,27530,1,0,0:0:0:0:
256,192,27697,1,8,0:0:0:0:
256,192,27863,1,0,0:0:0:0:
256,192,27947,1,0,0:0:0:0:
256,192,28030,1,8,0:0:0:0:
256,192,28197,1,8,0:0:0:0:
256,192,28363,1,8,0:0:0:0:
256,192,28530,1,0,0:0:0:0:
256,192,28697,1,8,0:0:0:0:
256,192,28863,1,0,0:0:0:0:
256,192,28947,1,0,0:0:0:0:
256,192,29030,1,8,0:0:0:0:
256,192,29697,1,8,0:0:0:0:
256,192,30030,1,8,0:0:0:0:
256,192,30197,1,0,0:0:0:0:
256,192,30530,1,8,0:0:0:0:
256,192,30697,1,0,0:0:0:0:
256,192,31030,1,8,0:0:0:0:
256,192,31197,1,0,0:0:0:0:
256,192,31363,1,8,0:0:0:0:
256,192,31530,1,0,0:0:0:0:
256,192,31697,1,0,0:0:0:0:
256,192,31780,1,0,0:0:0:0:
256,192,31863,1,0,0:0:0:0:
256,192,32030,1,8,0:0:0:0:
256,192,32197,1,8,0:0:0:0:
256,192,32363,1,0,0:0:0:0:
256,192,32697,1,0,0:0:0:0:
256,192,32863,1,8,0:0:0:0:
256,192,33030,1,0,0:0:0:0:
256,192,33197,1,8,0:0:0:0:
256,192,33363,1,0,0:0:0:0:
256,192,33530,1,8,0:0:0:0:
256,192,33613,1,8,0:0:0:0:
256,192,33697,1,0,0:0:0:0:
256,192,33863,1,0,0:0:0:0:
256,192,34030,1,0,0:0:0:0:
256,192,34197,1,8,0:0:0:0:
256,192,34363,1,8,0:0:0:0:
256,192,34530,1,0,0:0:0:0:
256,192,34696,1,8,0:0:0:0:
256,192,34863,1,8,0:0:0:0:
256,192,34947,1,8,0:0:0:0:
256,192,35030,1,0,0:0:0:0:
256,192,35197,1,0,0:0:0:0:
256,192,35363,1,8,0:0:0:0:
256,192,35530,1,0,0:0:0:0:
256,192,35697,1,8,0:0:0:0:
256,192,35863,1,0,0:0:0:0:
256,192,35947,1,0,0:0:0:0:
256,192,36030,1,8,0:0:0:0:
256,192,36197,1,0,0:0:0:0:
256,192,36363,1,8,0:0:0:0:
256,192,36530,1,8,0:0:0:0:
256,192,36613,1,0,0:0:0:0:
256,192,36697,1,8,0:0:0:0:
256,192,36863,1,0,0:0:0:0:
256,192,37030,1,8,0:0:0:0:
256,192,37113,1,8,0:0:0:0:
256,192,37197,1,0,0:0:0:0:
256,192,37363,1,0,0:0:0:0:
256,192,37530,1,8,0:0:0:0:
256,192,37697,1,0,0:0:0:0:
256,192,37863,1,0,0:0:0:0:
256,192,38030,1,8,0:0:0:0:
256,192,38197,1,0,0:0:0:0:
256,192,38363,1,8,0:0:0:0:
256,192,38530,1,0,0:0:0:0:
256,192,38613,1,0,0:0:0:0:
256,192,38697,1,0,0:0:0:0:
256,192,38863,1,0,0:0:0:0:
256,192,39030,1,8,0:0:0:0:
256,192,39197,1,0,0:0:0:0:
256,192,39363,1,0,0:0:0:0:
256,192,39530,1,8,0:0:0:0:
256,192,39697,1,8,0:0:0:0:
256,192,39781,1,0,0:0:0:0:
256,192,39864,1,8,0:0:0:0:
256,192,39947,1,0,0:0:0:0:
256,192,40030,1,0,0:0:0:0:
256,192,40197,1,8,0:0:0:0:
256,192,40363,1,8,0:0:0:0:
256,192,40530,1,0,0:0:0:0:
256,192,40697,1,8,0:0:0:0:
256,192,40863,1,0,0:0:0:0:
256,192,41030,1,0,0:0:0:0:
256,192,41197,1,0,0:0:0:0:
256,192,41363,1,0,0:0:0:0:
256,192,41530,1,0,0:0:0:0:
256,192,41697,1,8,0:0:0:0:
256,192,41780,1,8,0:0:0:0:
256,192,41863,1,8,0:0:0:0:
256,192,41947,1,8,0:0:0:0:
256,192,42030,1,8,0:0:0:0:
256,192,42113,1,8,0:0:0:0:
256,192,42197,1,8,0:0:0:0:
256,192,42280,1,8,0:0:0:0:
256,192,42363,1,8,0:0:0:0:
256,192,42447,1,8,0:0:0:0:
256,192,42530,1,8,0:0:0:0:
256,192,42613,1,8,0:0:0:0:
256,192,42697,1,0,0:0:0:0:
256,192,43030,1,4,0:0:0:0:
256,192,43363,1,8,0:0:0:0:
256,192,43530,1,8,0:0:0:0:
256,192,43697,1,0,0:0:0:0:
256,192,43863,1,0,0:0:0:0:
256,192,43947,1,0,0:0:0:0:
256,192,44030,1,8,0:0:0:0:
256,192,44197,1,8,0:0:0:0:
256,192,44363,1,8,0:0:0:0:
256,192,44530,1,0,0:0:0:0:
256,192,44697,1,0,0:0:0:0:
256,192,44863,1,8,0:0:0:0:
256,192,44947,1,0,0:0:0:0:
256,192,45030,1,8,0:0:0:0:
256,192,45113,1,0,0:0:0:0:
256,192,45197,1,0,0:0:0:0:
256,192,45280,1,0,0:0:0:0:
256,192,45363,1,8,0:0:0:0:
256,192,45530,1,0,0:0:0:0:
256,192,45697,1,8,0:0:0:0:
256,192,45864,1,0,0:0:0:0:
256,192,46030,1,8,0:0:0:0:
256,192,46197,1,8,0:0:0:0:
256,192,46364,1,0,0:0:0:0:
256,192,46530,1,8,0:0:0:0:
256,192,46613,1,0,0:0:0:0:
256,192,46697,1,8,0:0:0:0:
256,192,46863,1,0,0:0:0:0:
256,192,47030,1,8,0:0:0:0:
256,192,47197,1,8,0:0:0:0:
256,192,47363,1,0,0:0:0:0:
256,192,47530,1,8,0:0:0:0:
256,192,47613,1,0,0:0:0:0:
256,192,47697,1,0,0:0:0:0:
256,192,47780,1,8,0:0:0:0:
256,192,47863,1,0,0:0:0:0:
256,192,48030,1,0,0:0:0:0:
256,192,48197,1,8,0:0:0:0:
256,192,48363,1,8,0:0:0:0:
256,192,48446,1,0,0:0:0:0:
256,192,48530,1,0,0:0:0:0:
256,192,48697,1,8,0:0:0:0:
256,192,48863,1,8,0:0:0:0:
256,192,48947,1,0,0:0:0:0:
256,192,49030,1,0,0:0:0:0:
256,192,49197,1,8,0:0:0:0:
256,192,49363,1,8,0:0:0:0:
256,192,49447,1,0,0:0:0:0:
256,192,49530,1,0,0:0:0:0:
256,192,49697,1,8,0:0:0:0:
256,192,49863,1,8,0:0:0:0:
256,192,49947,1,0,0:0:0:0:
256,192,50030,1,0,0:0:0:0:
256,192,50197,1,8,0:0:0:0:
256,192,50364,1,8,0:0:0:0:
256,192,50447,1,8,0:0:0:0:
256,192,50530,1,0,0:0:0:0:
256,192,50614,1,0,0:0:0:0:
256,192,50697,1,8,0:0:0:0:
256,192,50780,1,8,0:0:0:0:
256,192,50864,1,8,0:0:0:0:
256,192,50947,1,0,0:0:0:0:
256,192,51030,1,8,0:0:0:0:
256,192,51197,1,0,0:0:0:0:
256,192,51363,1,8,0:0:0:0:
256,192,51530,1,0,0:0:0:0:
256,192,51697,1,8,0:0:0:0:
256,192,51863,1,0,0:0:0:0:
256,192,51947,1,0,0:0:0:0:
256,192,52030,1,8,0:0:0:0:
256,192,52196,1,0,0:0:0:0:
256,192,52363,1,8,0:0:0:0:
256,192,52530,1,8,0:0:0:0:
256,192,52697,1,0,0:0:0:0:
256,192,52863,1,8,0:0:0:0:
256,192,53030,1,8,0:0:0:0:
256,192,53113,1,8,0:0:0:0:
256,192,53197,1,0,0:0:0:0:
256,192,53363,1,8,0:0:0:0:
256,192,53530,1,8,0:0:0:0:
256,192,53697,1,0,0:0:0:0:
256,192,53780,1,0,0:0:0:0:
256,192,53863,1,0,0:0:0:0:
256,192,54030,1,8,0:0:0:0:
256,192,54197,1,0,0:0:0:0:
256,192,54363,1,8,0:0:0:0:
256,192,54530,1,0,0:0:0:0:
256,192,54613,1,0,0:0:0:0:
256,192,54697,1,8,0:0:0:0:
256,192,54863,1,0,0:0:0:0:
256,192,55030,1,8,0:0:0:0:
256,192,55197,1,8,0:0:0:0:
256,192,55363,1,0,0:0:0:0:
256,192,55530,1,8,0:0:0:0:
256,192,55697,1,0,0:0:0:0:
256,192,55780,1,0,0:0:0:0:
256,192,55863,1,8,0:0:0:0:
256,192,56030,1,8,0:0:0:0:
256,192,56113,1,0,0:0:0:0:
256,192,56197,1,8,0:0:0:0:
256,192,56280,1,8,0:0:0:0:
256,192,56363,1,0,0:0:0:0:
256,192,56530,1,0,0:0:0:0:
256,192,56697,1,8,0:0:0:0:
256,192,56863,1,0,0:0:0:0:
256,192,57030,1,8,0:0:0:0:
256,192,57197,1,8,0:0:0:0:
256,192,57280,1,0,0:0:0:0:
256,192,57363,1,8,0:0:0:0:
256,192,57530,1,0,0:0:0:0:
256,192,57697,1,8,0:0:0:0:
256,192,57863,1,8,0:0:0:0:
256,192,58030,1,0,0:0:0:0:
256,192,58197,1,8,0:0:0:0:
256,192,58280,1,0,0:0:0:0:
256,192,58363,1,0,0:0:0:0:
256,192,58530,1,0,0:0:0:0:
256,192,58696,1,8,0:0:0:0:
256,192,58863,1,0,0:0:0:0:
256,192,59030,1,8,0:0:0:0:
256,192,59114,1,0,0:0:0:0:
256,192,59197,1,0,0:0:0:0:
256,192,59363,1,8,0:0:0:0:
256,192,59530,1,8,0:0:0:0:
256,192,59614,1,0,0:0:0:0:
256,192,59697,1,0,0:0:0:0:
256,192,59864,1,8,0:0:0:0:
256,192,60030,1,8,0:0:0:0:
256,192,60114,1,8,0:0:0:0:
256,192,60197,1,0,0:0:0:0:
256,192,60364,1,0,0:0:0:0:
256,192,60530,1,8,0:0:0:0:
256,192,60614,1,8,0:0:0:0:
256,192,60697,1,0,0:0:0:0:
256,192,60863,1,0,0:0:0:0:
256,192,61030,1,8,0:0:0:0:
256,192,61112,1,8,0:0:0:0:
256,192,61196,1,0,0:0:0:0:
256,192,61279,1,0,0:0:0:0:
256,192,61362,1,8,0:0:0:0:
256,192,61530,1,8,0:0:0:0:
256,192,61696,1,0,0:0:0:0:
256,192,61864,1,0,0:0:0:0:
256,192,62030,1,8,0:0:0:0:
256,192,62196,1,0,0:0:0:0:
256,192,62280,1,0,0:0:0:0:
256,192,62363,1,8,0:0:0:0:
256,192,62531,1,8,0:0:0:0:
256,192,62697,1,8,0:0:0:0:
256,192,62863,1,0,0:0:0:0:
256,192,63030,1,8,0:0:0:0:
256,192,63113,1,0,0:0:0:0:
256,192,63197,1,0,0:0:0:0:
256,192,63280,1,0,0:0:0:0:
256,192,63363,1,8,0:0:0:0:
256,192,63530,1,8,0:0:0:0:
256,192,63697,1,8,0:0:0:0:
256,192,63780,1,8,0:0:0:0:
256,192,63863,1,0,0:0:0:0:
256,192,64030,1,8,0:0:0:0:
256,192,64197,1,8,0:0:0:0:
256,192,64363,1,0,0:0:0:0:
256,192,64530,1,0,0:0:0:0:
256,192,64613,1,0,0:0:0:0:
256,192,64697,1,8,0:0:0:0:
256,192,64863,1,0,0:0:0:0:
256,192,65030,1,8,0:0:0:0:
256,192,65197,1,8,0:0:0:0:
256,192,65280,1,0,0:0:0:0:
256,192,65363,1,8,0:0:0:0:
256,192,65530,1,0,0:0:0:0:
256,192,65697,1,8,0:0:0:0:
256,192,65863,1,8,0:0:0:0:
256,192,65947,1,8,0:0:0:0:
256,192,66030,1,0,0:0:0:0:
256,192,66197,1,8,0:0:0:0:
256,192,66363,1,8,0:0:0:0:
256,192,66447,1,0,0:0:0:0:
256,192,66530,1,0,0:0:0:0:
256,192,66613,1,0,0:0:0:0:
256,192,66697,1,8,0:0:0:0:
256,192,66863,1,0,0:0:0:0:
256,192,67030,1,8,0:0:0:0:
256,192,67197,1,0,0:0:0:0:
256,192,67363,1,8,0:0:0:0:
256,192,67530,1,0,0:0:0:0:
256,192,67613,1,0,0:0:0:0:
256,192,67697,1,8,0:0:0:0:
256,192,67863,1,8,0:0:0:0:
256,192,68030,1,8,0:0:0:0:
256,192,68113,1,0,0:0:0:0:
256,192,68197,1,8,0:0:0:0:
256,192,68363,1,8,0:0:0:0:
256,192,68530,1,8,0:0:0:0:
256,192,68613,1,8,0:0:0:0:
256,192,68697,1,0,0:0:0:0:
256,192,68780,1,0,0:0:0:0:
256,192,68863,1,8,0:0:0:0:
256,192,69030,1,8,0:0:0:0:
256,192,69197,1,0,0:0:0:0:
256,192,69363,1,8,0:0:0:0:
256,192,69530,1,0,0:0:0:0:
256,192,69613,1,0,0:0:0:0:
256,192,69697,1,8,0:0:0:0:
256,192,69863,1,0,0:0:0:0:
256,192,69947,1,8,0:0:0:0:
256,192,70030,1,0,0:0:0:0:
256,192,70197,1,0,0:0:0:0:
256,192,70363,1,8,0:0:0:0:
256,192,70530,1,8,0:0:0:0:
256,192,70613,1,0,0:0:0:0:
256,192,70697,1,8,0:0:0:0:
256,192,70863,1,0,0:0:0:0:
256,192,71030,1,0,0:0:0:0:
256,192,71197,1,0,0:0:0:0:
256,192,71280,1,0,0:0:0:0:
256,192,71363,1,8,0:0:0:0:
256,192,71530,1,8,0:0:0:0:
256,192,71697,1,0,0:0:0:0:
256,192,71864,1,8,0:0:0:0:
256,192,72030,1,8,0:0:0:0:
256,192,72197,1,0,0:0:0:0:
256,192,72364,1,8,0:0:0:0:
256,192,72530,1,0,0:0:0:0:
256,192,72697,1,8,0:0:0:0:
256,192,72864,1,0,0:0:0:0:
256,192,73030,1,0,0:0:0:0:
256,192,73363,1,4,0:0:0:0:
256,192,73697,1,8,0:0:0:0:
256,192,73863,1,4,0:0:0:0:
256,192,74363,1,4,0:0:0:0:
256,192,74697,1,4,0:0:0:0:
256,192,75030,1,4,0:0:0:0:
256,192,75197,1,0,0:0:0:0:
256,192,75363,1,8,0:0:0:0:
256,192,75530,1,0,0:0:0:0:
256,192,75613,1,0,0:0:0:0:
256,192,75697,1,0,0:0:0:0:
256,192,75863,1,0,0:0:0:0:
256,192,76030,1,8,0:0:0:0:
256,192,76197,1,8,0:0:0:0:
256,192,76363,1,0,0:0:0:0:
256,192,76530,1,8,0:0:0:0:
256,192,76697,1,8,0:0:0:0:
256,192,76863,1,0,0:0:0:0:
256,192,76947,1,0,0:0:0:0:
256,192,77030,1,0,0:0:0:0:
256,192,77197,1,8,0:0:0:0:
256,192,77363,1,8,0:0:0:0:
256,192,77447,1,0,0:0:0:0:
256,192,77530,1,8,0:0:0:0:
256,192,77613,1,0,0:0:0:0:
256,192,77697,1,0,0:0:0:0:
256,192,77863,1,0,0:0:0:0:
256,192,78030,1,8,0:0:0:0:
256,192,78197,1,0,0:0:0:0:
256,192,78280,1,0,0:0:0:0:
256,192,78363,1,0,0:0:0:0:
256,192,78530,1,8,0:0:0:0:
256,192,78697,1,8,0:0:0:0:
256,192,78863,1,0,0:0:0:0:
256,192,79030,1,8,0:0:0:0:
256,192,79197,1,0,0:0:0:0:
256,192,79363,1,8,0:0:0:0:
256,192,79530,1,0,0:0:0:0:
256,192,79613,1,0,0:0:0:0:
256,192,79697,1,0,0:0:0:0:
256,192,79863,1,0,0:0:0:0:
256,192,79947,1,0,0:0:0:0:
256,192,80030,1,8,0:0:0:0:
256,192,80113,1,0,0:0:0:0:
256,192,80197,1,8,0:0:0:0:
256,192,80363,1,8,0:0:0:0:
256,192,80530,1,0,0:0:0:0:
256,192,80697,1,8,0:0:0:0:
256,192,80863,1,0,0:0:0:0:
256,192,80947,1,0,0:0:0:0:
256,192,81030,1,0,0:0:0:0:
256,192,81197,1,8,0:0:0:0:
256,192,81363,1,8,0:0:0:0:
256,192,81530,1,0,0:0:0:0:
256,192,81697,1,8,0:0:0:0:
256,192,81863,1,0,0:0:0:0:
256,192,82030,1,8,0:0:0:0:
256,192,82197,1,0,0:0:0:0:
256,192,82280,1,0,0:0:0:0:
256,192,82363,1,0,0:0:0:0:
256,192,82530,1,0,0:0:0:0:
256,192,82697,1,8,0:0:0:0:
256,192,82780,1,8,0:0:0:0:
256,192,82863,1,0,0:0:0:0:
256,192,82947,1,0,0:0:0:0:
256,192,83030,1,8,0:0:0:0:
256,192,83197,1,0,0:0:0:0:
256,192,83363,1,8,0:0:0:0:
256,192,83530,1,0,0:0:0:0:
256,192,83613,1,0,0:0:0:0:
256,192,83697,1,0,0:0:0:0:
256,192,83863,1,8,0:0:0:0:
256,192,84030,1,8,0:0:0:0:
256,192,84197,1,0,0:0:0:0:
256,192,84363,1,8,0:0:0:0:
256,192,84530,1,0,0:0:0:0:
256,192,84697,1,8,0:0:0:0:
256,192,84863,1,0,0:0:0:0:
256,192,84947,1,0,0:0:0:0:
256,192,85030,1,0,0:0:0:0:
256,192,85197,1,0,0:0:0:0:
256,192,85363,1,8,0:0:0:0:
256,192,85530,1,8,0:0:0:0:
256,192,85697,1,4,0:0:0:0:
256,192,87697,1,4,0:0:0:0:
256,192,88363,1,4,0:0:0:0:
256,192,89697,1,4,0:0:0:0:
256,192,91030,1,12,0:0:0:0:
256,192,91252,1,4,0:0:0:0:
256,192,91475,1,4,0:0:0:0:
256,192,91697,1,12,0:0:0:0:
256,192,91919,1,4,0:0:0:0:
256,192,92141,1,4,0:0:0:0:
256,192,92363,1,12,0:0:0:0:
256,192,92586,1,12,0:0:0:0:
256,192,92808,1,4,0:0:0:0:
256,192,93030,1,12,0:0:0:0:
256,192,93252,1,12,0:0:0:0:
256,192,93475,1,4,0:0:0:0:
256,192,93697,1,12,0:0:0:0:
256,192,94697,1,0,0:0:0:0:
256,192,95030,1,8,0:0:0:0:
256,192,95197,1,0,0:0:0:0:
256,192,95363,1,8,0:0:0:0:
256,192,95530,1,0,0:0:0:0:
256,192,95697,1,8,0:0:0:0:
256,192,95863,1,8,0:0:0:0:
256,192,95947,1,8,0:0:0:0:
256,192,96030,1,8,0:0:0:0:
256,192,96113,1,8,0:0:0:0:
256,192,96197,1,8,0:0:0:0:
256,192,96280,1,8,0:0:0:0:
256,192,96363,1,4,0:0:0:0:
256,192,96696,1,8,0:0:0:0:
256,192,96863,1,8,0:0:0:0:
256,192,97030,1,0,0:0:0:0:
256,192,97196,1,0,0:0:0:0:
256,192,97280,1,0,0:0:0:0:
256,192,97363,1,8,0:0:0:0:
256,192,97530,1,8,0:0:0:0:
256,192,97696,1,8,0:0:0:0:
256,192,97863,1,0,0:0:0:0:
256,192,98030,1,0,0:0:0:0:
256,192,98196,1,8,0:0:0:0:
256,192,98363,1,8,0:0:0:0:
256,192,98446,1,0,0:0:0:0:
256,192,98530,1,0,0:0:0:0:
256,192,98613,1,0,0:0:0:0:
256,192,98696,1,8,0:0:0:0:
256,192,98863,1,0,0:0:0:0:
256,192,99030,1,8,0:0:0:0:
256,192,99197,1,0,0:0:0:0:
256,192,99363,1,8,0:0:0:0:
256,192,99530,1,8,0:0:0:0:
256,192,99613,1,8,0:0:0:0:
256,192,99697,1,0,0:0:0:0:
256,192,99863,1,0,0:0:0:0:
256,192,99946,1,0,0:0:0:0:
256,192,100030,1,8,0:0:0:0:
256,192,100196,1,0,0:0:0:0:
256,192,100363,1,8,0:0:0:0:
256,192,100530,1,8,0:0:0:0:
256,192,100696,1,0,0:0:0:0:
256,192,100863,1,8,0:0:0:0:
256,192,101030,1,0,0:0:0:0:
256,192,101113,1,8,0:0:0:0:
256,192,101196,1,0,0:0:0:0:
256,192,101363,1,0,0:0:0:0:
256,192,101530,1,8,0:0:0:0:
256,192,101696,1,8,0:0:0:0:
256,192,101779,1,0,0:0:0:0:
256,192,101863,1,0,0:0:0:0:
256,192,102030,1,8,0:0:0:0:
256,192,102196,1,8,0:0:0:0:
256,192,102280,1,0,0:0:0:0:
256,192,102363,1,0,0:0:0:0:
256,192,102530,1,8,0:0:0:0:
256,192,102696,1,8,0:0:0:0:
256,192,102780,1,0,0:0:0:0:
256,192,102863,1,0,0:0:0:0:
256,192,103030,1,8,0:0:0:0:
256,192,103196,1,8,0:0:0:0:
256,192,103280,1,0,0:0:0:0:
256,192,103363,1,0,0:0:0:0:
256,192,103530,1,8,0:0:0:0:
256,192,103697,1,8,0:0:0:0:
256,192,103780,1,8,0:0:0:0:
256,192,103863,1,0,0:0:0:0:
256,192,103947,1,0,0:0:0:0:
256,192,104030,1,8,0:0:0:0:
256,192,104197,1,8,0:0:0:0:
256,192,104280,1,0,0:0:0:0:
256,192,104363,1,8,0:0:0:0:
256,192,104530,1,0,0:0:0:0:
256,192,104696,1,8,0:0:0:0:
256,192,104863,1,0,0:0:0:0:
256,192,105030,1,8,0:0:0:0:
256,192,105196,1,0,0:0:0:0:
256,192,105280,1,0,0:0:0:0:
256,192,105363,1,8,0:0:0:0:
256,192,105529,1,0,0:0:0:0:
256,192,105696,1,8,0:0:0:0:
256,192,105863,1,8,0:0:0:0:
256,192,105947,1,0,0:0:0:0:
256,192,106030,1,0,0:0:0:0:
256,192,106196,1,8,0:0:0:0:
256,192,106363,1,8,0:0:0:0:
256,192,106446,1,8,0:0:0:0:
256,192,106530,1,0,0:0:0:0:
256,192,106613,1,0,0:0:0:0:
256,192,106696,1,8,0:0:0:0:
256,192,106863,1,8,0:0:0:0:
256,192,107030,1,0,0:0:0:0:
256,192,107113,1,0,0:0:0:0:
256,192,107196,1,0,0:0:0:0:
256,192,107363,1,8,0:0:0:0:
256,192,107530,1,0,0:0:0:0:
256,192,107696,1,8,0:0:0:0:
256,192,107863,1,0,0:0:0:0:
256,192,107946,1,0,0:0:0:0:
256,192,108030,1,8,0:0:0:0:
256,192,108196,1,0,0:0:0:0:
256,192,108363,1,8,0:0:0:0:
256,192,108530,1,8,0:0:0:0:
256,192,108696,1,0,0:0:0:0:
256,192,108863,1,8,0:0:0:0:
256,192,109030,1,0,0:0:0:0:
256,192,109113,1,0,0:0:0:0:
256,192,109196,1,8,0:0:0:0:
256,192,109280,1,0,0:0:0:0:
256,192,109363,1,8,0:0:0:0:
256,192,109530,1,8,0:0:0:0:
256,192,109696,1,0,0:0:0:0:
256,192,109863,1,0,0:0:0:0:
256,192,110030,1,8,0:0:0:0:
256,192,110196,1,0,0:0:0:0:
256,192,110363,1,8,0:0:0:0:
256,192,110530,1,8,0:0:0:0:
256,192,110613,1,0,0:0:0:0:
256,192,110696,1,8,0:0:0:0:
256,192,110863,1,0,0:0:0:0:
256,192,111030,1,8,0:0:0:0:
256,192,111113,1,0,0:0:0:0:
256,192,111196,1,8,0:0:0:0:
256,192,111363,1,0,0:0:0:0:
256,192,111530,1,8,0:0:0:0:
256,192,111613,1,0,0:0:0:0:
256,192,111696,1,0,0:0:0:0:
256,192,111863,1,0,0:0:0:0:
256,192,112029,1,8,0:0:0:0:
256,192,112196,1,0,0:0:0:0:
256,192,112363,1,8,0:0:0:0:
256,192,112447,1,0,0:0:0:0:
256,192,112530,1,0,0:0:0:0:
256,192,112696,1,8,0:0:0:0:
256,192,112863,1,8,0:0:0:0:
256,192,112947,1,0,0:0:0:0:
256,192,113030,1,0,0:0:0:0:
256,192,113197,1,8,0:0:0:0:
256,192,113363,1,8,0:0:0:0:
256,192,113447,1,8,0:0:0:0:
256,192,113530,1,0,0:0:0:0:
256,192,113697,1,0,0:0:0:0:
256,192,113863,1,8,0:0:0:0:
256,192,113947,1,8,0:0:0:0:
256,192,114030,1,0,0:0:0:0:
256,192,114196,1,0,0:0:0:0:
256,192,114363,1,8,0:0:0:0:
256,192,114447,1,8,0:0:0:0:
256,192,114530,1,0,0:0:0:0:
256,192,114613,1,0,0:0:0:0:
256,192,114697,1,8,0:0:0:0:
256,192,114863,1,0,0:0:0:0:
256,192,115029,1,8,0:0:0:0:
256,192,115197,1,0,0:0:0:0:
256,192,115363,1,8,0:0:0:0:
256,192,115529,1,0,0:0:0:0:
256,192,115613,1,0,0:0:0:0:
256,192,115696,1,8,0:0:0:0:
256,192,115864,1,8,0:0:0:0:
256,192,116030,1,8,0:0:0:0:
256,192,116196,1,0,0:0:0:0:
256,192,116363,1,8,0:0:0:0:
256,192,116530,1,0,0:0:0:0:
256,192,116613,1,0,0:0:0:0:
256,192,116696,1,8,0:0:0:0:
256,192,116863,1,8,0:0:0:0:
256,192,117030,1,8,0:0:0:0:
256,192,117113,1,8,0:0:0:0:
256,192,117196,1,0,0:0:0:0:
256,192,117363,1,8,0:0:0:0:
256,192,117530,1,0,0:0:0:0:
256,192,117696,1,12,0:0:0:0:
256,192,117947,1,4,0:0:0:0:
256,192,118197,1,12,0:0:0:0:
256,192,118447,1,4,0:0:0:0:
256,192,118697,1,12,0:0:0:0:
256,192,118947,1,0,0:0:0:0:
256,192,119030,1,0,0:0:0:0:
256,192,119197,1,8,0:0:0:0:
256,192,119280,1,8,0:0:0:0:
256,192,119363,1,8,0:0:0:0:
256,192,119447,1,8,0:0:0:0:
256,192,119530,1,8,0:0:0:0:
256,192,119613,1,8,0:0:0:0:
256,192,119697,1,0,0:0:0:0:
256,192,119780,1,0,0:0:0:0:
256,192,119863,1,0,0:0:0:0:
256,192,119947,1,0,0:0:0:0:
256,192,120030,1,0,0:0:0:0:
256,192,120113,1,0,0:0:0:0:
256,192,120197,1,0,0:0:0:0:
256,192,120280,1,0,0:0:0:0:
256,192,120363,1,8,0:0:0:0:
256,192,120530,1,0,0:0:0:0:
256,192,120697,1,8,0:0:0:0:
256,192,120863,1,0,0:0:0:0:
256,192,121030,1,8,0:0:0:0:
256,192,121197,1,8,0:0:0:0:
256,192,121280,1,0,0:0:0:0:
256,192,121363,1,8,0:0:0:0:
256,192,121530,1,0,0:0:0:0:
256,192,121697,1,8,0:0:0:0:
256,192,121863,1,8,0:0:0:0:
256,192,122030,1,0,0:0:0:0:
256,192,122197,1,0,0:0:0:0:
256,192,122218,1,0,0:0:0:0:
256,192,122530,1,0,0:0:0:0:
256,192,122551,1,0,0:0:0:0:
256,192,122863,1,0,0:0:0:0:
256,192,123030,1,8,0:0:0:0:
256,192,123197,1,0,0:0:0:0:
256,192,123280,1,0,0:0:0:0:
256,192,123363,1,8,0:0:0:0:
256,192,123530,1,0,0:0:0:0:
256,192,123697,1,8,0:0:0:0:
256,192,123863,1,0,0:0:0:0:
256,192,124030,1,8,0:0:0:0:
256,192,124113,1,0,0:0:0:0:
256,192,124197,1,8,0:0:0:0:
256,192,124363,1,0,0:0:0:0:
256,192,124530,1,8,0:0:0:0:
256,192,124697,1,0,0:0:0:0:
256,192,124863,1,0,0:0:0:0:
256,192,124884,1,0,0:0:0:0:
256,192,125197,1,0,0:0:0:0:
256,192,125218,1,0,0:0:0:0:
256,192,125530,1,0,0:0:0:0:
256,192,125613,1,0,0:0:0:0:
256,192,125697,1,8,0:0:0:0:
256,192,125863,1,0,0:0:0:0:
256,192,126030,1,8,0:0:0:0:
256,192,126197,1,8,0:0:0:0:
256,192,126363,1,0,0:0:0:0:
256,192,126530,1,0,0:0:0:0:
256,192,126697,1,8,0:0:0:0:
256,192,127030,1,8,0:0:0:0:
256,192,127197,1,8,0:0:0:0:
256,192,127363,1,0,0:0:0:0:
256,192,127530,1,8,0:0:0:0:
256,192,127697,1,0,0:0:0:0:
256,192,128030,1,8,0:0:0:0:
256,192,128363,1,0,0:0:0:0:
256,192,128697,1,0,0:0:0:0:
256,192,128863,1,0,0:0:0:0:
256,192,129030,1,8,0:0:0:0:
256,192,129197,1,0,0:0:0:0:
256,192,129363,1,4,0:0:0:0:
256,192,129863,1,4,0:0:0:0:
256,192,130363,1,4,0:0:0:0:
256,192,130697,1,12,0:0:0:0:
256,192,131030,1,4,0:0:0:0:
256,192,131197,1,0,0:0:0:0:
256,192,131363,1,8,0:0:0:0:
256,192,131530,1,0,0:0:0:0:
256,192,131613,1,0,0:0:0:0:
256,192,131697,1,0,0:0:0:0:
256,192,131863,1,0,0:0:0:0:
256,192,132030,1,8,0:0:0:0:
256,192,132197,1,8,0:0:0:0:
256,192,132363,1,0,0:0:0:0:
256,192,132530,1,8,0:0:0:0:
256,192,132697,1,8,0:0:0:0:
256,192,132863,1,0,0:0:0:0:
256,192,132947,1,0,0:0:0:0:
256,192,133030,1,0,0:0:0:0:
256,192,133197,1,8,0:0:0:0:
256,192,133363,1,8,0:0:0:0:
256,192,133447,1,0,0:0:0:0:
256,192,133530,1,8,0:0:0:0:
256,192,133613,1,0,0:0:0:0:
256,192,133697,1,0,0:0:0:0:
256,192,133863,1,0,0:0:0:0:
256,192,134030,1,8,0:0:0:0:
256,192,134197,1,0,0:0:0:0:
256,192,134280,1,0,0:0:0:0:
256,192,134363,1,0,0:0:0:0:
256,192,134530,1,8,0:0:0:0:
256,192,134697,1,8,0:0:0:0:
256,192,134863,1,0,0:0:0:0:
256,192,135030,1,8,0:0:0:0:
256,192,135197,1,0,0:0:0:0:
256,192,135363,1,8,0:0:0:0:
256,192,135530,1,0,0:0:0:0:
256,192,135613,1,0,0:0:0:0:
256,192,135697,1,0,0:0:0:0:
256,192,135863,1,0,0:0:0:0:
256,192,135947,1,0,0:0:0:0:
256,192,136030,1,8,0:0:0:0:
256,192,136113,1,0,0:0:0:0:
256,192,136197,1,8,0:0:0:0:
256,192,136363,1,8,0:0:0:0:
256,192,136530,1,0,0:0:0:0:
256,192,136697,1,8,0:0:0:0:
256,192,136863,1,0,0:0:0:0:
256,192,136947,1,0,0:0:0:0:
256,192,137030,1,0,0:0:0:0:
256,192,137197,1,8,0:0:0:0:
256,192,137363,1,8,0:0:0:0:
256,192,137530,1,0,0:0:0:0:
256,192,137697,1,8,0:0:0:0:
256,192,137863,1,0,0:0:0:0:
256,192,138030,1,8,0:0:0:0:
256,192,138197,1,0,0:0:0:0:
256,192,138280,1,0,0:0:0:0:
256,192,138363,1,0,0:0:0:0:
256,192,138530,1,0,0:0:0:0:
256,192,138697,1,8,0:0:0:0:
256,192,138780,1,8,0:0:0:0:
256,192,138863,1,0,0:0:0:0:
256,192,138947,1,0,0:0:0:0:
256,192,139030,1,8,0:0:0:0:
256,192,139197,1,0,0:0:0:0:
256,192,139363,1,8,0:0:0:0:
256,192,139530,1,0,0:0:0:0:
256,192,139613,1,0,0:0:0:0:
256,192,139697,1,0,0:0:0:0:
256,192,139863,1,8,0:0:0:0:
256,192,140030,1,8,0:0:0:0:
256,192,140197,1,0,0:0:0:0:
256,192,140363,1,8,0:0:0:0:
256,192,140530,1,0,0:0:0:0:
256,192,140697,1,8,0:0:0:0:
256,192,140863,1,0,0:0:0:0:
256,192,140947,1,0,0:0:0:0:
256,192,141030,1,0,0:0:0:0:
256,192,141197,1,0,0:0:0:0:
256,192,141363,1,8,0:0:0:0:
256,192,141530,1,8,0:0:0:0:
256,192,141697,1,4,0:0:0:0:
256,192,143697,1,4,0:0:0:0:
256,192,144363,1,4,0:0:0:0:
256,192,145697,1,4,0:0:0:0:
256,192,147030,1,8,0:0:0:0:
256,192,149030,1,8,0:0:0:0:
256,192,149697,1,8,0:0:0:0:
256,192,152363,1,8,0:0:0:0:
256,192,154363,1,8,0:0:0:0:
256,192,155030,1,8,0:0:0:0:
256,192,157697,1,0,0:0:0:0:
256,192,158030,1,0,0:0:0:0:
256,192,158363,1,8,0:0:0:0:
256,192,158697,1,0,0:0:0:0:
256,192,159030,1,0,0:0:0:0:
256,192,159363,1,0,0:0:0:0:
256,192,159530,1,0,0:0:0:0:
256,192,159697,1,8,0:0:0:0:
256,192,160030,1,0,0:0:0:0:
256,192,160363,1,8,0:0:0:0:
256,192,160696,1,0,0:0:0:0:
256,192,160863,1,0,0:0:0:0:
256,192,161030,1,8,0:0:0:0:
256,192,161363,1,0,0:0:0:0:
256,192,161697,1,0,0:0:0:0:
256,192,162030,1,0,0:0:0:0:
256,192,162363,1,8,0:0:0:0:
256,192,162530,1,0,0:0:0:0:
256,192,162863,1,0,0:0:0:0:
256,192,163030,1,8,0:0:0:0:
256,192,163363,1,0,0:0:0:0:
256,192,163697,1,8,0:0:0:0:
256,192,164030,1,0,0:0:0:0:
256,192,164196,1,0,0:0:0:0:
256,192,164363,1,8,0:0:0:0:
256,192,164696,1,8,0:0:0:0:
256,192,164863,1,0,0:0:0:0:
256,192,165030,1,8,0:0:0:0:
256,192,165363,1,0,0:0:0:0:
256,192,165697,1,8,0:0:0:0:
256,192,166030,1,0,0:0:0:0:
256,192,166197,1,0,0:0:0:0:
256,192,166363,1,8,0:0:0:0:
256,192,166697,1,8,0:0:0:0:
256,192,167030,1,8,0:0:0:0:
256,192,167197,1,8,0:0:0:0:
256,192,167363,1,8,0:0:0:0:
256,192,167530,1,0,0:0:0:0:
256,192,167697,1,8,0:0:0:0:
256,192,167863,1,0,0:0:0:0:
256,192,168196,1,0,0:0:0:0:
256,192,168363,1,8,0:0:0:0:
256,192,168696,1,0,0:0:0:0:
256,192,168863,1,0,0:0:0:0:
256,192,169030,1,8,0:0:0:0:
256,192,169363,1,8,0:0:0:0:
256,192,169697,1,0,0:0:0:0:
256,192,169863,1,0,0:0:0:0:
256,192,170030,1,0,0:0:0:0:
256,192,170363,1,8,0:0:0:0:
256,192,170697,1,8,0:0:0:0:
256,192,171030,1,0,0:0:0:0:
256,192,171363,1,8,0:0:0:0:
256,192,171530,1,0,0:0:0:0:
256,192,171697,1,8,0:0:0:0:
256,192,171863,1,8,0:0:0:0:
256,192,172030,1,0,0:0:0:0:
256,192,172363,1,8,0:0:0:0:
256,192,172530,1,0,0:0:0:0:
256,192,172697,1,0,0:0:0:0:
256,192,173030,1,8,0:0:0:0:
256,192,173197,1,0,0:0:0:0:
256,192,173530,1,0,0:0:0:0:
256,192,173697,1,8,0:0:0:0:
256,192,174030,1,0,0:0:0:0:
256,192,174363,1,8,0:0:0:0:
256,192,174697,1,0,0:0:0:0:
256,192,174863,1,8,0:0:0:0:
256,192,175030,1,0,0:0:0:0:
256,192,175363,1,0,0:0:0:0:
256,192,175697,1,8,0:0:0:0:
256,192,176030,1,0,0:0:0:0:
256,192,176197,1,0,0:0:0:0:
256,192,176363,1,8,0:0:0:0:
256,192,176697,1,0,0:0:0:0:
256,192,177030,1,8,0:0:0:0:
256,192,177363,1,0,0:0:0:0:
256,192,177697,1,0,0:0:0:0:
256,192,177863,1,8,0:0:0:0:
256,192,178030,1,0,0:0:0:0:
256,192,178363,1,8,0:0:0:0:
256,192,178530,1,0,0:0:0:0:
256,192,178697,1,8,0:0:0:0:
256,192,179030,12,0,180030,0:0:0:0:
256,192,180363,5,0,0:0:0:0:
256,192,180697,1,0,0:0:0:0:
256,192,180863,1,0,0:0:0:0:
256,192,181030,1,8,0:0:0:0:
256,192,181363,1,0,0:0:0:0:
256,192,181697,1,8,0:0:0:0:
256,192,182030,1,8,0:0:0:0:
256,192,182197,1,0,0:0:0:0:
256,192,182363,1,8,0:0:0:0:
256,192,182697,1,0,0:0:0:0:
256,192,183030,1,8,0:0:0:0:
256,192,183197,1,0,0:0:0:0:
256,192,183363,1,0,0:0:0:0:
256,192,183697,1,8,0:0:0:0:
256,192,183863,1,0,0:0:0:0:
256,192,184197,1,0,0:0:0:0:
256,192,184363,1,8,0:0:0:0:
256,192,184697,1,8,0:0:0:0:
256,192,185197,1,8,0:0:0:0:
256,192,185697,1,8,0:0:0:0:
256,192,186197,1,0,0:0:0:0:
256,192,186363,1,8,0:0:0:0:
256,192,187030,1,8,0:0:0:0:
256,192,187697,1,0,0:0:0:0:
256,192,187863,1,8,0:0:0:0:
256,192,188197,1,0,0:0:0:0:
256,192,188364,1,8,0:0:0:0:
256,192,188697,1,0,0:0:0:0:
256,192,188863,1,8,0:0:0:0:
256,192,189197,1,0,0:0:0:0:
256,192,189363,1,8,0:0:0:0:
256,192,189863,1,8,0:0:0:0:
256,192,190363,1,8,0:0:0:0:
256,192,190863,1,8,0:0:0:0:
256,192,191363,1,8,0:0:0:0:
256,192,191863,1,8,0:0:0:0:
256,192,192363,1,8,0:0:0:0:
256,192,192863,1,8,0:0:0:0:
256,192,193363,1,8,0:0:0:0:
256,192,193863,1,8,0:0:0:0:
256,192,194363,1,8,0:0:0:0:
256,192,194863,1,8,0:0:0:0:
256,192,195363,1,8,0:0:0:0:
256,192,195863,1,8,0:0:0:0:
256,192,196363,1,8,0:0:0:0:
256,192,197697,1,4,0:0:0:0:
256,192,198030,1,8,0:0:0:0:
256,192,198197,1,8,0:0:0:0:
256,192,198364,1,0,0:0:0:0:
256,192,198530,1,0,0:0:0:0:
256,192,198614,1,0,0:0:0:0:
256,192,198697,1,8,0:0:0:0:
256,192,198864,1,8,0:0:0:0:
256,192,199030,1,8,0:0:0:0:
256,192,199113,1,0,0:0:0:0:
256,192,199197,1,0,0:0:0:0:
256,192,199280,1,0,0:0:0:0:
256,192,199364,1,8,0:0:0:0:
256,192,199530,1,0,0:0:0:0:
256,192,199697,1,8,0:0:0:0:
256,192,199780,1,8,0:0:0:0:
256,192,199864,1,8,0:0:0:0:
256,192,199947,1,0,0:0:0:0:
256,192,200030,1,8,0:0:0:0:
256,192,200197,1,0,0:0:0:0:
256,192,200364,1,8,0:0:0:0:
256,192,200531,1,0,0:0:0:0:
256,192,200613,1,0,0:0:0:0:
256,192,200697,1,8,0:0:0:0:
256,192,200864,1,8,0:0:0:0:
256,192,200947,1,8,0:0:0:0:
256,192,201031,1,0,0:0:0:0:
256,192,201197,1,0,0:0:0:0:
256,192,201280,1,0,0:0:0:0:
256,192,201364,1,8,0:0:0:0:
256,192,201530,1,0,0:0:0:0:
256,192,201697,1,8,0:0:0:0:
256,192,201864,1,8,0:0:0:0:
256,192,202030,1,0,0:0:0:0:
256,192,202197,1,8,0:0:0:0:
256,192,202364,1,8,0:0:0:0:
256,192,202447,1,0,0:0:0:0:
256,192,202530,1,8,0:0:0:0:
256,192,202613,1,0,0:0:0:0:
256,192,202697,1,0,0:0:0:0:
256,192,202864,1,8,0:0:0:0:
256,192,203030,1,8,0:0:0:0:
256,192,203113,1,0,0:0:0:0:
256,192,203197,1,0,0:0:0:0:
256,192,203364,1,8,0:0:0:0:
256,192,203530,1,8,0:0:0:0:
256,192,203614,1,0,0:0:0:0:
256,192,203697,1,0,0:0:0:0:
256,192,203780,1,0,0:0:0:0:
256,192,203864,1,8,0:0:0:0:
256,192,204030,1,8,0:0:0:0:
256,192,204114,1,0,0:0:0:0:
256,192,204197,1,0,0:0:0:0:
256,192,204364,1,8,0:0:0:0:
256,192,204530,1,8,0:0:0:0:
256,192,204614,1,0,0:0:0:0:
256,192,204697,1,0,0:0:0:0:
256,192,204864,1,8,0:0:0:0:
256,192,205031,1,8,0:0:0:0:
256,192,205114,1,8,0:0:0:0:
256,192,205197,1,0,0:0:0:0:
256,192,205281,1,0,0:0:0:0:
256,192,205364,1,8,0:0:0:0:
256,192,205531,1,8,0:0:0:0:
256,192,205614,1,0,0:0:0:0:
256,192,205697,1,8,0:0:0:0:
256,192,205864,1,0,0:0:0:0:
256,192,206030,1,8,0:0:0:0:
256,192,206197,1,8,0:0:0:0:
256,192,206280,1,0,0:0:0:0:
256,192,206364,1,8,0:0:0:0:
256,192,206530,1,0,0:0:0:0:
256,192,206614,1,0,0:0:0:0:
256,192,206697,1,8,0:0:0:0:
256,192,206863,1,0,0:0:0:0:
256,192,207030,1,8,0:0:0:0:
256,192,207197,1,8,0:0:0:0:
256,192,207281,1,0,0:0:0:0:
256,192,207364,1,0,0:0:0:0:
256,192,207530,1,8,0:0:0:0:
256,192,207697,1,8,0:0:0:0:
256,192,207780,1,8,0:0:0:0:
256,192,207864,1,0,0:0:0:0:
256,192,207947,1,0,0:0:0:0:
256,192,208030,1,8,0:0:0:0:
256,192,208113,1,0,0:0:0:0:
256,192,208197,1,8,0:0:0:0:
256,192,208364,1,0,0:0:0:0:
256,192,208447,1,0,0:0:0:0:
256,192,208530,1,0,0:0:0:0:
256,192,208697,1,8,0:0:0:0:
256,192,208864,1,0,0:0:0:0:
256,192,209030,1,8,0:0:0:0:
256,192,209197,1,0,0:0:0:0:
256,192,209280,1,0,0:0:0:0:
256,192,209364,1,8,0:0:0:0:
256,192,209530,1,0,0:0:0:0:
256,192,209697,1,8,0:0:0:0:
256,192,209780,1,8,0:0:0:0:
256,192,209864,1,8,0:0:0:0:
256,192,210030,1,0,0:0:0:0:
256,192,210197,1,8,0:0:0:0:
256,192,210364,1,0,0:0:0:0:
256,192,210447,1,0,0:0:0:0:
256,192,210530,1,8,0:0:0:0:
256,192,210614,1,0,0:0:0:0:
256,192,210697,1,8,0:0:0:0:
256,192,210864,1,8,0:0:0:0:
256,192,211030,1,0,0:0:0:0:
256,192,211197,1,0,0:0:0:0:
256,192,211280,1,0,0:0:0:0:
256,192,211364,1,8,0:0:0:0:
256,192,211530,1,0,0:0:0:0:
256,192,211697,1,8,0:0:0:0:
256,192,211864,1,8,0:0:0:0:
256,192,211947,1,0,0:0:0:0:
256,192,212030,1,8,0:0:0:0:
256,192,212197,1,0,0:0:0:0:
256,192,212364,1,8,0:0:0:0:
256,192,212447,1,0,0:0:0:0:
256,192,212530,1,8,0:0:0:0:
256,192,212697,1,0,0:0:0:0:
256,192,212864,1,8,0:0:0:0:
256,192,212947,1,0,0:0:0:0:
256,192,213030,1,0,0:0:0:0:
256,192,213197,1,0,0:0:0:0:
256,192,213363,1,8,0:0:0:0:
256,192,213530,1,0,0:0:0:0:
256,192,213697,1,8,0:0:0:0:
256,192,213781,1,0,0:0:0:0:
256,192,213864,1,0,0:0:0:0:
256,192,214030,1,8,0:0:0:0:
256,192,214197,1,8,0:0:0:0:
256,192,214281,1,0,0:0:0:0:
256,192,214364,1,0,0:0:0:0:
256,192,214447,1,0,0:0:0:0:
256,192,214531,1,8,0:0:0:0:
256,192,214697,1,8,0:0:0:0:
256,192,214781,1,8,0:0:0:0:
256,192,214864,1,0,0:0:0:0:
256,192,215031,1,0,0:0:0:0:
256,192,215197,1,8,0:0:0:0:
256,192,215281,1,8,0:0:0:0:
256,192,215364,1,0,0:0:0:0:
256,192,215530,1,0,0:0:0:0:
256,192,215697,1,8,0:0:0:0:
256,192,215779,1,8,0:0:0:0:
256,192,215863,1,0,0:0:0:0:
256,192,215946,1,0,0:0:0:0:
256,192,216029,1,8,0:0:0:0:
256,192,216197,1,0,0:0:0:0:
256,192,216363,1,8,0:0:0:0:
256,192,216531,1,0,0:0:0:0:
256,192,216697,1,8,0:0:0:0:
256,192,216863,1,0,0:0:0:0:
256,192,216947,1,0,0:0:0:0:
256,192,217030,1,8,0:0:0:0:
256,192,217198,1,8,0:0:0:0:
256,192,217364,1,8,0:0:0:0:
256,192,217530,1,0,0:0:0:0:
256,192,217697,1,8,0:0:0:0:
256,192,217780,1,8,0:0:0:0:
256,192,217864,1,8,0:0:0:0:
256,192,217947,1,8,0:0:0:0:
256,192,218030,1,8,0:0:0:0:
259,196,218113,1,8,0:0:0:0:
256,192,218197,1,8,0:0:0:0:
259,196,218280,1,8,0:0:0:0:
256,192,218364,1,0,0:0:0:0:
256,192,218447,1,0,0:0:0:0:
256,192,218530,1,0,0:0:0:0:
256,192,218613,1,0,0:0:0:0:
256,192,218697,1,0,0:0:0:0:
256,192,218780,1,0,0:0:0:0:
256,192,218864,1,0,0:0:0:0:
256,192,218947,1,0,0:0:0:0:
256,192,219030,1,12,0:0:0:0:
256,192,219197,1,0,0:0:0:0:
256,192,219363,1,8,0:0:0:0:
256,192,219530,1,0,0:0:0:0:
256,192,219613,1,0,0:0:0:0:
256,192,219697,1,8,0:0:0:0:
256,192,219863,1,8,0:0:0:0:
256,192,220030,1,8,0:0:0:0:
256,192,220197,1,0,0:0:0:0:
256,192,220280,1,0,0:0:0:0:
256,192,220363,1,8,0:0:0:0:
256,192,220447,1,0,0:0:0:0:
256,192,220530,1,8,0:0:0:0:
256,192,220697,1,8,0:0:0:0:
256,192,220863,1,0,0:0:0:0:
256,192,221030,1,8,0:0:0:0:
256,192,221113,1,0,0:0:0:0:
256,192,221197,1,0,0:0:0:0:
256,192,221364,1,8,0:0:0:0:
256,192,221447,1,0,0:0:0:0:
256,192,221530,1,8,0:0:0:0:
256,192,221697,1,0,0:0:0:0:
256,192,221863,1,0,0:0:0:0:
256,192,222030,1,8,0:0:0:0:
256,192,222197,1,0,0:0:0:0:
256,192,222280,1,0,0:0:0:0:
256,192,222363,1,8,0:0:0:0:
256,192,222530,1,0,0:0:0:0:
256,192,222697,1,8,0:0:0:0:
256,192,222863,1,0,0:0:0:0:
256,192,222947,1,8,0:0:0:0:
256,192,223030,1,0,0:0:0:0:
256,192,223197,1,8,0:0:0:0:
256,192,223363,1,8,0:0:0:0:
256,192,223530,1,8,0:0:0:0:
256,192,223613,1,0,0:0:0:0:
256,192,223697,1,8,0:0:0:0:
256,192,223780,1,0,0:0:0:0:
256,192,223863,1,0,0:0:0:0:
256,192,224030,1,8,0:0:0:0:
256,192,224197,1,0,0:0:0:0:
256,192,224280,1,0,0:0:0:0:
256,192,224363,1,8,0:0:0:0:
256,192,224530,1,0,0:0:0:0:
256,192,224697,1,8,0:0:0:0:
256,192,224863,1,0,0:0:0:0:
256,192,224947,1,8,0:0:0:0:
256,192,225030,1,0,0:0:0:0:
256,192,225197,1,8,0:0:0:0:
256,192,225363,1,8,0:0:0:0:
256,192,225530,1,0,0:0:0:0:
256,192,225613,1,8,0:0:0:0:
256,192,225697,1,0,0:0:0:0:
256,192,225863,1,0,0:0:0:0:
256,192,226030,1,8,0:0:0:0:
256,192,226197,1,0,0:0:0:0:
256,192,226363,1,8,0:0:0:0:
256,192,226447,1,0,0:0:0:0:
256,192,226530,1,8,0:0:0:0:
256,192,226613,1,0,0:0:0:0:
256,192,226697,1,8,0:0:0:0:
256,192,226780,1,8,0:0:0:0:
256,192,226863,1,0,0:0:0:0:
256,192,227030,1,0,0:0:0:0:
256,192,227197,1,0,0:0:0:0:
256,192,227280,1,0,0:0:0:0:
256,192,227363,1,8,0:0:0:0:
256,192,227530,1,0,0:0:0:0:
256,192,227697,1,8,0:0:0:0:
256,192,227863,1,0,0:0:0:0:
256,192,227947,1,8,0:0:0:0:
256,192,228030,1,0,0:0:0:0:
256,192,228197,1,0,0:0:0:0:
256,192,228363,1,8,0:0:0:0:
256,192,228530,1,0,0:0:0:0:
256,192,228613,1,8,0:0:0:0:
256,192,228697,1,0,0:0:0:0:
256,192,228863,1,0,0:0:0:0:
256,192,229030,1,8,0:0:0:0:
256,192,229113,1,8,0:0:0:0:
256,192,229197,1,0,0:0:0:0:
256,192,229280,1,0,0:0:0:0:
256,192,229363,1,8,0:0:0:0:
256,192,229447,1,8,0:0:0:0:
256,192,229530,1,0,0:0:0:0:
256,192,229697,1,4,0:0:0:0:
256,192,229863,1,0,0:0:0:0:
256,192,229947,1,0,0:0:0:0:
256,192,230030,1,8,0:0:0:0:
256,192,230197,1,0,0:0:0:0:
256,192,230363,1,8,0:0:0:0:
256,192,230447,1,0,0:0:0:0:
256,192,230530,1,8,0:0:0:0:
256,192,230613,1,0,0:0:0:0:
256,192,230697,1,0,0:0:0:0:
256,192,230863,1,8,0:0:0:0:
256,192,230947,1,0,0:0:0:0:
256,192,231030,1,0,0:0:0:0:
256,192,231197,1,8,0:0:0:0:
256,192,231363,1,8,0:0:0:0:
256,192,231447,1,0,0:0:0:0:
256,192,231530,1,8,0:0:0:0:
256,192,231697,1,0,0:0:0:0:
256,192,231863,1,8,0:0:0:0:
256,192,232030,1,0,0:0:0:0:
256,192,232197,1,8,0:0:0:0:
256,192,232280,1,8,0:0:0:0:
256,192,232363,1,0,0:0:0:0:
256,192,232530,1,0,0:0:0:0:
256,192,232697,1,8,0:0:0:0:
256,192,232863,1,0,0:0:0:0:
256,192,232947,1,8,0:0:0:0:
256,192,233030,1,0,0:0:0:0:
256,192,233197,1,0,0:0:0:0:
256,192,233363,1,8,0:0:0:0:
256,192,233447,1,0,0:0:0:0:
256,192,233530,1,8,0:0:0:0:
256,192,233613,1,0,0:0:0:0:
256,192,233697,1,0,0:0:0:0:
256,192,233863,1,8,0:0:0:0:
256,192,234030,1,8,0:0:0:0:
256,192,234197,1,0,0:0:0:0:
256,192,234280,1,0,0:0:0:0:
256,192,234363,1,8,0:0:0:0:
256,192,234447,1,0,0:0:0:0:
256,192,234530,1,8,0:0:0:0:
256,192,234697,1,8,0:0:0:0:
256,192,234863,1,0,0:0:0:0:
256,192,234947,1,0,0:0:0:0:
256,192,235030,1,8,0:0:0:0:
256,192,235197,1,0,0:0:0:0:
256,192,235363,1,8,0:0:0:0:
256,192,235530,1,8,0:0:0:0:
256,192,235697,1,8,0:0:0:0:
256,192,235780,1,8,0:0:0:0:
256,192,235863,1,0,0:0:0:0:
256,192,235947,1,8,0:0:0:0:
256,192,236030,1,0,0:0:0:0:
256,192,236197,1,0,0:0:0:0:
256,192,236363,1,8,0:0:0:0:
256,192,236447,1,8,0:0:0:0:
256,192,236530,1,0,0:0:0:0:
256,192,236697,1,8,0:0:0:0:
256,192,236863,1,0,0:0:0:0:
256,192,236947,1,8,0:0:0:0:
256,192,237030,1,0,0:0:0:0:
256,192,237197,1,0,0:0:0:0:
256,192,237363,1,8,0:0:0:0:
256,192,237530,1,0,0:0:0:0:
256,192,237697,1,8,0:0:0:0:
256,192,237863,1,0,0:0:0:0:
256,192,237947,1,0,0:0:0:0:
256,192,238030,1,8,0:0:0:0:
256,192,238197,1,8,0:0:0:0:
256,192,238363,1,0,0:0:0:0:
256,192,238447,1,8,0:0:0:0:
256,192,238530,1,0,0:0:0:0:
256,192,238697,1,8,0:0:0:0:
256,192,238863,1,8,0:0:0:0:
256,192,239030,1,8,0:0:0:0:
256,192,239113,1,8,0:0:0:0:
256,192,239197,1,0,0:0:0:0:
256,192,239280,1,0,0:0:0:0:
256,192,239363,1,8,0:0:0:0:
256,192,239447,1,0,0:0:0:0:
256,192,239530,1,8,0:0:0:0:
256,192,239613,1,0,0:0:0:0:
256,192,239697,1,8,0:0:0:0:
256,192,239780,1,8,0:0:0:0:
256,192,239863,1,0,0:0:0:0:
256,192,239947,1,0,0:0:0:0:
256,192,240030,1,8,0:0:0:0:
256,192,240113,1,0,0:0:0:0:
256,192,240197,1,0,0:0:0:0:
256,192,240280,1,0,0:0:0:0:
256,192,240363,5,8,0:0:0:0:
256,192,242363,1,0,0:0:0:0:
256,192,243030,1,8,0:0:0:0:
