osu file format v14

[General]
AudioFilename: Erasus.mp3
AudioLeadIn: 2000
PreviewTime: 37697
Countdown: 0
SampleSet: Normal
StackLeniency: 0.7
Mode: 0
LetterboxInBreaks: 0
WidescreenStoryboard: 0

[Editor]
Bookmarks: 5697,11030,21697,25030,27030,29863,32363,43030,64363,73363,75030,85697,91030,93697,96363,117697,120363,127030,128363,131030,141697,147030,163030,187030,197697,217697,219030,229697,240363,243030
DistanceSpacing: 1.2
BeatDivisor: 2
GridSize: 32
TimelineZoom: 1.8

[Metadata]
Title:Erasus
TitleUnicode:Erasus
Artist:Subkulture feat. Klayton of Celldweller
ArtistUnicode:Subkulture feat. Klayton of Celldweller
Creator:ErunamoJAZZ
Version:EraseUs
Source:
Tags:Nyukai Nyu-chan Inyuschan Kurokami xtrem3x Erase Us DotA2 DotaCinema CS Counter Strike Source Drum and Bass dnb Techno Trance Metal amazing noob never forget my real first rank thanks
BeatmapID:282667
BeatmapSetID:107979

[Difficulty]
HPDrainRate:6
CircleSize:4.4
OverallDifficulty:8
ApproachRate:9.2
SliderMultiplier:1.2
SliderTickRate:1

[Events]
//Background and Video events
0,0,"bg_erasus.png",0,0
//Break Periods
2,149897,162460
//Storyboard Layer 0 (Background)
//Storyboard Layer 1 (Fail)
//Storyboard Layer 2 (Pass)
//Storyboard Layer 3 (Foreground)
//Storyboard Sound Samples

[TimingPoints]
364,333.333333333333,4,1,0,30,1,0
4363,-83.3333333333333,4,1,0,20,0,0
11030,-100,4,2,0,50,0,0
21863,-83.3333333333333,4,1,0,30,0,0
25030,-66.6666666666667,4,1,0,45,0,0
25363,-66.6666666666667,4,1,0,50,0,0
27030,-83.3333333333333,4,1,0,30,0,0
29030,-66.6666666666667,4,1,0,30,0,0
30030,-66.6666666666667,4,1,0,50,0,0
32363,-83.3333333333333,4,1,0,30,0,0
36030,-66.6666666666667,4,1,0,50,0,0
37197,-83.3333333333333,4,1,0,40,0,0
43030,-58.8235294117647,4,1,0,55,0,1
64363,-100,4,1,0,45,0,0
73363,-55.5555555555556,4,1,0,50,0,1
75030,-90.9090909090909,4,1,0,40,0,0
77030,-76.9230769230769,4,1,0,40,0,0
77697,-90.9090909090909,4,1,0,40,0,0
79863,-66.6666666666667,4,1,0,40,0,0
80447,-90.9090909090909,4,1,0,40,0,0
85697,-100,4,3,0,40,0,0
91030,-66.6666666666667,4,1,0,40,0,0
93697,-58.8235294117647,4,1,0,45,0,0
96363,-58.8235294117647,4,1,0,50,0,1
114697,-50,4,1,0,50,0,1
115030,-58.8235294117647,4,1,0,50,0,1
117697,-133.333333333333,4,1,0,45,0,0
120363,-80,4,3,0,45,0,0
128363,-58.8235294117647,4,1,0,45,0,0
129363,-58.8235294117647,4,1,0,55,0,1
131030,-66.6666666666667,4,1,0,45,0,0
141697,-90.9090909090909,4,1,0,40,0,0
149697,-125,4,2,0,30,0,0
178947,-125,4,2,0,25,0,0
179947,-125,4,2,0,30,0,0
180947,-125,4,2,0,40,0,0
186197,-125,4,2,0,35,0,0
188363,-125,4,2,0,30,0,0
189030,-125,4,2,0,25,0,0
189697,-125,4,2,0,20,0,0
190363,-125,4,2,0,15,0,0
191030,-125,4,2,0,5,0,0
197697,-52.6315789473684,4,1,0,50,0,1
217697,-83.3333333333333,4,1,0,40,0,0
219030,-52.6315789473684,4,1,0,60,0,1
235030,-50,4,1,0,65,0,1
240363,-100,4,2,0,40,0,0
243363,-100,4,2,0,10,0,0

[Colours]
Combo1 : 179,129,13
Combo2 : 0,83,166
Combo3 : 217,217,0
Combo4 : 192,192,192
Combo5 : 201,24,125
Combo6 : 31,91,124

[HitObjects]
76,68,5697,5,0,1:0:0:0:
76,68,5863,1,0,1:0:0:0:
76,68,6030,2,0,P|49:95|44:128,1,71.9999978027344,0|0,0:2|0:0,0:0:0:0:
44,172,6280,1,0,0:0:0:0:
44,172,6363,2,0,P|76:192|116:188,1,71.9999978027344,0|0,0:0|0:0,0:0:0:0:
180,136,6697,1,2,0:0:0:0:
184,128,6780,1,0,0:0:0:0:
188,120,6863,1,0,0:0:0:0:
168,228,7030,5,0,0:0:0:0:
168,228,7197,1,2,0:0:0:0:
168,228,7363,2,0,P|164:264|177:305,1,71.9999978027344,0|0,0:0|0:0,0:0:0:0:
188,312,7613,1,0,0:0:0:0:
204,325,7697,1,2,0:0:0:0:
282,357,7863,1,0,0:0:0:0:
332,288,8030,1,0,0:0:0:0:
329,280,8113,1,0,0:0:0:0:
326,273,8197,1,0,0:0:0:0:
408,340,8363,6,0,P|433:326|462:287,1,71.9999978027344,0|0,0:0|0:0,0:0:0:0:
476,208,8697,1,2,0:0:0:0:
422,140,8863,1,0,0:0:0:0:
427,134,8947,1,0,0:0:0:0:
432,128,9030,1,0,0:0:0:0:
388,52,9197,2,0,P|349:31|314:28,1,71.9999978027344,2|0,0:0|0:0,0:0:0:0:
299,25,9447,1,0,0:0:0:0:
277,32,9530,1,0,0:0:0:0:
124,52,9697,6,0,B|148:76|148:76|184:92,1,71.9999978027344,2|0,3:1|3:0,0:0:0:0:
329,91,10030,2,0,B|364:76|364:76|388:52,1,71.9999978027344,2|0,3:1|3:0,0:0:0:0:
344,272,10363,2,0,B|380:280|380:280|416:300,1,71.9999978027344,2|0,3:1|3:0,0:0:0:0:
168,272,10697,2,0,B|132:280|132:280|96:300,1,71.9999978027344,2|0,3:1|3:0,0:0:0:0:
256,156,11030,5,4,3:2:0:0:
88,156,11363,2,0,P|53:114|58:51,1,120,0|2,0:0|0:0,0:0:0:0:
129,87,11863,2,0,P|168:130|163:188,1,120,0|2,0:0|0:0,0:0:0:0:
89,199,12363,6,0,P|95:258|149:295,1,120,0|2,0:0|0:0,0:0:0:0:
256,273,12863,2,0,P|219:224|148:225,1,120,0|2,0:0|0:0,0:0:0:0:
188,308,13363,2,0,P|228:348|292:340,1,120,0|2,0:0|0:0,0:0:0:0:
356,268,13863,6,0,P|332:244|296:224,1,60,0|2,0:0|0:0,0:0:0:0:
216,176,14197,1,0,0:0:0:0:
216,176,14280,1,0,0:0:0:0:
216,176,14363,1,0,0:0:0:0:
275,85,14530,2,0,P|297:73|331:67,1,60,2|0,0:0|0:0,0:0:0:0:
348,67,14780,1,0,0:0:0:0:
364,70,14863,1,0,0:0:0:0:
402,171,15030,5,0,0:0:0:0:
356,268,15197,1,0,0:0:0:0:
288,352,15363,2,0,P|256:360|228:352,1,60,2|0,0:0|0:0,0:0:0:0:
82,302,15697,2,0,P|111:295|140:304,1,60,2|0,0:0|0:0,0:0:0:0:
156,312,15947,1,0,0:0:0:0:
168,324,16030,1,0,0:0:0:0:
256,260,16197,2,0,P|264:231|258:203,1,60,2|0,0:0|0:0,0:0:0:0:
56,120,16697,5,2,0:0:0:0:
116,32,16863,1,0,0:0:0:0:
116,32,16947,1,0,0:0:0:0:
116,32,17030,1,0,0:0:0:0:
224,24,17197,2,0,P|256:28|288:44,1,60,2|0,0:0|0:0,0:0:0:0:
290,54,17447,1,0,0:0:0:0:
299,69,17530,1,0,0:0:0:0:
272,173,17697,5,0,0:0:0:0:
172,132,17863,1,0,0:0:0:0:
175,240,18030,2,0,P|203:262|240:262,1,60,2|0,0:0|0:0,0:0:0:0:
243,260,18280,1,0,0:0:0:0:
264,256,18363,2,0,P|296:264|328:300,1,60,0|2,0:0|0:0,0:0:0:0:
396,356,18697,1,0,0:0:0:0:
396,356,18780,1,0,0:0:0:0:
396,356,18863,1,0,0:0:0:0:
468,304,19030,5,0,0:0:0:0:
396,356,19197,2,0,P|377:331|381:295,1,60,0|2,0:0|0:0,0:0:0:0:
468,304,19530,1,0,0:0:0:0:
472,288,19613,1,0,0:0:0:0:
476,272,19697,1,0,0:0:0:0:
436,192,19863,1,2,0:0:0:0:
368,248,20030,1,0,0:0:0:0:
368,248,20113,1,0,0:0:0:0:
368,248,20197,2,0,P|332:236|304:208,1,60,0|2,0:0|0:0,0:0:0:0:
264,148,20530,5,0,0:0:0:0:
272,132,20613,1,0,0:0:0:0:
280,116,20697,1,0,0:0:0:0:
268,28,20863,2,0,P|236:32|196:60,1,60,2|0,0:0|0:0,0:0:0:0:
200,56,21113,1,0,0:0:0:0:
188,68,21197,2,0,P|160:88|112:96,1,60,0|2,0:0|0:0,0:0:0:0:
48,124,21530,1,2,0:0:0:0:
60,244,21697,6,0,P|112:264|164:316,1,120,4|0,2:1|0:0,0:0:0:0:
256,268,22197,1,0,0:0:0:0:
256,268,22280,1,0,0:0:0:0:
256,268,22363,1,0,0:0:0:0:
332,192,22530,2,0,P|343:147|336:96,1,71.9999978027344
412,216,22863,1,0,0:0:0:0:
452,288,23030,6,0,P|472:328|508:352,2,71.9999978027344
436,180,23530,1,0,3:0:0:0:
428,160,23613,1,0,3:0:0:0:
420,140,23697,1,0,1:1:0:0:
408,120,23780,1,0,1:1:0:0:
396,104,23863,1,0,1:1:0:0:
320,28,24030,2,0,P|288:52|264:84,1,71.9999978027344
152,212,24363,6,0,P|124:244|80:272,1,71.9999978027344
224,268,24697,1,2,0:2:0:0:
312,288,24863,2,0,P|341:319|389:342,2,71.9999978027344,0|0|2,0:0|0:0|0:2,0:0:0:0:
244,172,25363,5,2,0:0:0:0:
324,64,25530,2,0,P|344:54|366:54,2,45.0000017166138
452,104,25863,1,2,0:0:0:0:
466,238,26030,1,0,0:0:0:0:
441,269,26113,1,0,0:0:0:0:
395,277,26197,1,0,0:0:0:0:
353,264,26280,1,0,0:0:0:0:
322,229,26363,1,2,0:0:0:0:
264,108,26530,1,0,0:0:0:0:
234,74,26613,1,0,0:0:0:0:
193,57,26696,1,2,1:3:0:0:
149,60,26779,1,0,3:0:0:0:
110,83,26863,1,2,3:0:0:0:
64,180,27030,6,0,L|27:268,1,71.9999978027344,4|0,1:0|0:0,0:0:0:0:
108,324,27363,2,0,L|138:245,1,71.9999978027344
172,160,27697,1,0,0:0:0:0:
234,74,27863,1,0,0:0:0:0:
344,56,28030,2,0,P|376:68|428:84,1,71.9999978027344
504,140,28363,2,0,P|433:149|368:192,1,143.999995605469,0|0,0:0|0:0,3:0:0:0:
288,256,28863,1,0,0:0:0:0:
152,260,29030,6,0,P|56:173|152:81,1,270.000010299683
256,36,29697,1,0,0:0:0:0:
152,260,30030,6,0,B|112:280|112:280|104:280|104:280|64:300,1,90.0000034332277,0|2,0:0|0:0,0:0:0:0:
360,260,30530,2,0,B|400:280|400:280|408:280|408:280|448:300,1,90.0000034332277,0|2,0:0|0:0,0:0:0:0:
284,120,31030,6,0,P|262:159|233:193,1,90.0000034332277,0|2,0:0|0:0,0:0:0:0:
160,260,31363,1,2,0:0:0:0:
68,224,31530,1,2,0:0:0:0:
180,356,31697,1,2,0:0:0:0:
224,364,31780,1,0,0:0:0:0:
268,364,31863,1,2,0:0:0:0:
312,356,31947,1,0,0:0:0:0:
352,336,32030,2,0,P|392:308|404:264,1,90.0000034332277
420,128,32363,5,4,0:1:0:0:
420,128,32697,2,0,P|385:113|348:82,1,71.9999978027344
272,24,33030,2,0,P|232:36|196:72,1,71.9999978027344
284,132,33363,1,0,0:0:0:0:
380,184,33530,1,0,0:0:0:0:
432,280,33697,5,0,0:0:0:0:
432,280,34030,2,0,P|392:288|344:312,1,71.9999978027344
232,356,34363,1,0,0:0:0:0:
96,308,34530,2,0,P|112:272|148:244,1,71.9999978027344
232,356,34863,1,0,0:0:0:0:
400,160,35030,6,0,L|378:91,1,71.9999978027344,0|2,0:0|0:0,0:1:0:0:
249,25,35363,2,0,L|271:93,1,71.9999978027344,0|0,0:0|0:0,0:1:0:0:
204,222,35697,2,0,L|183:153,1,71.9999978027344,2|2,0:0|0:0,0:1:0:0:
72,80,36030,5,0,0:0:0:0:
72,80,36113,1,0,0:0:0:0:
72,80,36197,2,0,P|72:112|88:176,1,90.0000034332277,0|2,0:0|0:0,0:0:0:0:
112,300,36530,2,0,B|88:296|88:296|56:280,2,45.0000017166138,0|0|2,0:0|0:0|0:0,0:0:0:0:
248,292,36863,1,0,0:0:0:0:
254,277,36947,1,0,0:0:0:0:
261,261,37030,1,2,0:0:0:0:
300,160,37197,2,0,P|324:128|364:112,1,71.9999978027344,0|2,0:0|0:0,0:0:0:0:
460,104,37530,1,0,0:0:0:0:
448,248,37697,6,0,L|396:304,1,71.9999978027344,4|0,0:0|0:0,0:0:0:0:
268,360,38030,2,0,L|324:300,1,71.9999978027344,2|0,0:0|0:0,0:0:0:0:
380,176,38363,1,0,0:0:0:0:
328,40,38530,1,0,0:0:0:0:
192,88,38697,2,0,L|144:152,1,71.9999978027344
164,288,39030,6,0,L|212:220,1,71.9999978027344,2|0,0:0|0:0,0:0:0:0:
284,108,39363,1,0,0:0:0:0:
184,40,39530,1,0,0:0:0:0:
184,40,39613,1,0,0:0:0:0:
184,40,39697,2,0,P|121:88|97:160,1,143.999995605469,0|0,0:0|0:0,0:0:0:0:
164,288,40363,6,0,P|186:314|223:331,1,71.9999978027344,2|0,0:0|0:0,0:0:0:0:
320,272,40697,1,6,0:0:0:0:
406,197,40863,1,4,0:0:0:0:
191,120,41030,1,6,0:0:0:0:
212,231,41196,1,4,0:0:0:0:
386,86,41363,1,6,0:0:0:0:
278,45,41530,1,4,0:0:0:0:
129,51,41697,5,2,3:2:0:0:
92,90,41780,1,0,3:0:0:0:
73,140,41863,1,0,3:0:0:0:
74,194,41947,1,0,3:0:0:0:
94,243,42030,1,0,3:0:0:0:
131,282,42113,1,0,1:0:0:0:
180,304,42197,1,0,1:0:0:0:
234,306,42280,1,0,1:0:0:0:
285,288,42363,1,2,1:3:0:0:
325,253,42447,1,0,1:0:0:0:
350,205,42530,1,0,1:0:0:0:
355,152,42613,1,0,1:0:0:0:
340,100,42697,1,4,1:0:0:0:
340,100,43030,6,0,B|352:64|388:48|388:48|448:84|420:200,1,204.000003890991,4|8,0:0|0:0,0:0:0:0:
392,272,43530,1,0,0:0:0:0:
368,304,43613,1,0,0:0:0:0:
336,332,43697,1,0,0:0:0:0:
272,244,43863,2,0,P|283:194|270:145,1,102.000001945496,0|8,0:0|0:0,0:0:0:0:
168,196,44197,1,0,0:0:0:0:
96,280,44363,6,0,P|47:195|96:110,1,204.000003890991,0|8,0:0|0:0,0:0:0:0:
212,68,44863,1,0,0:0:0:0:
212,68,44946,1,0,0:0:0:0:
212,68,45031,2,0,L|164:20,2,51.0000009727478,0|0|0,0:0|0:0|0:0,0:0:0:0:
316,132,45363,1,8,0:0:0:0:
364,20,45530,1,2,0:2:0:0:
364,20,45697,6,0,B|399:56|475:61|475:61|500:100|472:148,1,204.000003890991,2|8,0:0|0:0,0:0:0:0:
468,264,46197,2,0,B|492:252|492:252|516:220,2,51.0000009727478,0|0|2,0:0|0:0|0:0,0:0:0:0:
352,308,46530,2,0,P|304:324|256:308,1,102.000001945496,0|8,0:0|0:0,0:0:0:0:
148,184,46863,1,0,0:0:0:0:
72,324,47030,6,0,P|168:284|256:208,1,204.000003890991,2|8,0:0|0:0,0:0:0:0:
148,184,47530,2,0,P|165:136|209:110,1,102.000001945496,2|0,0:0|0:0,0:0:0:0:
244,100,47780,1,0,0:0:0:0:
288,108,47863,1,2,0:0:0:0:
380,192,48030,1,8,0:0:0:0:
288,276,48197,1,2,0:0:0:0:
140,240,48363,6,0,L|52:176,1,102.000001945496,4|0,0:0|0:0,0:0:0:0:
60,56,48697,2,0,L|144:117,1,102.000001945496,8|0,0:0|0:0,0:0:0:0:
256,184,49030,1,0,0:0:0:0:
256,304,49197,1,0,0:0:0:0:
360,239,49363,2,0,L|444:180,1,102.000001945496,8|0,0:0|0:0,0:0:0:0:
452,56,49697,2,0,L|368:115,1,102.000001945496
256,184,50030,1,8,0:0:0:0:
256,304,50197,5,0,0:0:0:0:
224,328,50280,1,0,0:0:0:0:
192,352,50363,1,0,0:0:0:0:
44,320,50530,1,0,0:0:0:0:
180,212,50697,1,8,0:0:0:0:
12,172,50863,1,2,0:2:0:0:
52,56,51030,6,0,P|112:52|152:84,1,102.000001945496,2|0,0:0|0:0,0:0:0:0:
228,144,51363,1,8,0:0:0:0:
330,144,51530,1,0,0:0:0:0:
344,128,51613,1,0,0:0:0:0:
352,108,51697,1,2,0:0:0:0:
264,48,51863,1,0,0:0:0:0:
228,144,52030,2,0,P|186:115|164:70,1,102.000001945496,8|0,0:0|0:0,0:0:0:0:
228,144,52363,6,0,B|248:176|260:204|260:204|344:208|408:280,1,204.000003890991,2|8,0:0|0:0,0:0:0:0:
444,340,52863,2,2,P|398:360|345:352,2,102.000001945496
373,203,53363,1,8,0:0:0:0:
215,333,53530,1,2,3:1:0:0:
156,192,53697,6,0,P|140:140|172:96,1,102.000001945496,4|0,0:0|0:0,0:0:0:0:
260,48,54030,1,8,0:0:0:0:
320,142,54197,2,0,P|328:172|320:200,2,51.0000009727478,0|0|0,0:0|0:0|0:0,0:0:0:0:
260,48,54530,1,0,0:0:0:0:
210,149,54697,1,8,0:0:0:0:
249,253,54863,1,0,0:0:0:0:
406,159,55030,6,0,P|401:109|369:69,1,102.000001945496,0|0,0:0|0:0,0:0:0:0:
260,48,55363,1,8,0:0:0:0:
210,149,55530,2,0,P|189:199|192:248,1,102.000001945496,0|0,0:0|0:2,0:0:0:0:
229,282,55780,1,0,0:2:0:0:
279,290,55863,2,0,P|324:271|359:233,1,102.000001945496,0|8,0:2|0:0,0:0:0:0:
457,157,56197,1,2,0:2:0:0:
432,276,56363,6,0,P|396:320|336:356,1,102.000001945496,2|0,0:0|0:0,0:0:0:0:
236,352,56697,1,8,0:0:0:0:
128,292,56863,1,2,0:0:0:0:
120,272,56947,1,0,0:0:0:0:
112,252,57030,1,0,0:0:0:0:
72,136,57197,2,0,B|108:104|108:104|136:108|156:132,1,102.000001945496,2|8,0:0|0:0,0:0:0:0:
220,232,57530,5,0,0:0:0:0:
228,252,57613,1,0,0:0:0:0:
236,272,57697,1,2,0:0:0:0:
332,316,57863,2,0,P|328:280|288:208,1,102.000001945496,0|8,0:0|0:0,0:0:0:0:
256,80,58197,2,0,P|296:116|340:136,1,102.000001945496,2|0,0:0|0:0,0:0:0:0:
364,148,58447,1,0,0:0:0:0:
390,153,58530,1,2,0:0:0:0:
491,143,58697,2,0,P|470:86|417:58,1,102.000001945496,8|2,0:0|0:0,0:0:0:0:
336,33,59030,6,0,P|250:21|124:32,1,204.000003890991,4|8,0:0|0:0,0:0:0:0:
40,68,59530,2,0,P|94:113|117:138,1,102.000001945496
132,154,59780,1,0,0:0:0:0:
148,172,59863,1,0,0:0:0:0:
191,263,60030,2,0,P|176:311|137:343,1,102.000001945496,8|0,0:0|0:0,0:0:0:0:
94,250,60363,2,0,P|107:202|148:172,1,102.000001945496
249,171,60697,2,0,P|329:167|377:151,1,102.000001945496,8|0,0:0|0:0,0:0:0:0:
400,272,61030,6,0,P|344:276|288:304,1,102.000001945496,0|2,0:0|0:2,0:0:0:0:
184,332,61363,1,10,0:2:0:0:
94,250,61530,1,10,0:2:0:0:
84,232,61613,1,0,0:0:0:0:
76,212,61697,6,0,P|93:165|126:127,1,102.000001945496,2|0,0:0|0:0,0:0:0:0:
273,47,62030,2,0,P|255:94|222:132,1,102.000001945496,8|0,0:0|0:0,0:0:0:0:
205,147,62280,1,0,0:0:0:0:
189,159,62363,1,2,0:0:0:0:
136,244,62530,2,0,P|152:288|188:336,1,102.000001945496,0|8,0:0|0:0,0:0:0:0:
280,324,62863,1,0,0:0:0:0:
280,324,62947,1,0,0:0:0:0:
280,324,63030,2,0,B|332:300|380:324|380:324|412:284|380:204,1,204.000003890991,2|8,0:0|0:1,0:0:0:0:
320,39,63530,5,2,0:0:0:0:
471,86,63697,1,2,0:0:0:0:
205,147,63863,1,2,0:0:0:0:
506,239,64030,1,10,0:0:0:0:
240,301,64197,1,2,0:0:0:0:
392,348,64363,1,4,1:1:0:0:
392,348,64697,5,8,0:3:0:0:
479,150,65030,2,0,L|455:94,1,60
348,80,65363,2,0,L|372:134,1,60,8|0,0:3|0:0,0:0:0:0:
372,135,65697,1,2,0:2:0:0:
308,252,66030,5,4,0:3:0:0:
281,319,66197,1,0,0:0:0:0:
212,340,66363,1,0,0:0:0:0:
212,340,66447,1,0,0:0:0:0:
212,340,66530,2,0,P|180:316|148:308,1,60,0|2,0:0|0:2,0:0:0:0:
92,296,66863,1,0,0:0:0:0:
127,232,67031,6,0,P|144:208|172:184,1,60,8|0,0:3|0:0,0:0:0:0:
240,124,67363,1,2,0:2:0:0:
260,212,67530,1,0,0:0:0:0:
152,104,67697,2,0,L|88:80,2,60,0|0|2,0:0|0:0|0:2,0:0:0:0:
240,124,68197,1,0,0:0:0:0:
334,160,68363,5,8,0:3:0:0:
378,68,68530,1,0,0:0:0:0:
393,169,68697,2,0,P|364:162|335:160,1,60,2|0,0:2|0:0,0:0:0:0:
212,176,69030,1,0,0:0:0:0:
117,249,69197,1,10,0:2:0:0:
34,164,69363,1,10,0:2:0:0:
124,328,69530,6,0,L|188:340,1,60,0|8,0:0|0:3,0:0:0:0:
280,348,69863,1,0,0:0:0:0:
348,280,70030,2,0,L|408:240,1,60,2|0,0:2|0:0,0:0:0:0:
400,152,70363,2,0,L|432:80,1,60,0|2,0:0|0:2,0:0:0:0:
360,24,70696,1,0,0:0:0:0:
276,72,70863,1,0,0:0:0:0:
264,80,70947,1,0,0:0:0:0:
252,88,71030,1,8,0:3:0:0:
144,236,71363,6,0,P|172:284|237:294,1,120,2|0,0:2|0:0,0:0:0:0:
216,224,71863,1,0,0:0:0:0:
256,163,72030,2,0,P|229:150|200:152,1,60
144,236,72363,1,0,0:0:0:0:
84,277,72530,2,0,P|72:246|74:217,1,60,0|2,0:0|0:2,0:0:0:0:
307,33,73030,2,0,B|273:29|273:29|234:7,1,60
376,32,73363,6,2,P|460:112|468:208,1,215.999993408203,2|2,0:0|1:1,0:0:0:0:
208,304,73863,2,2,P|305:263|351:168,1,215.999993408203,2|2,0:0|1:1,0:0:0:0:
51,84,74363,2,2,P|113:168|218:180,1,215.999993408203,2|2,0:0|1:1,0:0:0:0:
435,64,74863,1,4,0:3:0:0:
336,196,75030,6,0,P|313:222|290:256,1,66.0000020141602,0|0,0:3|0:0,0:0:0:0:
249,312,75363,1,2,0:2:0:0:
329,319,75530,1,8,0:3:0:0:
340,328,75613,1,8,0:3:0:0:
351,337,75697,1,8,0:3:0:0:
295,248,75863,2,0,P|276:226|239:198,1,66.0000020141602,0|2,0:0|0:2,0:0:0:0:
156,148,76197,5,0,0:0:0:0:
84,180,76363,2,0,P|76:152|88:112,1,66.0000020141602,0|0,0:3|0:0,0:0:0:0:
144,60,76697,1,2,0:2:0:0:
308,48,76863,1,8,0:3:0:0:
328,64,76947,1,8,0:3:0:0:
351,74,77030,2,0,P|382:81|428:80,1,77.9999964294435,8|0,0:3|0:0,0:0:0:0:
336,116,77363,2,0,P|292:112|236:136,1,77.9999964294435,2|0,0:2|0:0,0:0:0:0:
304,204,77697,6,0,P|308:248|320:284,1,66.0000020141602
384,228,78030,1,2,0:2:0:0:
220,180,78197,1,8,0:3:0:0:
200,196,78280,1,8,0:3:0:0:
180,212,78363,2,0,P|148:192|116:160,1,66.0000020141602,8|0,0:3|0:0,0:0:0:0:
100,100,78697,1,2,0:2:0:0:
84,240,78863,1,0,0:0:0:0:
172,64,79030,6,0,P|208:52|256:44,1,66.0000020141602
408,36,79363,1,2,0:2:0:0:
336,96,79530,1,8,0:3:0:0:
356,112,79613,1,8,0:3:0:0:
380,128,79697,1,8,0:3:0:0:
488,131,79863,6,0,P|483:175|463:216,1,90.0000034332277,0|2,1:0|3:2,0:0:0:0:
448,240,80113,1,0,1:0:0:0:
431,261,80197,1,0,1:0:0:0:
414,282,80280,1,0,1:0:0:0:
396,302,80363,1,2,1:2:0:0:
340,358,80530,6,0,P|320:330|320:286,1,66.0000020141602,0|2,0:0|0:2,0:0:0:0:
276,192,80863,1,8,0:3:0:0:
252,176,80947,1,8,0:3:0:0:
228,160,81030,1,2,0:2:0:0:
180,76,81197,2,0,P|152:96|132:136,1,66.0000020141602,0|2,0:0|0:2,0:0:0:0:
100,216,81530,1,0,0:0:0:0:
169,328,81697,5,2,0:2:0:0:
299,316,81863,2,0,P|325:296|348:271,1,66.0000020141602,0|0,0:0|0:0,0:0:0:0:
440,164,82197,1,2,0:2:0:0:
440,164,82280,1,8,0:3:0:0:
440,164,82363,1,8,0:3:0:0:
348,272,82530,1,0,0:0:0:0:
440,164,82697,2,0,P|440:128|420:84,1,66.0000020141602,2|0,0:2|0:0,0:0:0:0:
256,156,83030,5,2,0:2:0:0:
348,56,83197,1,2,0:2:0:0:
220,32,83363,1,2,0:2:0:0:
104,92,83530,5,8,0:3:0:0:
84,118,83613,1,8,0:3:0:0:
71,151,83697,1,2,0:2:0:0:
40,260,83863,1,0,0:0:0:0:
129,301,84030,2,0,P|163:292|192:248,1,66.0000020141602,2|0,0:2|0:0,0:0:0:0:
256,156,84363,5,2,0:2:0:0:
348,56,84530,1,0,0:0:0:0:
448,148,84697,2,0,P|444:184|424:216,1,66.0000020141602,2|8,0:2|0:3,0:0:0:0:
412,232,84947,1,8,0:3:0:0:
392,248,85030,1,8,0:3:0:0:
316,264,85197,1,8,0:3:0:0:
280,336,85363,2,0,P|311:345|343:339,1,66.0000020141602
288,184,85697,6,0,B|260:192|236:220|232:256|232:256|184:208|104:168,1,240,4|2,0:1|0:2,0:0:0:0:
100,100,86863,1,0,0:0:0:0:
142,39,87030,1,0,0:0:0:0:
214,22,87197,2,0,B|262:23|283:54|283:54|320:104,1,120
384,208,87697,5,4,0:1:0:0:
201,324,88197,2,0,P|167:319|136:283,1,60,0|4,0:0|0:1,0:0:0:0:
197,252,88530,1,0,0:0:0:0:
129,232,88697,2,0,P|145:202|178:185,1,60
256,128,89030,2,0,P|280:103|294:71,1,60,2|0,0:2|0:0,0:0:0:0:
166,188,89363,1,0,0:0:0:0:
256,128,89530,1,0,0:0:0:0:
345,208,89697,6,0,P|402:195|435:146,1,120,4|0,0:1|0:0,0:0:0:0:
256,128,90197,2,0,P|198:140|165:189,1,120,2|0,0:2|2:0,0:0:0:0:
256,32,90863,5,0,3:3:0:0:
424,92,91030,2,0,P|380:136|324:160,1,120.000004577637,2|2,0:2|0:2,0:0:0:0:
116,48,91475,1,2,0:2:0:0:
72,284,91697,2,0,P|116:328|172:352,1,120.000004577637,2|2,0:2|0:2,0:0:0:0:
256,128,92141,1,2,0:2:0:0:
424,296,92363,6,0,P|380:340|324:364,1,120.000004577637,2|2,0:2|0:2,0:0:0:0:
88,328,92808,1,2,0:2:0:0:
88,88,93030,2,0,P|132:44|188:20,1,120.000004577637,2|2,0:2|0:2,0:0:0:0:
364,180,93475,1,0,0:2:0:0:
256,352,93697,1,4,0:0:0:0:
256,280,94697,6,0,B|248:232|248:232|264:184|264:184|248:136|248:136|256:76,1,204.000003890991
256,192,95113,12,8,95697,0:0:0:0:
256,80,96030,5,0,3:0:0:0:
263,130,96113,1,0,3:0:0:0:
248,178,96197,1,0,3:0:0:0:
263,227,96280,1,0,3:0:0:0:
256,277,96363,1,0,1:0:0:0:
419,264,96697,5,8,0:0:0:0:
419,264,96780,1,0,0:0:0:0:
419,264,96863,1,0,0:0:0:0:
256,348,97030,1,0,0:0:0:0:
419,264,97197,1,0,0:0:0:0:
256,348,97363,2,0,P|212:348|160:292,1,102.000001945496,8|0,0:0|0:0,0:0:0:0:
64,160,97697,5,0,0:0:0:0:
96,340,97863,1,0,0:0:0:0:
237,222,98030,1,8,0:0:0:0:
64,160,98197,2,0,P|76:104|116:80,1,102.000001945496
292,48,98530,1,0,0:0:0:0:
136,148,98697,1,8,0:0:0:0:
316,116,98863,6,0,P|356:84|356:20,2,102.000001945496,0|2|0,0:0|0:0|0:0,0:0:0:0:
175,54,99363,1,12,0:0:0:0:
64,160,99530,1,2,0:0:0:0:
90,307,99697,2,0,P|189:320|264:256,1,204.000003890991,2|8,0:0|0:0,0:0:0:0:
316,116,100197,1,0,0:0:0:0:
264,256,100363,2,0,P|323:335|424:342,2,204.000003890991,2|8|2,0:0|0:0|0:0,0:0:0:0:
237,106,101197,1,0,0:0:0:0:
331,225,101363,1,10,0:0:0:0:
24,164,101697,5,4,0:0:0:0:
64,48,101863,1,0,0:0:0:0:
136,148,102030,1,8,0:0:0:0:
116,268,102197,1,0,0:0:0:0:
84,283,102280,1,0,0:0:0:0:
52,296,102363,1,0,0:0:0:0:
232,224,102530,1,0,0:0:0:0:
348,184,102697,6,0,B|390:168|390:168|397:172|397:172|453:150,2,102.000001945496,8|0|0,0:0|0:0|0:0,0:0:0:0:
232,224,103197,1,0,0:0:0:0:
80,240,103363,1,8,0:0:0:0:
168,364,103530,5,0,0:0:0:0:
208,372,103613,1,0,0:0:0:0:
248,376,103697,2,0,P|364:336|436:264,1,204.000003890991,0|8,0:0|0:0,0:0:0:0:
480,188,104197,1,0,0:0:0:0:
480,148,104280,1,0,0:0:0:0:
476,108,104363,6,2,L|374:71,1,102.000001945496,2|0,0:0|0:0,0:0:0:0:
204,124,104697,2,0,L|305:160,1,102.000001945496,8|2,0:0|0:0,0:0:0:0:
340,204,104947,1,0,0:0:0:0:
296,244,105030,2,0,L|194:207,1,102.000001945496,2|0,0:0|0:0,0:0:0:0:
44,308,105363,2,0,B|94:318|94:318|151:295,1,102.000001945496,8|0,0:0|0:0,0:0:0:0:
204,124,105697,5,2,0:0:0:0:
66,87,105863,1,0,0:0:0:0:
81,229,106030,1,8,0:0:0:0:
219,266,106197,1,2,0:0:0:0:
204,124,106363,5,2,0:0:0:0:
214,84,106447,1,0,0:0:0:0:
243,55,106530,1,0,0:0:0:0:
383,27,106697,1,10,0:0:0:0:
464,143,106863,1,0,0:0:0:0:
468,183,106947,1,0,0:0:0:0:
456,222,107030,6,0,P|437:269|400:304,1,102.000001945496,4|0,0:2|0:2,0:0:0:0:
279,326,107363,1,8,0:0:0:0:
215,222,107530,1,0,0:0:0:0:
154,329,107697,1,0,0:0:0:0:
102,217,107863,1,0,0:0:0:0:
61,101,108030,2,0,P|112:93|166:116,1,102.000001945496,8|0,0:0|0:0,0:0:0:0:
215,222,108363,5,0,0:0:0:0:
155,329,108530,1,0,0:0:0:0:
279,326,108697,2,0,P|315:292|332:234,1,102.000001945496,8|0,0:0|0:0,0:0:0:0:
292,127,109030,1,0,0:0:0:0:
384,340,109197,1,0,0:0:0:0:
456,48,109363,6,0,P|384:28|261:64,1,204.000003890991,8|2,0:0|0:0,0:0:0:0:
263,63,109863,1,0,0:0:0:0:
96,200,110030,2,0,P|188:272|272:272,1,204.000003890991,8|2,0:0|0:0,0:0:0:0:
272,272,110530,1,0,0:0:0:0:
408,103,110697,2,0,P|484:165|481:264,1,204.000003890991,8|2,0:0|0:0,0:0:0:0:
481,264,111197,6,0,P|428:276|369:272,1,102.000001945496,0|8,0:0|0:0,0:0:0:0:
272,272,111530,1,2,0:0:0:0:
88,188,111697,1,2,0:0:0:0:
84,147,111780,1,0,0:0:0:0:
80,106,111863,1,2,0:0:0:0:
176,28,112030,2,0,P|212:68|260:92,1,102.000001945496,10|0,0:0|0:0,0:0:0:0:
400,136,112363,6,0,P|460:132|496:100,2,102.000001945496,4|0|8,0:0|0:0|0:1,0:0:0:0:
248,152,112863,2,0,P|192:164|152:200,1,102.000001945496
252,272,113197,1,0,0:0:0:0:
136,316,113363,1,8,0:0:0:0:
40,240,113530,1,0,0:0:0:0:
136,316,113697,6,0,P|178:347|228:355,1,102.000001945496
348,344,114030,1,8,0:0:0:0:
451,279,114197,1,0,0:0:0:0:
462,243,114280,1,0,0:0:0:0:
461,204,114363,1,0,0:0:0:0:
445,158,114447,1,0,0:0:0:0:
417,116,114530,1,0,0:0:0:0:
371,78,114613,1,0,0:0:0:0:
316,44,114697,6,0,B|256:12|184:44|184:44|256:72|256:124,1,240,8|6,0:0|0:0,0:0:0:0:
256,192,115363,12,0,117363,0:0:0:0:
254,57,117697,6,0,B|252:68|252:68|259:99|259:99|256:124,1,67.5000025749207
389,194,118197,2,0,B|380:196|380:196|348:188|348:188|324:192,1,67.5000025749207
122,193,118697,2,0,B|136:196|136:196|166:188|166:188|188:192,1,67.5000025749207
188,192,119030,1,0,0:0:0:0:
254,221,119197,5,0,0:0:0:0:
240,236,119280,1,0,0:0:0:0:
227,251,119363,1,0,0:0:0:0:
217,269,119446,1,0,0:0:0:0:
211,288,119530,1,0,0:0:0:0:
210,308,119613,1,0,0:0:0:0:
216,328,119696,1,0,0:0:0:0:
230,342,119780,1,0,0:0:0:0:
249,347,119863,1,0,0:0:0:0:
269,343,119946,1,0,0:0:0:0:
286,336,120030,2,0,L|321:314,2,22.5000008583069,0|0|8,0:0|0:0|0:3,0:0:0:0:
396,276,120363,6,0,B|432:260|432:260|448:228,1,75,2|0,1:2|0:0,0:0:0:0:
404,148,120697,1,2,1:2:0:0:
492,148,120863,1,0,0:0:0:0:
448,228,121030,1,0,0:0:0:0:
444,72,121197,2,0,B|472:48|472:48|508:36,2,75,2|0|0,1:2|1:0|0:0,0:0:0:0:
352,76,121697,2,0,B|324:100|324:100|312:136|312:136|244:200,1,150
396,276,122197,6,0,L|420:288,4,18.75,2|2|2|2|2,0:3|0:2|0:2|0:3|0:2,0:2:0:0:
188,264,122530,2,0,L|188:292,4,18.75,2|2|2|2|2,0:3|0:2|0:2|0:3|0:2,0:2:0:0:
192,152,122863,5,0,0:0:0:0:
160,44,123030,2,0,B|124:60|124:60|100:86,1,75
92,200,123363,1,2,1:2:0:0:
188,264,123530,1,0,0:0:0:0:
272,188,123697,1,0,0:0:0:0:
280,156,123780,1,0,0:0:0:0:
272,124,123863,1,0,0:0:0:0:
92,200,124030,2,0,P|72:283|100:342,1,150,2|0,1:2|0:0,0:0:0:0:
188,264,124530,1,0,0:0:0:0:
336,276,124697,1,2,1:2:0:0:
487,278,124863,6,0,L|503:298,4,18.75,2|2|2|2|2,0:3|0:2|0:2|0:3|0:2,0:0:0:0:
468,128,125197,2,0,L|484:108,4,18.75,2|2|2|2|2,0:3|0:2|0:2|0:3|0:2,0:0:0:0:
456,208,125530,6,0,B|420:192|420:192|392:160,1,75,0|0,0:0|1:0,0:0:0:0:
334,99,125863,1,0,0:0:0:0:
248,127,126030,1,2,1:2:0:0:
233,214,126197,1,0,0:0:0:0:
312,172,126363,2,0,B|325:207|325:207|314:263,1,75
245,298,126697,1,2,1:2:0:0:
32,160,127030,5,2,0:2:0:0:
144,100,127197,1,2,0:2:0:0:
36,32,127363,1,2,0:2:0:0:
32,160,127530,1,2,0:2:0:0:
28,288,127697,2,0,B|64:352|64:352|144:360,1,150
256,32,128363,5,0,0:0:0:0:
310,356,128697,2,0,P|259:358|208:356,1,102.000001945496
84,248,129030,1,0,0:0:0:0:
428,248,129197,1,0,0:0:0:0:
208,356,129363,6,0,B|120:304|120:304|84:248|84:248|32:216,1,204.000003890991,4|0,0:0|0:0,0:0:0:0:
256,32,129863,2,0,B|344:84|344:84|380:140|380:140|432:172,1,204.000003890991,4|0,0:0|0:0,0:0:0:0:
302,319,130363,2,0,B|270:336|270:336|241:339|241:339|209:356,1,102.000001945496,4|0,0:0|0:0,0:0:0:0:
164,70,130697,2,0,B|195:52|195:52|224:49|224:49|256:32,1,102.000001945496,4|0,0:0|0:0,0:0:0:0:
400,184,131030,5,0,0:0:0:0:
308,248,131197,1,0,0:0:0:0:
296,132,131363,1,8,0:0:0:0:
360,48,131530,1,8,0:3:0:0:
322,23,131613,1,8,0:3:0:0:
276,21,131697,1,8,0:3:0:0:
184,92,131863,2,0,P|176:144|200:200,2,90.0000034332277,0|8|0,0:0|0:0|0:0,0:0:0:0:
400,320,132363,6,0,P|368:356|324:372,1,90.0000034332277
308,248,132697,1,8,0:0:0:0:
400,184,132863,1,8,0:3:0:0:
368,152,132947,1,8,0:3:0:0:
324,136,133030,1,8,0:3:0:0:
208,114,133197,2,0,B|170:143|170:143|116:153,1,90.0000034332277,0|8,0:0|0:0,0:0:0:0:
14,175,133530,2,0,P|29:216|62:246,1,90.0000034332277
243,268,133863,6,0,P|199:285|140:277,2,90.0000034332277,0|8|0,0:0|0:0|0:0,0:0:0:0:
184,180,134363,1,8,0:3:0:0:
64,248,134530,1,8,0:3:0:0:
243,268,134697,1,8,0:0:0:0:
120,96,134863,2,0,B|157:71|157:71|208:80,1,90.0000034332277
320,104,135197,5,0,0:0:0:0:
184,180,135363,1,8,0:0:0:0:
320,104,135530,1,8,0:3:0:0:
364,116,135613,1,8,0:3:0:0:
400,140,135697,1,8,0:3:0:0:
480,248,135863,1,0,0:0:0:0:
380,340,136030,2,0,L|291:316,1,90.0000034332277,8|0,0:0|0:0,0:0:0:0:
105,200,136363,6,0,L|192:224,1,90.0000034332277,0|0,0:0|0:0,0:0:0:0:
192,224,136696,1,8,0:0:0:0:
144,72,136863,1,0,0:3:0:0:
188,84,136947,1,0,0:3:0:0:
232,96,137030,2,0,L|318:119,1,90.0000034332277,0|0,0:3|0:0,0:0:0:0:
404,12,137363,1,8,0:0:0:0:
319,119,137530,1,0,0:0:0:0:
404,12,137697,6,0,L|494:36,1,90.0000034332277
448,164,138030,1,8,0:0:0:0:
380,280,138197,1,0,0:3:0:0:
380,280,138280,1,0,0:3:0:0:
380,280,138363,2,0,P|340:292|276:296,1,90.0000034332277,0|0,0:3|0:0,0:0:0:0:
55,279,138697,2,0,P|95:259|155:247,1,90.0000034332277,8|0,0:0|0:0,0:0:0:0:
143,265,138947,1,0,0:0:0:0:
149,281,139030,5,0,0:0:0:0:
292,296,139197,1,0,0:0:0:0:
375,180,139363,1,8,0:0:0:0:
300,56,139530,1,8,0:3:0:0:
256,48,139613,1,8,0:3:0:0:
212,56,139697,1,8,0:3:0:0:
152,192,139863,1,0,0:0:0:0:
256,292,140030,2,0,B|260:252|260:252|252:220|252:220|260:188|260:188|252:156|252:156|256:116,1,180.000006866455,8|0,0:0|0:0,0:0:0:0:
256,192,140447,12,0,141363,3:0:0:0:
256,48,141530,5,0,0:0:0:0:
256,120,141697,1,4,0:0:0:0:
256,192,141863,1,0,0:0:0:0:
256,264,142030,1,0,0:0:0:0:
316,328,142363,6,0,B|256:356|256:356|200:328,1,132.00000402832,2|0,0:2|0:2,0:0:0:0:
200,208,142863,1,0,0:0:0:0:
319,208,143030,1,0,0:0:0:0:
308,88,143197,2,0,P|255:54|204:89,1,132.00000402832
256,192,143697,1,4,0:1:0:0:
163,108,144197,5,0,0:0:0:0:
118,192,144363,1,4,0:0:0:0:
143,284,144530,1,0,0:0:0:0:
224,344,144697,2,0,B|256:352|256:352|288:344,1,66.0000020141602
368,284,145030,1,2,0:2:0:0:
393,192,145197,1,0,0:0:0:0:
348,108,145363,1,0,0:0:0:0:
256,192,145530,1,0,0:0:0:0:
182,161,145697,6,0,B|140:116|140:116|124:48,1,132.00000402832,4|0,0:1|0:0,0:0:0:0:
388,48,146197,2,0,B|372:116|372:116|320:172,1,132.00000402832,2|0,0:2|0:0,0:0:0:0:
256,60,146697,1,0,0:0:0:0:
256,324,146863,5,2,2:0:0:0:
256,312,146947,1,2,2:0:0:0:
256,300,147030,1,4,2:0:0:0:
256,60,149030,5,2,2:2:0:0:
256,292,149697,5,2,2:2:0:0:
47,342,163030,6,0,P|20:306|25:248,1,96,2|0,0:0|0:0,0:0:0:0:
73,153,163697,2,0,L|109:109,1,48,2|0,0:0|0:0,0:0:0:0:
182,137,164030,2,0,L|151:174,1,48
88,225,164363,5,0,0:0:0:0:
256,316,164697,1,0,0:0:0:0:
256,194,164863,1,0,0:0:0:0:
256,72,165030,2,0,P|308:48|356:64,1,96,2|0,0:0|0:0,0:0:0:0:
496,196,165697,6,0,P|456:220|404:204,1,96
256,152,166363,1,2,0:0:0:0:
184,108,166530,1,0,0:0:0:0:
144,180,166697,2,0,L|200:216,1,48
216,280,167030,6,0,L|268:292,1,48
328,336,167363,2,0,L|380:328,1,48
476,200,167697,1,2,0:0:0:0:
428,268,167863,1,2,0:0:0:0:
352,236,168030,2,0,B|332:224|332:224|308:196,1,48
443,102,168363,6,0,P|418:62|375:40,1,96,2|0,0:0|0:0,0:0:0:0:
212,44,169030,2,0,L|236:85,1,48,2|0,0:0|0:0,0:0:0:0:
188,152,169363,2,0,L|163:110,1,48,0|0,0:0|0:0,0:0:0:0:
84,132,169697,6,0,L|140:224,1,96
256,320,170363,1,2,0:0:0:0:
378,214,170697,2,0,L|428:132,1,96
256,84,171363,5,0,0:0:0:0:
328,124,171530,1,0,0:0:0:0:
256,164,171697,2,0,L|256:220,1,48,2|0,0:0|0:0,0:0:0:0:
256,292,172030,1,0,0:0:0:0:
188,248,172197,1,0,0:0:0:0:
320,248,172363,6,0,P|357:211|412:206,1,96
327,339,173030,1,2,0:0:0:0:
398,297,173197,1,2,0:0:0:0:
463,248,173363,2,0,P|486:231|504:210,1,48
468,52,173697,6,0,L|364:32,1,96,2|0,0:0|0:0,0:0:0:0:
256,144,174363,2,0,L|296:184,1,48,2|0,0:0|0:0,0:0:0:0:
272,260,174697,2,0,L|238:226,1,48
180,172,175030,5,0,0:0:0:0:
60,60,175363,2,0,B|40:40|40:40|20:28,2,48,0|0|2,0:0|0:0|0:0,0:0:0:0:
180,172,176030,1,0,0:0:0:0:
84,304,176363,6,0,P|128:332|176:332,1,96,2|0,0:0|0:0,0:0:0:0:
332,300,177030,2,0,L|368:336,2,48,2|0|0,0:0|0:0|0:0,0:0:0:0:
276,240,177530,1,0,0:0:0:0:
296,76,177697,5,0,0:0:0:0:
160,32,178030,1,0,0:0:0:0:
180,176,178363,1,2,0:0:0:0:
180,176,178530,1,2,0:0:0:0:
180,176,178697,1,2,0:0:0:0:
204,268,179030,5,0,0:0:0:0:
227,270,179113,1,0,0:0:0:0:
252,268,179197,1,0,0:0:0:0:
275,263,179280,1,0,0:0:0:0:
297,255,179363,1,0,0:0:0:0:
318,243,179447,1,0,0:0:0:0:
338,230,179530,1,0,0:0:0:0:
356,213,179613,1,0,0:0:0:0:
371,195,179697,1,0,0:0:0:0:
383,174,179780,1,0,0:0:0:0:
393,158,179863,6,0,B|428:144|428:144|444:164|456:204,1,96,0|0,0:0|0:0,0:0:0:0:
424,272,180363,2,0,P|400:300|344:332,1,96,0|0,0:0|0:0,0:0:0:0:
264,324,180863,1,0,0:0:0:0:
240,316,180947,1,0,0:0:0:0:
220,304,181030,6,0,B|128:252|144:144|144:144|204:140|240:104,1,288,2|0,0:0|0:0,0:0:0:0:
384,48,182363,6,0,L|440:24,2,48,2|0|0,0:0|0:0|0:0,0:0:0:0:
232,112,182863,1,0,0:0:0:0:
232,112,183030,1,0,0:0:0:0:
197,201,183363,1,0,0:0:0:0:
252,280,183697,2,0,L|264:328,2,48,2|2|0,0:0|0:0|0:0,0:0:0:0:
384,248,184363,5,2,0:0:0:0:
472,120,184697,2,0,L|448:64,1,48
384,116,185030,2,0,L|344:76,1,48
296,144,185363,2,0,L|253:122,1,48
240,204,185697,2,0,L|176:208,2,48
132,260,186197,1,0,0:0:0:0:
96,128,186363,5,2,0:0:0:0:
416,128,187030,5,0,0:0:0:0:
256,192,187197,12,2,197363,0:0:0:0:
432,153,197697,6,0,P|420:262|347:351,1,227.999993911743,0|8,0:0|0:0,0:0:0:0:
219,331,198197,1,0,0:0:0:0:
298,235,198363,1,0,0:0:0:0:
346,350,198530,1,0,0:0:0:0:
219,331,198697,1,8,0:0:0:0:
124,249,198863,1,0,0:0:0:0:
67,138,199030,6,0,P|65:84|99:17,1,113.999996955872
192,108,199363,1,8,0:0:0:0:
314,73,199530,1,0,0:0:0:0:
329,91,199613,1,0,0:0:0:0:
345,108,199697,1,0,0:0:0:0:
424,203,199863,1,0,0:0:0:0:
192,108,200030,1,8,0:0:0:0:
203,358,200197,1,0,0:0:0:0:
327,374,200363,6,0,P|416:317|418:192,1,227.999993911743,2|8,0:0|0:0,0:0:0:0:
392,80,200863,2,0,B|337:70|337:70|296:16,2,113.999996955872,0|2|0,0:0|0:0|0:0,0:0:0:0:
448,192,201363,1,8,0:0:0:0:
392,304,201530,2,0,B|337:314|337:314|296:368,2,113.999996955872,0|2|0,0:0|0:0|0:0,0:0:0:0:
448,192,202030,1,8,0:0:0:0:
312,192,202197,1,2,0:0:0:0:
255,192,202280,1,0,0:0:0:0:
198,192,202363,1,0,0:0:0:0:
80,88,202530,1,0,0:0:0:0:
80,88,202697,2,0,P|40:192|80:296,1,227.999993911743,10|6,0:0|0:0,0:0:0:0:
464,341,203363,5,8,0:0:0:0:
500,208,203530,1,0,0:0:0:0:
394,119,203697,2,0,P|335:130|287:173,1,113.999996955872
292,300,204030,2,0,P|350:288|398:245,1,113.999996955872,8|0,0:0|0:0,0:0:0:0:
394,119,204363,1,0,0:0:0:0:
360,87,204447,1,0,0:0:0:0:
322,60,204530,1,0,0:0:0:0:
190,20,204697,2,0,P|120:40|91:80,1,113.999996955872,8|0,0:0|0:0,0:0:0:0:
44,200,205030,1,0,0:0:0:0:
28,244,205113,1,0,0:0:0:0:
24,288,205197,1,0,0:0:0:0:
40,328,205280,1,0,0:0:0:0:
80,352,205363,6,0,B|124:332|152:316|152:316|232:348|296:296,1,227.999993911743,8|2,0:0|0:0,0:0:0:0:
400,152,205863,1,0,0:0:0:0:
257,83,206030,1,8,0:0:0:0:
192,240,206197,1,0,0:0:0:0:
328,296,206363,5,2,0:0:0:0:
184,204,206530,1,0,0:0:0:0:
288,68,206697,1,8,0:0:0:0:
412,184,206863,1,0,0:0:0:0:
316,326,207030,6,0,B|366:355|366:355|414:325,2,113.999996955872,2|0|8,0:0|0:0|0:0,0:0:0:0:
224,181,207530,1,2,0:0:0:0:
389,137,207697,1,2,0:0:0:0:
328,296,207863,1,2,0:0:0:0:
162,340,208030,1,8,0:0:0:0:
42,218,208197,1,0,0:0:0:0:
82,197,208280,1,0,0:0:0:0:
122,176,208363,1,6,0:0:0:0:
484,36,208697,6,0,P|468:92|444:152,1,113.999996955872,8|0,0:0|0:0,0:0:0:0:
328,232,209030,2,0,P|312:172|288:120,1,113.999996955872
164,45,209363,2,0,P|130:86|98:142,1,113.999996955872,8|0,0:0|0:0,0:0:0:0:
64,283,209697,6,0,B|72:332|153:344|153:344|192:297|251:291,1,227.999993911743,0|8,0:0|0:0,0:0:0:0:
390,296,210197,2,0,P|342:264|294:220,1,113.999996955872
300,226,210530,1,0,0:0:0:0:
188,128,210697,1,8,0:0:0:0:
228,104,210780,1,0,0:0:0:0:
268,80,210863,1,0,0:0:0:0:
440,48,211030,6,0,P|404:92|404:156,1,113.999996955872,2|0,0:0|0:0,0:0:0:0:
428,304,211363,2,0,P|396:348|328:356,1,113.999996955872,8|0,0:0|0:0,0:0:0:0:
179,359,211697,2,0,P|124:348|91:303,1,113.999996955872,2|0,0:0|0:0,0:0:0:0:
110,147,212030,2,0,P|107:91|72:48,1,113.999996955872,8|0,0:0|0:0,0:0:0:0:
356,28,212363,6,0,P|272:124|240:236,1,227.999993911743,0|8,0:0|0:0,0:0:0:0:
256,332,212863,1,2,0:0:0:0:
340,254,213030,1,0,0:0:0:0:
384,289,213113,1,0,0:0:0:0:
436,264,213197,2,0,P|395:232|352:188,1,113.999996955872,0|10,0:0|0:0,0:0:0:0:
414,92,213530,1,0,0:0:0:0:
334,9,213697,1,4,0:0:0:0:
168,168,214030,5,8,0:0:0:0:
51,273,214197,1,0,0:0:0:0:
224,110,214363,1,0,0:0:0:0:
109,218,214530,1,0,0:0:0:0:
55,162,214697,1,8,0:0:0:0:
163,277,214863,1,0,0:0:0:0:
256,332,215030,6,0,B|296:367|362:368|362:368|382:307|336:249,1,227.999993911743,0|8,0:0|0:0,0:0:0:0:
256,189,215530,1,0,0:0:0:0:
256,264,215697,1,0,0:0:0:0:
256,264,215780,1,0,0:0:0:0:
256,264,215863,1,0,0:0:0:0:
256,116,216030,5,8,0:0:0:0:
164,276,216197,1,0,0:0:0:0:
348,276,216363,1,0,0:0:0:0:
256,192,216447,12,0,217363,1:0:0:0:
388,208,217697,5,0,0:0:0:0:
365,179,217780,1,0,0:0:0:0:
351,146,217863,1,0,0:0:0:0:
344,111,217947,1,0,0:0:0:0:
308,110,218030,5,0,0:0:0:0:
274,120,218113,1,0,0:0:0:0:
238,120,218197,1,0,0:0:0:0:
204,110,218280,1,0,0:0:0:0:
167,111,218363,5,0,0:0:0:0:
160,146,218447,1,0,0:0:0:0:
146,179,218530,1,0,0:0:0:0:
124,207,218613,1,0,0:0:0:0:
124,244,218697,5,0,0:0:0:0:
159,247,218780,1,0,0:0:0:0:
192,261,218863,1,0,0:0:0:0:
220,285,218947,1,0,0:0:0:0:
260,340,219030,6,4,P|316:348|376:340,1,113.999996955872
488,268,219363,1,8,0:0:0:0:
368,204,219530,1,0,0:0:0:0:
368,204,219613,1,0,0:0:0:0:
368,204,219697,1,0,0:0:0:0:
480,128,219863,2,0,B|500:72|500:72|472:24,2,113.999996955872,0|8|0,0:0|0:0|0:0,0:0:0:0:
372,340,220363,6,0,P|312:332|264:296,1,113.999996955872
232,168,220697,1,8,0:0:0:0:
140,268,220863,1,0,0:0:0:0:
140,268,220947,1,0,0:0:0:0:
140,268,221030,1,0,0:0:0:0:
48,168,221197,2,4,P|88:140|160:132,1,113.999996955872,4|12,0:0|0:0,0:0:0:0:
140,268,221530,1,0,0:0:0:0:
232,372,221697,6,0,P|264:332|280:264,1,113.999996955872,4|0,0:0|0:0,0:0:0:0:
256,80,222030,1,8,0:0:0:0:
280,272,222197,1,0,0:0:0:0:
300,312,222280,1,0,0:0:0:0:
324,348,222363,2,0,P|376:348|432:288,2,113.999996955872,0|0|8,0:0|0:0|0:0,0:0:0:0:
280,272,222863,1,0,0:0:0:0:
226,170,223030,6,0,L|379:1,1,227.999993911743,0|8,0:0|0:0,0:0:0:0:
484,48,223530,2,0,L|331:217,1,227.999993911743
120,300,224030,1,10,0:2:0:0:
348,284,224197,1,10,0:2:0:0:
7,303,224363,6,0,P|64:307|120:300,1,113.999996955872,4|0,0:0|0:0,0:0:0:0:
230,216,224697,1,8,0:0:0:0:
348,284,224863,1,0,0:0:0:0:
344,304,224947,1,0,0:0:0:0:
340,324,225030,1,0,0:0:0:0:
465,378,225197,2,0,P|489:326|475:258,1,113.999996955872,0|8,0:0|0:0,0:0:0:0:
402,159,225530,1,0,0:0:0:0:
450,30,225697,6,0,P|342:26|270:122,1,227.999993911743,0|8,0:0|0:0,0:0:0:0:
268,284,226197,1,0,0:0:0:0:
215,183,226363,1,0,0:0:0:0:
203,151,226447,1,0,0:0:0:0:
187,119,226530,2,0,B|164:76|124:72|124:72|95:111,1,113.999996955872,0|12,0:0|0:0,0:0:0:0:
44,193,226863,1,0,0:0:0:0:
140,252,227030,5,4,0:0:0:0:
100,360,227197,2,0,P|49:324|28:276,1,113.999996955872,0|12,0:0|0:0,0:0:0:0:
140,252,227530,1,0,0:0:0:0:
152,268,227613,1,0,0:0:0:0:
164,284,227697,1,0,0:0:0:0:
248,360,227863,2,0,P|308:344|352:308,1,113.999996955872,0|12,0:0|0:0,0:0:0:0:
432,236,228197,2,0,P|440:264|432:296,2,56.9999984779358,0|0|0,0:0|0:0|0:0,0:0:0:0:
372,136,228530,6,0,P|334:94|284:64,1,113.999996955872,0|12,0:0|0:0,0:0:0:0:
168,72,228863,1,0,0:0:0:0:
116,88,228947,1,0,0:0:0:0:
74,125,229030,1,8,0:0:0:0:
81,312,229197,1,0,0:0:0:0:
216,160,229363,1,8,0:0:0:0:
372,292,229530,1,8,0:0:0:0:
396,292,229613,1,0,0:0:0:0:
412,292,229697,6,0,B|324:200|240:124,1,227.999993911743,4|8,0:0|0:0,0:0:0:0:
116,88,230197,2,0,P|92:104|68:136,2,56.9999984779358
260,48,230530,1,0,0:0:0:0:
408,64,230697,1,8,0:0:0:0:
476,192,230863,1,0,0:0:0:0:
488,340,231030,6,0,P|384:360|280:292,1,227.999993911743,0|8,0:0|0:0,0:0:0:0:
200,176,231530,1,0,0:0:0:0:
344,212,231697,2,0,P|333:261|281:300,1,113.999996955872
140,336,232030,1,8,0:0:0:0:
64,208,232197,1,0,0:0:0:0:
44,156,232280,1,0,0:0:0:0:
64,104,232363,5,2,0:0:0:0:
208,72,232530,2,0,P|264:64|324:32,1,113.999996955872,0|8,0:0|0:0,0:0:0:0:
280,184,232863,1,0,0:0:0:0:
280,184,232947,1,0,0:0:0:0:
280,184,233030,1,2,0:0:0:0:
484,84,233197,2,0,P|436:124|412:184,1,113.999996955872,0|8,0:0|0:0,0:0:0:0:
208,72,233530,1,0,0:0:0:0:
400,238,233697,6,0,P|333:327|224:352,1,227.999993911743,2|8,0:0|0:0,0:0:0:0:
1,300,234197,2,0,B|35:348|106:349,1,113.999996955872,2|0,0:0|0:0,0:0:0:0:
224,352,234530,1,0,0:0:0:0:
308,260,234697,1,10,0:0:0:0:
348,144,234863,1,0,0:0:0:0:
252,52,235030,6,0,P|196:32|120:40,1,120,6|0,0:0|0:0,0:0:0:0:
348,144,235363,1,8,0:0:0:0:
416,44,235530,1,0,0:0:0:0:
412,264,235697,2,0,P|448:308|504:348,1,120
264,252,236030,2,0,P|184:260|144:280,1,120,8|0,0:0|0:0,0:0:0:0:
412,264,236363,5,0,0:0:0:0:
348,144,236530,2,0,P|304:108|272:48,1,120,0|8,0:0|0:0,0:0:0:0:
416,44,236863,1,0,0:0:0:0:
273,54,237030,1,0,1:0:0:0:
246,78,237113,1,0,1:0:0:0:
219,100,237197,1,0,1:0:0:0:
108,192,237363,2,0,P|73:240|62:299,1,120,8|0,0:0|0:0,0:0:0:0:
208,300,237697,5,2,0:0:0:0:
404,208,237863,1,0,0:0:0:0:
432,233,237947,1,0,0:0:0:0:
458,256,238030,1,8,0:0:0:0:
456,40,238197,2,0,P|400:36|336:72,1,120,0|2,0:0|0:0,0:0:0:0:
344,64,238447,1,0,0:0:0:0:
344,64,238530,1,0,0:0:0:0:
256,208,238697,1,8,0:0:0:0:
70,98,238863,1,0,0:0:0:0:
79,316,239030,5,2,0:0:0:0:
112,304,239113,1,0,0:0:0:0:
148,292,239197,1,0,0:0:0:0:
364,292,239363,2,0,P|420:308|480:344,1,120,8|0,0:0|0:0,0:0:0:0:
388,140,239697,5,8,0:0:0:0:
360,120,239780,1,0,0:0:0:0:
328,100,239863,1,0,0:0:0:0:
212,140,240030,1,8,0:0:0:0:
184,120,240113,1,0,0:0:0:0:
152,100,240197,1,0,0:0:0:0:
56,32,240363,5,2,2:0:0:0:
405,222,242363,5,2,0:0:0:0:
107,222,243030,5,2,0:0:0:0:
256,192,243197,12,0,249697,0:0:0:0:
