osu file format v14

[General]
AudioFilename: Erasus.mp3
AudioLeadIn: 2000
PreviewTime: 37697
Countdown: 0
SampleSet: Soft
StackLeniency: 0.7
Mode: 0
LetterboxInBreaks: 0
WidescreenStoryboard: 0

[Editor]
Bookmarks: 5697,11030,21697,25030,27030,29863,32363,43030,64363,73363,75030,85697,91030,93697,96363,117697,120363,127030,128363,131030,141697,147030,163030,187030,197697,217697,219030,229697,240363,243030
DistanceSpacing: 0.6
BeatDivisor: 4
GridSize: 32
TimelineZoom: 1.6

[Metadata]
Title:Erasus
TitleUnicode:Erasus
Artist:Subkulture feat. Klayton of Celldweller
ArtistUnicode:Subkulture feat. Klayton of Celldweller
Creator:ErunamoJAZZ
Version:EraseUs v2
Source:
Tags:Nyukai Nyu-chan Inyuschan Kurokami xtrem3x Erase Us DotA2 DotaCinema CS Counter Strike Source Drum and Bass dnb Techno Trance Metal amazing noob never forget my real first rank thanks
BeatmapID:1187122
BeatmapSetID:107979

[Difficulty]
HPDrainRate:6.3
CircleSize:4
OverallDifficulty:8
ApproachRate:9.3
SliderMultiplier:1.4
SliderTickRate:1

[Events]
//Background and Video events
0,0,"bg_erasus.png",0,0
//Break Periods
2,149897,162460
//Storyboard Layer 0 (Background)
//Storyboard Layer 1 (Fail)
//Storyboard Layer 2 (Pass)
//Storyboard Layer 3 (Foreground)
//Storyboard Sound Samples

[TimingPoints]
364,333.333333333333,4,1,0,30,1,0
4363,-83.3333333333333,4,1,0,20,0,0
11030,-100,4,2,0,50,0,0
22030,-83.3333333333333,4,1,0,30,0,0
25030,-66.6666666666667,4,1,0,45,0,0
25363,-66.6666666666667,4,1,0,50,0,0
27030,-83.3333333333333,4,1,0,30,0,0
29030,-66.6666666666667,4,1,0,30,0,0
30030,-66.6666666666667,4,1,0,50,0,0
32363,-83.3333333333333,4,1,0,30,0,0
36030,-66.6666666666667,4,1,0,50,0,0
37197,-83.3333333333333,4,1,0,40,0,0
43030,-58.8235294117647,4,1,0,55,0,1
64363,-100,4,1,0,45,0,0
73363,-55.5555555555556,4,1,0,50,0,1
75030,-90.9090909090909,4,1,0,40,0,0
85697,-100,4,3,0,40,0,0
91030,-66.6666666666667,4,1,0,40,0,0
93697,-58.8235294117647,4,1,0,45,0,0
96363,-58.8235294117647,4,1,0,50,0,1
114697,-50,4,1,0,50,0,1
115030,-58.8235294117647,4,1,0,50,0,1
117697,-133.333333333333,4,1,0,45,0,0
120363,-80,4,3,0,45,0,0
128363,-58.8235294117647,4,1,0,45,0,0
129363,-50,4,1,0,55,0,1
131030,-66.6666666666667,4,1,0,45,0,0
141697,-90.9090909090909,4,1,0,40,0,0
149697,-125,4,2,0,30,0,0
178947,-125,4,2,0,25,0,0
179947,-125,4,2,0,30,0,0
180947,-125,4,2,0,40,0,0
186197,-125,4,2,0,35,0,0
188363,-125,4,2,0,30,0,0
189030,-125,4,2,0,25,0,0
189697,-125,4,2,0,20,0,0
190363,-125,4,2,0,15,0,0
191030,-125,4,2,0,5,0,0
197697,-52.6315789473684,4,1,0,50,0,1
217697,-105.263157894737,4,1,0,40,0,0
219030,-52.6315789473684,4,1,0,60,0,1
235030,-50,4,1,0,65,0,1
240363,-100,4,2,0,40,0,0
243363,-100,4,2,0,10,0,0

[Colours]
Combo1 : 179,129,13
Combo2 : 0,83,166
Combo3 : 217,217,0
Combo4 : 192,192,192
Combo5 : 201,24,125
Combo6 : 31,91,124

[HitObjects]
284,376,5697,5,0,0:0:0:0:
217,324,5864,1,0,0:0:0:0:
180,238,6031,2,0,P|187:197|211:162,1,83.9999974365235,8|0,0:0|0:0,0:0:0:0:
181,250,6280,1,0,0:0:0:0:
185,262,6363,1,0,0:0:0:0:
136,330,6530,2,0,P|96:342|54:339,1,83.9999974365235,8|0,0:0|0:0,0:0:0:0:
145,325,6780,1,0,0:0:0:0:
153,317,6863,1,0,0:0:0:0:
237,326,7030,5,0,0:0:0:0:
304,378,7197,1,0,0:0:0:0:
301,272,7363,2,0,P|318:234|319:192,1,83.9999974365235,8|0,0:0|0:0,0:0:0:0:
306,152,7613,1,0,0:0:0:0:
306,152,7697,2,0,P|342:131|365:75,1,83.9999974365235,0|8,0:0|0:0,0:0:0:0:
282,69,8030,1,0,0:0:0:0:
282,69,8113,1,0,0:0:0:0:
282,69,8197,1,0,0:0:0:0:
163,157,8363,5,0,0:0:0:0:
188,76,8530,1,0,0:0:0:0:
212,224,8697,2,0,P|180:250|139:260,1,83.9999974365235,8|0,0:0|0:0,0:0:0:0:
217,214,8947,1,0,0:0:0:0:
216,200,9030,1,0,0:0:0:0:
300,212,9197,2,0,P|339:225|368:255,1,83.9999974365235,8|0,0:0|0:0,0:0:0:0:
287,215,9447,1,0,0:0:0:0:
279,223,9530,1,0,0:0:0:0:
239,148,9697,6,0,P|231:106|252:53,1,83.9999974365235,2|0,0:3|0:0,0:0:0:0:
404,115,10030,2,0,P|450:106|490:69,1,83.9999974365235,2|0,0:3|0:0,0:0:0:0:
449,249,10363,2,0,P|435:303|393:335,1,83.9999974365235,2|0,0:3|0:0,0:0:0:0:
292,207,10697,1,2,0:3:0:0:
179,83,10863,1,0,0:0:0:0:
224,357,11030,5,4,0:0:0:0:
224,357,11363,2,0,P|182:347|136:311,1,70,2|0,0:2|2:0,2:0:0:0:
138,303,11613,1,0,2:0:0:0:
138,303,11697,1,0,2:0:0:0:
222,254,11863,2,0,P|268:226|306:222,1,70,2|0,2:0|2:0,2:0:0:0:
318,229,12113,1,0,2:0:0:0:
318,229,12197,1,0,2:0:0:0:
414,253,12363,6,0,P|440:273|499:276,2,70,2|0|2,0:0|0:0|0:0,0:0:0:0:
475,176,12863,1,0,0:0:0:0:
490,144,12947,1,0,0:0:0:0:
506,113,13030,1,0,0:0:0:0:
408,100,13197,2,0,L|329:60,1,70,2|0,0:0|0:0,0:0:0:0:
313,53,13446,1,0,0:0:0:0:
313,53,13530,1,0,0:0:0:0:
315,193,13697,5,2,0:0:0:0:
264,276,13863,1,0,0:0:0:0:
219,188,14030,2,0,P|194:160|144:142,1,70,2|0,0:0|0:0,0:0:0:0:
130,147,14280,1,0,0:0:0:0:
130,147,14363,1,0,0:0:0:0:
131,245,14530,2,0,P|114:279|77:308,1,70,2|0,0:0|0:0,0:0:0:0:
63,322,14780,1,0,0:0:0:0:
63,322,14863,1,0,0:0:0:0:
39,226,15030,5,2,0:0:0:0:
39,226,15197,1,0,0:0:0:0:
243,183,15363,2,0,L|179:153,1,70,2|0,0:0|0:0,0:0:0:0:
370,244,15697,2,0,L|306:273,1,70,2|0,0:0|0:0,0:0:0:0:
276,291,15947,1,0,0:0:0:0:
276,291,16030,1,0,0:0:0:0:
324,122,16197,2,0,L|349:31,1,70,2|0,0:0|0:0,0:0:0:0:
136,338,16697,5,2,0:0:0:0:
92,250,16863,1,0,0:0:0:0:
103,216,16947,1,0,0:0:0:0:
116,183,17030,1,0,0:0:0:0:
128,85,17197,2,0,P|98:63|54:48,1,70,2|0,0:0|0:0,0:0:0:0:
34,63,17447,1,0,0:0:0:0:
34,63,17530,1,0,0:0:0:0:
198,143,17697,5,2,0:0:0:0:
274,82,17863,1,0,0:0:0:0:
357,132,18030,2,0,P|393:139|444:122,1,70,2|0,0:0|0:0,0:0:0:0:
456,115,18280,1,0,0:0:0:0:
479,89,18363,1,0,0:0:0:0:
426,219,18530,2,0,P|424:254|446:309,1,70,2|0,0:0|0:0,0:0:0:0:
450,318,18780,1,0,0:0:0:0:
471,345,18863,1,0,0:0:0:0:
354,329,19030,6,0,P|322:345|288:348,1,70,0|0,0:0|0:0,0:0:0:0:
297,250,19363,2,0,P|297:212|277:163,1,70,2|0,0:0|0:0,0:0:0:0:
263,152,19613,1,0,0:0:0:0:
231,135,19697,1,0,0:0:0:0:
202,228,19863,2,0,P|174:258|125:270,1,70,2|0,0:0|0:0,0:0:0:0:
112,270,20113,1,0,0:0:0:0:
78,258,20197,1,0,0:0:0:0:
129,175,20363,6,0,P|124:134|136:91,1,70,2|0,0:0|0:0,0:0:0:0:
148,75,20613,1,0,0:0:0:0:
176,54,20697,1,0,0:0:0:0:
231,135,20863,2,0,P|266:137|320:116,1,70,2|0,0:0|0:0,0:0:0:0:
329,109,21113,1,0,0:0:0:0:
348,79,21197,1,0,0:0:0:0:
248,2,21363,1,2,0:0:0:0:
132,52,21530,1,0,0:0:0:0:
51,246,21697,6,0,P|76:303|154:347,1,140,4|0,0:3|0:0,3:0:0:0:
256,268,22197,1,0,3:0:0:0:
286,296,22280,1,0,3:0:0:0:
316,325,22363,2,0,P|352:311|381:276,1,83.9999974365235,0|0,3:0|3:0,3:0:0:0:
406,153,22696,1,0,1:0:0:0:
324,56,22863,1,0,3:0:0:0:
205,98,23030,6,0,P|225:138|271:169,2,83.9999974365235,0|0|0,3:0|3:0|1:0,3:0:0:0:
324,56,23530,1,0,0:0:0:0:
346,44,23613,1,0,0:0:0:0:
370,39,23697,1,0,0:0:0:0:
395,39,23780,1,0,0:0:0:0:
419,45,23863,1,0,0:0:0:0:
367,240,24030,2,0,P|342:277|281:299,1,83.9999974365235
98,115,24363,6,0,P|108:155|138:185,1,83.9999974365235,0|0,3:0|3:0,3:0:0:0:
260,220,24697,1,8,0:0:0:0:
143,267,24863,2,0,P|113:296|103:336,2,83.9999974365235,0|0|8,0:0|0:0|0:2,0:0:0:0:
260,220,25363,5,8,0:0:0:0:
409,170,25530,1,0,0:0:0:0:
431,122,25613,1,0,0:0:0:0:
442,70,25697,2,0,P|433:43|414:13,2,52.5000020027161,0|0|8,0:0|0:0|0:0,0:0:0:0:
472,224,26030,1,0,3:0:0:0:
462,264,26113,1,0,3:0:0:0:
441,301,26196,1,0,3:0:0:0:
411,329,26279,1,0,3:0:0:0:
373,347,26363,1,8,3:1:0:0:
317,199,26530,1,0,3:0:0:0:
289,185,26613,1,0,3:0:0:0:
258,181,26696,1,0,3:0:0:0:
227,185,26779,1,0,3:0:0:0:
198,199,26863,1,0,3:0:0:0:
105,284,27030,6,0,L|66:385,1,83.9999974365235,0|0,3:0|3:0,3:0:0:0:
13,252,27363,2,0,L|46:163,1,83.9999974365235,0|0,1:0|3:0,3:0:0:0:
135,88,27697,1,0,3:0:0:0:
255,51,27863,1,0,3:0:0:0:
377,88,28030,2,0,P|395:122|446:175,1,83.9999974365235,0|0,1:0|3:0,3:0:0:0:
497,327,28363,6,0,P|446:261|366:239,1,167.999994873047,0|0,3:0|1:0,3:0:0:0:
256,301,28863,1,0,3:0:0:0:
133,264,29030,2,2,B|82:280|56:334|56:334|10:296|30:242|30:242|51:193|25:141,1,315.000012016297,2|0,0:0|0:0,0:0:0:0:
25,141,29697,5,0,0:0:0:0:
397,77,30030,2,0,B|437:57|437:57|445:57|445:57|491:32,1,105.000004005432,0|4,0:0|0:0,0:0:0:0:
115,77,30530,2,0,B|75:57|75:57|67:57|67:57|21:31,1,105.000004005432,0|4,0:0|0:0,0:0:0:0:
366,187,31030,6,0,P|318:223|251:224,1,105.000004005432,0|4,0:0|0:0,0:0:0:0:
202,151,31363,1,0,0:0:0:0:
258,62,31530,1,0,0:0:0:0:
206,266,31697,1,0,0:0:0:0:
187,303,31780,1,0,0:0:0:0:
154,328,31863,1,0,0:0:0:0:
114,337,31946,1,0,0:0:0:0:
73,326,32030,2,0,P|51:316|29:283,2,52.5000020027161
115,77,32363,5,4,0:3:0:0:
115,77,32697,2,0,P|153:85|203:67,1,83.9999974365235
311,21,33030,2,0,P|350:33|387:69,1,83.9999974365235
453,165,33363,1,0,0:0:0:0:
359,249,33530,1,0,0:0:0:0:
288,145,33697,5,4,0:3:0:0:
288,145,34030,2,0,P|244:160|192:152,1,83.9999974365235
116,72,34363,1,0,0:0:0:0:
236,36,34530,1,0,0:0:0:0:
109,205,34697,2,0,P|88:244|76:300,1,83.9999974365235
275,359,35030,6,0,P|314:351|355:334,1,83.9999974365235,4|0,0:3|0:0,0:0:0:0:
390,169,35363,2,0,P|377:206|371:250,1,83.9999974365235
498,362,35697,2,0,P|471:332|436:305,1,83.9999974365235
195,229,36030,5,2,0:2:0:0:
195,229,36113,1,2,0:2:0:0:
195,229,36197,2,0,P|195:260|206:294,2,52.5000020027161,2|0|0,0:2|0:2|0:2,0:2:0:0:
310,49,36530,2,0,P|286:29|259:18,2,52.5000020027161,2|0|0,0:2|0:0|0:0,0:0:0:0:
371,250,36863,1,2,0:2:0:0:
383,239,36947,1,0,0:0:0:0:
397,228,37030,1,0,0:0:0:0:
494,147,37197,2,0,P|462:117|416:107,1,83.9999974365235,0|0,0:2|0:0,0:0:0:0:
307,154,37530,1,0,0:0:0:0:
246,264,37697,6,0,P|211:290|159:295,1,83.9999974365235,2|0,0:2|0:0,0:0:0:0:
161,170,38030,2,0,P|160:121|130:62,1,83.9999974365235
36,147,38363,1,0,0:0:0:0:
49,272,38530,1,0,0:0:0:0:
171,296,38697,2,0,P|212:289|246:264,1,83.9999974365235,2|0,0:2|0:0,0:0:0:0:
448,222,39030,6,0,P|409:236|368:231,1,83.9999974365235,2|0,0:2|0:0,0:0:0:0:
280,140,39363,1,0,0:0:0:0:
365,46,39530,1,2,0:3:0:0:
365,46,39613,1,2,0:3:0:0:
365,45,39697,2,0,P|406:39|445:51,1,83.9999974365235,2|0,0:3|0:0,0:0:0:0:
277,58,40030,2,0,P|238:42|210:11,1,83.9999974365235,2|0,0:3|0:0,0:0:0:0:
149,168,40363,5,2,1:3:0:0:
180,359,40530,1,0,1:3:0:0:
312,216,40697,1,2,1:3:0:0:
280,26,40863,1,0,1:3:0:0:
312,216,41030,1,2,1:3:0:0:
478,313,41196,1,2,1:3:0:0:
450,121,41363,1,2,1:3:0:0:
280,26,41530,1,2,1:3:0:0:
86,29,41697,5,2,3:2:0:0:
41,59,41780,1,0,3:2:0:0:
9,104,41863,1,0,3:2:0:0:
0,156,41947,1,0,3:2:0:0:
1,210,42030,1,2,0:2:0:0:
24,259,42113,1,2,0:2:0:0:
64,297,42197,1,2,0:2:0:0:
113,318,42280,1,0,0:2:0:0:
168,321,42363,1,0,0:2:0:0:
219,305,42447,1,0,0:2:0:0:
262,271,42530,1,2,0:2:0:0:
291,225,42613,1,2,0:2:0:0:
302,172,42697,1,4,0:2:0:0:
302,172,43030,6,2,B|238:157|226:89|226:89|292:118|343:82,1,238.00000453949,6|8,0:0|0:0,0:0:0:0:
476,46,43530,1,2,0:0:0:0:
489,79,43614,1,0,0:0:0:0:
501,112,43697,1,0,0:0:0:0:
484,253,43863,1,0,0:0:0:0:
354,312,44030,2,2,P|304:281|235:281,1,119.000002269745,10|0,0:0|0:0,0:0:0:0:
84,357,44363,6,2,P|45:265|108:145,1,238.00000453949,2|8,0:0|0:0,0:0:0:0:
229,221,44863,1,2,0:0:0:0:
229,221,44946,1,0,0:0:0:0:
229,221,45031,2,0,L|251:299,2,59.5000011348725
222,78,45363,1,10,0:0:0:0:
328,176,45530,1,0,0:0:0:0:
358,36,45697,6,2,B|397:20|435:23|471:45|471:45|487:85|484:123|461:159,1,238.00000453949,2|8,0:0|0:0,0:0:0:0:
408,292,46197,2,0,B|436:303|436:303|476:303,2,59.5000011348725
328,176,46530,1,0,0:0:0:0:
304,316,46697,2,2,P|244:336|181:313,1,119.000002269745,10|0,0:0|0:0,0:0:0:0:
13,344,47030,6,2,P|109:282|76:169,1,238.00000453949,2|8,0:0|0:0,0:0:0:0:
19,48,47530,1,2,0:0:0:0:
52,37,47613,1,0,0:0:0:0:
87,34,47697,1,0,0:0:0:0:
121,40,47780,1,0,0:0:0:0:
152,55,47863,1,0,0:0:0:0:
257,152,48030,1,10,0:0:0:0:
212,287,48197,1,0,0:0:0:0:
378,342,48363,6,2,P|393:285|375:230,1,119.000002269745,6|0,0:0|0:0,0:0:0:0:
257,152,48697,1,8,0:0:0:0:
398,133,48863,1,2,0:0:0:0:
430,118,48947,1,0,0:0:0:0:
449,88,49030,1,0,0:0:0:0:
453,52,49113,1,0,0:0:0:0:
438,19,49197,1,0,0:0:0:0:
256,46,49363,6,2,P|199:30|140:24,1,119.000002269745,10|0,0:0|0:0,0:0:0:0:
256,190,49697,1,0,0:0:0:0:
256,332,49863,2,2,P|313:348|372:355,1,119.000002269745,2|8,0:0|0:0,0:0:0:0:
500,228,50197,1,0,0:0:0:0:
508,193,50280,1,0,0:0:0:0:
500,158,50363,1,2,0:0:0:0:
336,232,50530,1,2,0:0:0:0:
268,68,50697,1,8,0:0:0:0:
96,112,50863,1,0,0:0:0:0:
121,287,51030,6,2,P|169:323|251:325,1,119.000002269745,2|0,0:0|0:0,0:0:0:0:
353,264,51363,1,8,0:0:0:0:
376,122,51530,1,0,0:0:0:0:
376,122,51613,1,0,0:0:0:0:
376,122,51697,1,0,0:0:0:0:
264,44,51863,1,0,0:0:0:0:
121,57,52030,2,2,P|85:105|76:181,1,119.000002269745,10|0,0:0|0:0,0:0:0:0:
251,186,52363,6,2,B|266:217|293:242|293:242|390:228|454:295,1,238.00000453949,2|8,0:0|0:0,0:0:0:0:
277,343,52863,1,0,0:0:0:0:
277,343,52947,1,0,0:0:0:0:
277,343,53030,2,2,P|235:312|189:250,1,119.000002269745,2|0,0:0|0:0,0:0:0:0:
383,158,53363,1,8,0:0:0:0:
380,372,53530,1,0,0:0:0:0:
194,259,53697,6,2,P|196:199|173:145,1,119.000002269745,6|0,0:0|0:0,0:0:0:0:
54,225,54030,1,8,0:0:0:0:
93,362,54197,2,0,B|64:371|64:371|3:360,2,59.5000011348725,2|0|0,0:0|0:0|0:0,0:0:0:0:
194,259,54530,1,0,0:0:0:0:
54,225,54697,1,10,0:0:0:0:
84,86,54863,1,0,0:0:0:0:
262,65,55030,6,2,P|306:87|346:169,1,119.000002269745,2|0,0:0|0:0,0:0:0:0:
333,287,55363,1,8,0:0:0:0:
194,259,55530,1,2,0:0:0:0:
161,119,55697,1,0,0:0:0:0:
161,119,55780,1,0,0:0:0:0:
160,119,55863,2,0,P|218:104|262:65,1,119.000002269745,0|10,0:0|0:0,0:0:0:0:
84,38,56197,1,0,0:0:0:0:
148,241,56363,6,2,P|115:297|53:332,1,119.000002269745,6|0,0:0|0:0,0:0:0:0:
12,194,56697,1,8,0:0:0:0:
52,54,56863,1,0,0:0:0:0:
84,38,56947,1,0,0:0:0:0:
117,24,57030,1,0,0:0:0:0:
259,38,57197,1,0,0:0:0:0:
368,127,57363,2,2,P|426:142|482:125,1,119.000002269745,10|0,0:0|0:0,0:0:0:0:
271,170,57697,6,2,P|229:213|216:276,1,119.000002269745,2|0,0:0|0:0,0:0:0:0:
357,284,58029,1,8,0:0:0:0:
481,212,58196,1,2,0:0:0:0:
479,355,58363,2,0,P|457:378|429:391,2,59.5000011348725
481,212,58697,1,10,0:0:0:0:
359,137,58863,1,0,0:0:0:0:
111,222,59030,6,6,P|206:282|329:262,1,238.00000453949,6|8,0:0|0:0,0:0:0:0:
236,133,59530,2,2,P|187:85|120:67,1,119.000002269745,2|0,0:0|0:0,0:0:0:0:
104,67,59780,1,0,0:0:0:0:
68,73,59863,1,0,0:0:0:0:
119,330,60030,6,2,P|185:311|234:262,1,119.000002269745,10|0,0:0|0:0,0:0:0:0:
236,133,60363,1,0,0:0:0:0:
306,297,60530,2,2,P|345:341|399:364,1,119.000002269745,2|8,0:0|0:0,0:0:0:0:
508,223,60863,1,0,0:0:0:0:
508,223,60947,1,0,0:0:0:0:
508,223,61030,2,2,P|509:159|481:83,1,119.000002269745
372,29,61363,1,8,0:0:0:0:
172,161,61530,1,0,0:0:0:0:
172,161,61613,1,0,0:0:0:0:
171,161,61697,6,2,P|193:106|232:61,1,119.000002269745,2|0,0:0|0:0,0:0:0:0:
296,188,62030,2,0,P|277:236|220:287,1,119.000002269745,8|0,0:0|0:0,0:0:0:0:
195,294,62280,1,0,0:0:0:0:
157,291,62363,1,0,0:0:0:0:
39,210,62530,1,0,0:0:0:0:
59,68,62697,1,10,0:0:0:0:
183,29,62863,1,0,0:0:0:0:
361,30,63030,6,2,P|443:100|433:240,1,238.00000453949,2|8,0:0|0:0,0:0:0:0:
342,324,63530,1,0,0:0:0:0:
255,209,63697,1,2,0:0:0:0:
235,179,63780,1,0,0:0:0:0:
215,149,63863,1,0,0:0:0:0:
78,101,64030,1,8,0:0:0:0:
187,8,64197,1,0,0:0:0:0:
215,149,64363,5,4,0:0:0:0:
92,264,64697,1,8,0:2:0:0:
251,316,65030,2,0,P|258:288|291:254,1,70,0|8,0:0|0:3,0:0:0:0:
367,275,65363,2,0,P|367:240|356:207,1,70,8|0,0:2|0:0,0:0:0:0:
323,181,65613,1,0,0:0:0:0:
323,181,65697,6,0,L|354:153,2,35,8|0|0,0:3|0:0|0:0,0:0:0:0:
284,257,66030,1,8,0:2:0:0:
216,126,66197,1,0,0:0:0:0:
202,165,66280,1,0,0:0:0:0:
186,203,66363,1,0,0:0:0:0:
169,241,66447,1,0,0:0:0:0:
153,280,66530,2,0,P|113:275|83:245,1,70,8|8,0:3|0:2,0:0:0:0:
45,186,66863,5,0,0:0:0:0:
45,186,66947,1,0,0:0:0:0:
45,186,67030,2,0,P|50:146|80:116,1,70,8|0,0:3|0:0,0:0:0:0:
143,86,67363,1,8,0:2:0:0:
80,30,67530,1,0,0:0:0:0:
223,62,67697,2,0,L|287:35,2,70,0|8|8,0:0|0:3|0:2,0:0:0:0:
346,96,68197,5,0,0:0:0:0:
360,110,68280,1,0,0:0:0:0:
374,124,68363,1,8,0:3:0:0:
428,188,68530,1,0,0:0:0:0:
435,272,68697,2,0,P|428:310|401:348,1,70,8|0,0:2|0:0,0:0:0:0:
289,317,69030,2,0,P|321:305|347:281,1,70,0|8,0:0|0:3,0:0:0:0:
349,197,69363,1,8,0:2:0:0:
219,267,69530,5,0,0:0:0:0:
198,270,69613,1,0,0:0:0:0:
176,272,69697,1,8,0:3:0:0:
111,218,69863,1,0,0:0:0:0:
35,254,70030,2,0,L|17:321,1,70,8|0,0:2|0:0,0:0:0:0:
5,175,70363,2,0,L|22:107,1,70,0|8,0:0|0:3,0:0:0:0:
45,26,70696,1,8,0:2:0:0:
103,161,70863,1,0,0:0:0:0:
113,179,70947,1,0,0:0:0:0:
124,196,71030,2,0,L|156:209,2,35,8|0|0,0:3|0:0|0:0,0:0:0:0:
238,226,71363,6,0,P|262:202|316:192,1,70,8|0,0:2|0:0,0:0:0:0:
337,197,71613,1,0,0:0:0:0:
337,197,71697,1,0,0:0:0:0:
304,274,71863,1,8,0:3:0:0:
238,226,72030,2,0,P|208:212|149:218,1,70,8|0,0:2|0:0,0:0:0:0:
137,235,72280,1,0,0:0:0:0:
137,235,72363,1,8,0:3:0:0:
186,302,72530,6,0,P|218:318|250:363,1,70,0|8,0:0|0:2,0:0:0:0:
166,384,72863,1,0,0:0:0:0:
166,384,73030,2,0,B|128:380|128:380|98:342,1,70
331,32,73363,6,2,P|448:70|512:176,1,251.999992309571,6|2,0:0|0:0,0:0:0:0:
185,301,73863,2,2,P|306:277|371:173,1,251.999992309571,6|2,0:0|0:0,0:0:0:0:
46,30,74363,2,2,P|106:138|225:169,1,251.999992309571,6|2,0:0|0:0,0:0:0:0:
512,176,74863,1,0,0:0:0:0:
304,372,75030,6,0,P|268:348|256:292,1,77.0000023498536,4|0,0:3|0:3,0:0:0:0:
264,224,75363,1,8,0:2:0:0:
176,247,75530,1,8,0:3:0:0:
168,268,75613,1,8,0:3:0:0:
158,288,75697,1,8,0:3:0:0:
67,306,75863,1,0,0:0:0:0:
8,233,76030,1,8,0:2:0:0:
58,155,76197,1,0,0:0:0:0:
148,161,76363,6,0,P|181:141|203:110,1,77.0000023498536,4|0,0:3|0:0,0:0:0:0:
193,19,76697,1,8,0:2:0:0:
294,128,76863,1,8,0:3:0:0:
315,137,76947,1,8,0:3:0:0:
337,142,77030,2,0,P|376:147|420:133,1,77.0000023498536,8|0,0:3|0:0,0:0:0:0:
376,4,77363,2,0,P|337:13|301:43,1,77.0000023498536,8|0,0:2|0:0,0:0:0:0:
294,128,77697,6,0,P|262:150|225:159,1,77.0000023498536,4|0,0:3|0:0,0:0:0:0:
223,66,78030,1,8,0:2:0:0:
138,27,78197,1,8,0:3:0:0:
116,36,78280,1,8,0:3:0:0:
95,47,78363,2,0,P|91:79|104:128,1,77.0000023498536,8|0,0:3|0:0,0:0:0:0:
156,197,78697,1,8,0:2:0:0:
88,259,78863,1,0,0:0:0:0:
240,244,79030,6,0,P|278:260|316:295,1,77.0000023498536,4|0,0:3|0:0,0:0:0:0:
323,373,79363,1,8,0:2:0:0:
232,353,79530,1,8,0:3:0:0:
209,359,79613,1,8,0:3:0:0:
186,364,79697,1,8,0:3:0:0:
94,370,79863,2,0,P|64:334|51:293,1,77.0000023498536,0|8,0:0|0:2,0:0:0:0:
51,283,80113,1,2,0:3:0:0:
49,259,80197,1,2,0:3:0:0:
51,236,80280,1,2,0:3:0:0:
52,212,80363,6,0,P|52:172|68:124,1,77.0000023498536,4|0,0:3|0:0,0:0:0:0:
220,180,80697,2,0,P|182:170|149:150,1,77.0000023498536,8|8,0:2|0:3,0:0:0:0:
131,108,80947,1,8,0:3:0:0:
141,64,81030,2,0,P|174:44|212:36,1,77.0000023498536,8|0,0:3|0:0,0:0:0:0:
108,216,81363,2,0,P|126:251|163:286,1,77.0000023498536,8|0,0:2|0:0,0:0:0:0:
288,204,81697,5,4,0:3:0:0:
176,178,81863,1,0,0:0:0:0:
275,291,82030,2,0,P|310:290|353:256,1,77.0000023498536,8|8,0:2|0:3,0:0:0:0:
374,218,82280,1,8,0:3:0:0:
374,218,82363,1,8,0:3:0:0:
340,106,82530,1,0,0:0:0:0:
225,124,82697,2,0,P|186:100|164:55,1,77.0000023498536,8|0,0:2|0:0,0:0:0:0:
272,18,83030,5,4,0:3:0:0:
272,18,83197,1,0,0:0:0:0:
272,18,83363,1,8,0:2:0:0:
385,39,83530,1,8,0:3:0:0:
401,55,83613,1,8,0:3:0:0:
415,73,83697,1,8,0:3:0:0:
457,179,83863,1,0,0:0:0:0:
341,175,84030,2,0,L|231:169,1,77.0000023498536,8|0,0:2|0:0,0:0:0:0:
148,166,84363,5,4,0:3:0:0:
313,82,84530,1,0,0:0:0:0:
293,266,84697,2,0,P|273:300|228:324,1,77.0000023498536,8|8,0:2|0:3,0:0:0:0:
184,331,84947,1,8,0:3:0:0:
184,331,85030,1,8,0:3:0:0:
105,246,85197,1,0,0:0:0:0:
104,246,85363,2,0,P|80:275|67:311,1,77.0000023498536,8|0,0:2|0:0,0:0:0:0:
116,162,85697,6,0,P|95:133|86:96,1,70,6|0,0:2|0:0,0:0:0:0:
146,41,86030,2,0,P|194:61|254:51,1,105
280,80,86363,2,0,B|281:130|236:170|236:170|190:211|192:263,1,210,2|0,0:2|0:0,0:0:0:0:
276,252,87030,1,0,0:0:0:0:
188,108,87197,2,0,P|140:160|116:240,1,140
192,264,87697,1,4,0:2:0:0:
192,264,88197,1,0,0:0:0:0:
224,340,88363,6,0,L|308:332,1,70,4|0,0:2|0:0,0:0:0:0:
397,249,88697,2,0,L|328:256,1,70
264,204,89030,2,0,L|257:134,1,70,2|0,0:2|0:0,0:0:0:0:
240,52,89363,1,0,0:0:0:0:
156,32,89530,1,0,0:0:0:0:
324,68,89697,6,0,P|396:72|476:36,1,140,4|0,0:2|0:0,0:0:0:0:
257,134,90197,2,0,P|185:130|105:166,1,140,2|0,0:2|0:0,0:0:0:0:
256,48,90863,5,0,0:0:0:0:
412,72,91030,2,0,P|364:116|280:132,1,140.000005340576
100,48,91475,1,0,0:0:0:0:
36,248,91697,2,0,P|88:300|160:316,1,140.000005340576
257,134,92141,1,0,0:0:0:0:
361,316,92363,6,0,P|427:297|476:248,1,140.000005340576
412,48,92808,1,0,0:0:0:0:
319,236,93030,2,0,P|256:260|193:233,1,140.000005340576
52,56,93475,1,0,0:0:0:0:
256,32,93697,1,4,0:3:0:0:
168,324,94697,6,0,B|228:332|228:332|284:316|284:316|344:324,1,178.500003404617,2|0,3:3|3:0,3:0:0:0:
416,248,95030,2,0,L|298:230,1,119.000002269745,0|0,1:0|3:0,3:0:0:0:
96,248,95363,2,0,L|213:230,1,119.000002269745,0|0,1:0|3:0,3:0:0:0:
256,368,95697,1,2,3:0:0:0:
256,156,95863,2,0,L|256:96,1,59.5000011348725,0|0,3:0|3:0,3:0:0:0:
256,84,96030,5,2,3:0:0:0:
256,72,96113,1,2,3:0:0:0:
256,60,96197,1,2,3:0:0:0:
256,48,96280,1,2,3:0:0:0:
256,36,96363,1,6,3:1:0:0:
57,314,96697,5,8,0:0:0:0:
30,292,96780,1,0,0:0:0:0:
16,260,96863,1,2,0:0:0:0:
44,120,97030,1,0,0:0:0:0:
172,60,97197,1,0,0:0:0:0:
148,200,97363,2,2,P|184:256|240:276,1,119.000002269745,10|0,0:0|0:0,0:0:0:0:
415,142,97697,5,2,0:0:0:0:
274,136,97863,1,0,0:0:0:0:
343,262,98030,2,0,P|287:283|213:266,1,119.000002269745,8|2,0:0|0:0,0:0:0:0:
172,60,98363,1,0,0:0:0:0:
100,264,98530,1,0,0:0:0:0:
274,136,98697,1,10,0:0:0:0:
60,128,98863,1,0,0:0:0:0:
229,274,99030,6,2,P|276:312|360:316,1,119.000002269745,2|0,0:0|0:0,0:0:0:0:
464,268,99363,1,8,0:0:0:0:
504,92,99530,1,0,0:0:0:0:
480,68,99613,1,0,0:0:0:0:
452,44,99697,2,0,P|409:30|328:44,1,119.000002269745
384,176,100030,1,10,0:0:0:0:
256,112,100197,1,0,0:0:0:0:
358,299,100363,6,2,P|244:335|138:291,1,238.00000453949,2|8,0:0|0:0,0:0:0:0:
79,161,100863,1,2,0:0:0:0:
95,129,100947,1,0,0:0:0:0:
111,97,101030,1,0,0:0:0:0:
240,36,101197,1,0,0:0:0:0:
364,108,101363,2,2,P|332:152|264:182,1,119.000002269745,10|0,0:0|0:0,0:0:0:0:
92,72,101697,5,6,0:0:0:0:
224,16,101863,1,0,0:0:0:0:
196,156,102030,1,10,0:0:0:0:
176,296,102197,1,2,0:0:0:0:
144,311,102280,1,0,0:0:0:0:
112,324,102363,1,0,0:0:0:0:
308,236,102530,1,0,0:0:0:0:
413,335,102697,2,2,P|446:286|452:228,1,119.000002269745,10|0,0:0|0:0,0:0:0:0:
336,92,103030,6,2,P|277:92|225:120,1,119.000002269745
176,296,103363,1,8,0:0:0:0:
344,360,103530,1,0,0:0:0:0:
380,352,103613,1,0,0:0:0:0:
413,335,103697,2,2,P|446:286|452:228,1,119.000002269745
276,256,104030,1,8,0:0:0:0:
424,156,104197,1,0,0:0:0:0:
436,120,104280,1,0,0:0:0:0:
448,88,104363,6,2,P|392:72|336:92,1,119.000002269745,2|0,0:0|0:0,0:0:0:0:
164,178,104697,2,0,P|219:197|275:181,1,119.000002269745,8|0,0:0|0:0,0:0:0:0:
263,105,104946,1,0,0:0:0:0:
263,105,105030,2,0,P|207:85|151:101,1,119.000002269745
68,300,105363,2,2,P|124:320|184:304,1,119.000002269745,10|0,0:0|0:0,0:0:0:0:
263,105,105697,5,2,0:0:0:0:
136,168,105863,1,0,0:0:0:0:
144,24,106030,1,8,0:0:0:0:
20,92,106197,1,0,0:0:0:0:
40,268,106363,1,2,0:0:0:0:
60,296,106447,1,0,0:0:0:0:
80,324,106530,1,0,0:0:0:0:
196,240,106697,1,8,0:0:0:0:
192,96,106863,1,0,0:0:0:0:
228,92,106947,1,0,0:0:0:0:
263,105,107030,6,2,P|312:136|340:192,1,119.000002269745,6|0,0:0|0:0,0:0:0:0:
296,324,107363,1,8,0:0:0:0:
196,240,107530,1,2,0:0:0:0:
164,380,107697,2,0,P|109:360|69:312,1,119.000002269745
68,172,108030,1,10,0:0:0:0:
160,64,108196,1,0,0:0:0:0:
196,240,108363,6,2,P|252:224|300:172,1,119.000002269745,2|0,0:0|0:0,0:0:0:0:
304,40,108697,1,8,0:0:0:0:
294,182,108863,1,2,0:0:0:0:
408,272,109030,1,0,0:0:0:0:
440,284,109113,1,0,0:0:0:0:
476,296,109197,1,0,0:0:0:0:
490,118,109363,2,2,P|431:115|379:142,1,119.000002269745,10|0,0:0|0:0,0:0:0:0:
292,256,109697,5,2,0:0:0:0:
360,380,109863,1,0,0:0:0:0:
216,364,110030,2,0,P|148:364|88:312,1,119.000002269745,8|0,0:0|0:0,0:0:0:0:
80,312,110280,1,0,0:0:0:0:
60,280,110363,1,0,0:0:0:0:
52,244,110447,1,0,0:0:0:0:
52,208,110530,1,0,0:0:0:0:
120,80,110697,1,10,0:0:0:0:
256,120,110863,1,0,0:0:0:0:
432,80,111030,6,2,P|438:195|356:275,1,238.00000453949,2|8,0:0|0:0,0:0:0:0:
216,308,111530,1,2,0:0:0:0:
84,248,111697,1,0,0:0:0:0:
80,212,111780,1,0,0:0:0:0:
76,176,111863,1,0,0:0:0:0:
88,32,112030,2,2,P|156:56|191:102,1,119.000002269745,10|0,0:0|0:0,0:0:0:0:
279,243,112363,6,2,P|318:287|376:295,2,119.000002269745,6|0|8,0:0|0:0|0:0,0:0:0:0:
452,172,112863,1,2,0:0:0:0:
316,124,113030,2,0,P|244:124|192:160,1,119.000002269745
160,284,113363,1,10,0:0:0:0:
64,176,113530,1,0,0:0:0:0:
160,284,113697,6,2,P|191:333|243:360,1,119.000002269745
388,360,114030,1,8,0:0:0:0:
488,260,114197,1,0,0:0:0:0:
486,224,114280,1,0,0:0:0:0:
477,183,114363,1,2,0:0:0:0:
456,139,114447,1,0,0:0:0:0:
421,98,114530,1,2,0:0:0:0:
372,64,114613,1,0,0:0:0:0:
320,40,114697,6,0,B|256:0|188:36,1,140,8|0,0:0|0:0,0:0:0:0:
187,36,114947,1,0,0:0:0:0:
187,36,115030,1,4,0:3:0:0:
256,192,115363,12,0,117363,0:0:0:0:
256,56,117697,6,0,B|260:76|260:76|252:112|252:112|256:136,1,78.7500030040742,2|0,0:3|0:3,0:0:0:0:
392,192,118197,2,0,B|372:196|372:196|336:188|336:188|312:192,1,78.7500030040742,2|0,0:3|0:3,0:0:0:0:
120,192,118697,2,0,B|140:196|140:196|176:188|176:188|200:192,1,78.7500030040742,2|0,0:3|0:3,0:0:0:0:
197,191,119030,1,2,0:3:0:0:
256,252,119197,5,2,3:0:0:0:
242,267,119280,1,2,3:0:0:0:
229,282,119363,1,2,3:0:0:0:
219,300,119446,1,2,3:0:0:0:
213,319,119530,1,2,3:0:0:0:
212,339,119613,1,2,3:0:0:0:
218,359,119696,1,8,3:0:0:0:
232,373,119780,1,8,3:0:0:0:
251,378,119863,1,8,3:0:0:0:
271,374,119946,1,8,3:0:0:0:
288,367,120030,2,0,L|328:344,2,26.2500010013581,4|4|4,3:0|3:0|3:0,3:0:0:0:
420,372,120363,6,0,P|416:324|384:276,1,87.5,4|0,0:0|0:0,0:0:0:0:
320,220,120697,1,8,0:2:0:0:
400,152,120863,1,0,0:0:0:0:
400,152,120947,1,0,0:0:0:0:
400,152,121030,1,0,0:0:0:0:
300,116,121197,1,8,0:0:0:0:
368,36,121363,2,0,B|412:28|412:28|456:44,1,87.5,8|0,0:2|0:0,0:0:0:0:
348,40,121613,1,0,0:0:0:0:
324,44,121697,6,0,P|260:12|140:20,1,175,8|8,0:0|0:2,0:0:0:0:
220,284,122197,2,0,L|220:320,4,21.875,2|2|2|2|2,0:0|0:0|0:0|0:0|0:0,0:0:0:0:
104,220,122530,2,0,L|72:240,4,21.875,2|2|2|2|2,0:0|0:0|0:0|0:0|0:0,0:0:0:0:
216,152,122863,1,0,0:0:0:0:
312,108,123030,6,0,L|327:62,2,43.75,8|0|0,0:0|0:0|0:0,0:0:0:0:
312,212,123363,1,8,0:2:0:0:
400,272,123530,1,0,0:0:0:0:
400,272,123613,1,0,0:0:0:0:
400,272,123697,2,0,L|388:314,2,43.75,0|0|8,0:0|0:0|0:0,0:0:0:0:
288,344,124030,2,0,L|168:364,1,87.5,8|0,0:2|0:0,0:0:0:0:
120,288,124363,5,8,0:0:0:0:
120,288,124447,1,0,0:0:0:0:
120,288,124530,1,0,0:0:0:0:
20,328,124697,1,8,0:2:0:0:
192,108,124863,2,0,L|216:80,4,21.875,2|2|2|2|2,0:0|0:0|0:0|0:0|0:0,0:0:0:0:
59,108,125197,2,0,L|40:76,4,21.875,2|2|2|2|2,0:0|0:0|0:0|0:0|0:0,0:0:0:0:
124,224,125530,1,0,0:0:0:0:
180,312,125697,6,0,L|266:297,1,87.5,8|0,0:0|0:0,0:0:0:0:
268,192,126030,1,8,0:2:0:0:
368,220,126197,1,0,0:0:0:0:
368,220,126280,1,0,0:0:0:0:
368,220,126363,2,0,L|416:144,1,87.5,0|8,0:0|0:0,0:0:0:0:
472,60,126697,1,8,0:2:0:0:
200,116,126863,5,0,0:0:0:0:
200,116,126947,1,0,0:0:0:0:
200,116,127030,1,8,0:0:0:0:
112,56,127197,1,0,0:0:0:0:
12,20,127363,1,0,0:0:0:0:
4,124,127530,1,0,0:0:0:0:
20,228,127697,2,0,B|64:300|64:300|160:320,1,175,0|2,0:0|2:3,0:0:0:0:
256,52,128363,5,0,0:0:0:0:
360,320,128697,2,0,L|475:292,1,119.000002269745
256,224,129030,1,0,0:0:0:0:
256,368,129197,1,0,0:0:0:0:
16,228,129363,6,0,P|72:164|256:148,1,280,4|0,0:0|0:0,0:0:0:0:
496,228,129863,2,0,P|440:164|256:148,1,280,4|0,0:0|0:0,0:0:0:0:
92,256,130363,2,0,P|100:308|196:328,1,140,4|0,0:0|0:0,0:0:0:0:
420,256,130697,2,0,P|412:308|316:328,1,140,4|0,0:0|0:0,0:0:0:0:
176,204,131030,5,4,0:2:0:0:
260,104,131197,1,0,0:0:0:0:
300,224,131363,1,8,0:2:0:0:
340,40,131530,1,8,0:3:0:0:
296,12,131613,1,8,0:3:0:0:
244,4,131697,1,8,0:3:0:0:
144,80,131863,1,0,0:0:0:0:
176,204,132030,2,0,P|164:260|120:304,1,105.000004005432,8|0,0:2|0:0,0:0:0:0:
8,274,132363,6,4,P|8:326|33:372,1,105.000004005432,4|0,0:3|0:3,0:3:0:0:
133,295,132697,1,8,0:2:0:0:
260,304,132863,1,8,0:3:0:0:
312,308,132947,1,8,0:3:0:0:
364,312,133030,1,8,0:3:0:0:
472,376,133197,1,0,0:0:0:0:
384,192,133363,1,8,0:2:0:0:
496,252,133530,5,0,0:0:0:0:
496,252,133613,1,0,0:0:0:0:
496,252,133697,2,0,P|512:192|500:144,1,105.000004005432,4|0,0:3|0:0,0:0:0:0:
408,68,134030,2,0,P|356:76|304:64,1,105.000004005432,8|8,0:2|0:3,0:0:0:0:
256,44,134280,1,8,0:3:0:0:
212,12,134363,1,8,0:3:0:0:
104,76,134530,1,0,0:0:0:0:
208,148,134697,1,8,0:2:0:0:
305,64,134863,1,0,0:0:0:0:
240,268,135030,6,0,P|264:316|320:352,1,105.000004005432,4|0,0:3|0:0,0:0:0:0:
360,232,135363,1,8,0:2:0:0:
443,134,135530,1,8,0:3:0:0:
474,175,135613,1,8,0:3:0:0:
488,228,135697,1,8,0:3:0:0:
432,338,135863,1,0,0:0:0:0:
304,346,136030,2,0,P|248:336|176:340,1,105.000004005432,8|0,0:2|0:0,0:0:0:0:
39,196,136363,6,0,P|88:216|140:224,1,105.000004005432,4|0,0:3|0:0,0:0:0:0:
264,192,136696,1,8,0:2:0:0:
136,96,136863,1,8,0:3:0:0:
136,96,136947,1,8,0:3:0:0:
136,96,137030,2,0,P|172:64|244:44,1,105.000004005432,8|0,0:3|0:0,0:0:0:0:
352,40,137363,1,8,0:2:0:0:
252,116,137530,1,0,0:0:0:0:
380,124,137697,6,0,P|395:177|396:236,1,105.000004005432,4|0,0:3|0:0,0:0:0:0:
276,192,138030,1,8,0:2:0:0:
192,324,138197,1,8,0:3:0:0:
192,324,138280,1,8,0:3:0:0:
192,324,138363,2,0,P|138:339|80:340,1,105.000004005432,8|0,0:3|0:0,0:0:0:0:
320,324,138697,2,0,P|373:339|432:340,1,105.000004005432,8|0,0:2|0:0,0:0:0:0:
468,316,138947,1,0,0:0:0:0:
500,272,139030,5,4,0:3:0:0:
312,244,139197,1,0,0:0:0:0:
462,130,139363,1,8,0:2:0:0:
352,64,139530,1,8,0:3:0:0:
304,44,139613,1,8,0:3:0:0:
252,40,139697,1,8,0:3:0:0:
132,80,139863,1,0,0:0:0:0:
163,205,140030,2,0,P|239:209|323:253,1,157.500006008148,8|0,0:2|0:0,0:0:0:0:
211,248,140363,6,0,P|160:259|115:285,1,105.000004005432,4|0,0:3|0:0,0:0:0:0:
364,300,140697,2,0,P|412:280|450:240,1,105.000004005432,8|8,0:2|0:3,0:0:0:0:
428,184,140947,1,8,0:3:0:0:
428,184,141030,2,0,P|380:148|348:80,1,105.000004005432,8|0,0:3|0:0,0:0:0:0:
452,28,141363,2,0,L|504:20,2,52.5000020027161,8|0|0,0:2|0:0|0:0,0:0:0:0:
312,40,141697,5,6,0:2:0:0:
312,40,141863,1,2,0:2:0:0:
312,40,142030,1,2,0:2:0:0:
256,216,142363,2,0,P|184:248|100:232,1,154.000004699707,2|0,0:2|0:2,0:0:0:0:
88,148,142863,1,2,0:2:0:0:
164,96,143030,1,2,0:2:0:0:
256,116,143197,2,0,P|324:140|416:96,1,154.000004699707,2|0,0:2|0:0,0:0:0:0:
456,40,143697,1,4,0:2:0:0:
504,312,144197,5,4,0:2:0:0:
432,256,144363,2,0,P|393:238|344:236,1,77.0000023498536,6|0,0:2|0:0,0:0:0:0:
272,268,144696,1,2,0:2:0:0:
268,360,144863,1,0,0:0:0:0:
208,200,145030,2,0,P|148:144|64:148,1,154.000004699707,2|2,0:2|0:2,0:0:0:0:
0,192,145530,1,0,0:0:0:0:
196,312,145697,6,0,B|256:320|256:320|316:328|348:272,1,154.000004699707,6|0,0:2|0:0,0:0:0:0:
338,97,146197,2,0,B|316:56|256:64|256:64|196:72,1,154.000004699707,2|0,0:2|0:0,0:0:0:0:
336,192,146697,1,0,0:0:0:0:
152,192,146863,5,2,2:0:0:0:
140,192,146947,1,2,2:0:0:0:
128,192,147030,1,4,2:1:0:0:
256,76,149030,5,2,2:0:0:0:
256,308,149697,5,2,2:0:0:0:
76,308,163030,5,2,0:0:0:0:
56,140,163363,2,0,P|68:116|88:96,1,56,2|0,0:0|0:0,0:0:0:0:
168,72,163697,1,8,0:0:0:0:
244,104,163863,1,0,0:0:0:0:
300,164,164030,2,0,P|328:168|356:164,1,56
424,116,164363,5,0,0:0:0:0:
280,32,164697,1,0,0:0:0:0:
244,104,164863,1,0,0:0:0:0:
100,192,165030,2,0,P|125:241|171:271,1,112,2|0,0:0|0:0,0:0:0:0:
411,192,165697,6,0,P|386:241|340:272,1,112,2|0,0:0|0:0,0:0:0:0:
172,272,166363,1,8,0:0:0:0:
236,216,166530,2,0,L|184:180,1,56
108,208,166863,1,0,0:0:0:0:
172,272,167030,6,0,L|224:308,1,56
304,300,167363,2,0,L|354:276,1,56
424,136,167697,1,8,0:0:0:0:
416,220,167863,1,0,0:0:0:0:
348,168,168030,2,0,L|324:117,1,56
236,260,168363,6,0,P|187:287|112:275,1,112,2|0,0:0|0:0,0:0:0:0:
65,234,168863,1,0,0:0:0:0:
141,121,169030,2,0,L|97:156,1,56,8|0,0:0|0:0,0:0:0:0:
36,97,169363,1,0,0:0:0:0:
84,28,169530,1,0,0:0:0:0:
216,72,169697,6,0,P|248:116|248:184,1,112,2|0,0:0|0:0,0:0:0:0:
148,304,170363,1,10,0:0:0:0:
312,344,170697,2,0,P|364:328|400:272,1,112,0|2,0:0|0:0,0:0:0:0:
360,120,171363,5,0,0:0:0:0:
416,184,171530,1,0,0:0:0:0:
280,144,171697,2,0,P|252:128|232:96,1,56,8|0,0:0|0:0,0:0:0:0:
240,24,172030,1,0,0:0:0:0:
324,44,172197,1,0,0:0:0:0:
360,120,172363,6,0,P|356:180|308:224,1,112
322,217,173030,1,8,0:0:0:0:
360,352,173197,1,8,0:0:0:0:
300,296,173363,2,0,P|268:288|228:300,1,56
88,356,173697,6,0,P|72:300|80:244,1,112,2|0,0:0|0:0,0:0:0:0:
180,112,174363,2,0,B|208:100|208:100|236:80,1,56,10|0,0:0|0:0,0:0:0:0:
164,32,174697,2,0,B|136:44|136:44|108:64,1,56,2|0,0:0|0:0,0:0:0:0:
100,140,175030,5,2,0:0:0:0:
100,140,175363,2,0,B|112:168|112:168|132:196,1,56
256,300,175697,1,2,0:0:0:0:
256,300,176030,1,0,0:0:0:0:
384,188,176363,6,0,P|416:232|424:296,1,112,2|0,0:0|0:0,0:0:0:0:
256,300,177030,2,0,L|240:372,2,56,8|0|0,0:0|0:0|0:0,0:0:0:0:
280,220,177530,1,0,0:0:0:0:
300,136,177697,5,0,0:0:0:0:
176,20,178030,1,0,0:0:0:0:
156,196,178363,1,10,0:0:0:0:
156,196,178530,1,10,0:0:0:0:
156,196,178697,1,2,0:0:0:0:
256,332,179030,5,0,0:0:0:0:
277,323,179113,1,0,0:0:0:0:
301,311,179197,1,0,0:0:0:0:
321,295,179280,1,0,0:0:0:0:
339,278,179363,1,0,0:0:0:0:
353,258,179447,1,0,0:0:0:0:
368,238,179530,1,0,0:0:0:0:
377,213,179613,1,0,0:0:0:0:
384,189,179697,1,0,0:0:0:0:
387,164,179780,1,0,0:0:0:0:
389,144,179863,6,0,B|416:115|416:115|449:127|472:169,1,112,2|0,0:0|0:0,0:0:0:0:
464,248,180363,2,0,P|452:284|401:346,1,112
240,340,181030,6,0,B|164:340|84:304|60:232|60:232|96:224|128:200|138:161,1,336,2|0,0:0|0:0,0:0:0:0:
304,192,182363,6,0,L|324:256,2,56,8|0|0,0:0|0:0|0:0,0:0:0:0:
276,112,182863,1,0,0:0:0:0:
276,112,183030,1,0,0:0:0:0:
172,244,183363,1,0,0:0:0:0:
128,80,183697,2,0,L|108:16,2,56,8|0|0,0:0|0:0|0:0,0:0:0:0:
172,244,184363,5,2,0:0:0:0:
172,244,184697,2,0,L|197:303,1,56
265,249,185030,2,0,L|307:291,1,56
357,219,185363,2,0,L|412:244,1,56
416,156,185697,2,0,L|484:152,2,56
348,104,186197,1,0,0:0:0:0:
188,152,186363,5,2,0:0:0:0:
464,340,187030,5,2,0:0:0:0:
256,192,187197,12,0,197363,0:0:0:0:
404,24,197697,6,2,P|448:72|472:136,1,132.999996448517,6|0,0:0|0:0,0:0:0:0:
316,160,198030,1,8,0:0:0:0:
363,314,198197,1,2,0:0:0:0:
351,353,198280,1,0,0:0:0:0:
326,381,198363,2,0,P|263:384|187:339,1,132.999996448517
132,208,198697,1,10,0:0:0:0:
272,284,198863,1,0,0:0:0:0:
388,76,199030,6,2,P|332:48|244:52,1,132.999996448517,2|0,0:0|0:0,0:0:0:0:
292,204,199363,1,8,0:0:0:0:
132,208,199530,1,2,0:0:0:0:
108,240,199613,1,0,0:0:0:0:
96,276,199697,1,0,0:0:0:0:
92,316,199780,1,0,0:0:0:0:
100,356,199863,1,0,0:0:0:0:
212,244,200030,1,10,0:0:0:0:
108,124,200197,1,0,0:0:0:0:
200,344,200363,6,2,P|268:328|308:264,1,132.999996448517,2|0,0:0|0:0,0:0:0:0:
324,120,200697,1,8,0:0:0:0:
392,264,200863,2,0,B|420:280|420:280|460:280,2,66.4999982242585
436,108,201197,1,0,0:0:0:0:
304,196,201363,1,10,0:0:0:0:
464,200,201530,5,0,0:0:0:0:
464,200,201613,1,0,0:0:0:0:
464,200,201697,2,0,L|449:332,1,132.999996448517,2|0,0:0|0:0,0:0:0:0:
324,120,202030,1,8,0:0:0:0:
280,276,202197,1,2,0:0:0:0:
252,304,202280,1,0,0:0:0:0:
216,320,202363,1,0,0:0:0:0:
176,320,202447,1,0,0:0:0:0:
140,308,202530,1,0,0:0:0:0:
52,172,202697,2,2,P|66:107|110:58,1,132.999996448517,10|0,0:0|0:0,0:0:0:0:
348,76,203030,6,2,L|236:148,1,132.999996448517,2|0,0:0|0:0,0:0:0:0:
100,236,203363,1,10,0:0:0:0:
178,96,203530,1,2,0:0:0:0:
206,120,203613,1,0,0:0:0:0:
236,147,203697,1,0,0:0:0:0:
265,173,203780,1,0,0:0:0:0:
295,198,203863,1,0,0:0:0:0:
115,355,204030,2,2,P|179:372|240:349,1,132.999996448517,10|0,0:0|0:0,0:0:0:0:
295,198,204363,5,2,0:0:0:0:
152,272,204530,1,2,0:0:0:0:
312,296,204697,2,0,P|368:264|392:200,1,132.999996448517,8|0,0:0|0:0,0:0:0:0:
324,56,205030,1,2,0:0:0:0:
284,44,205113,1,0,0:0:0:0:
244,44,205197,1,2,0:0:0:0:
208,64,205280,1,0,0:0:0:0:
178,96,205363,2,0,B|160:128|156:172|180:212|180:212|132:204|112:148,1,199.499994672775,8|0,0:0|0:0,0:0:0:0:
124,44,205697,5,2,0:0:0:0:
244,148,205863,1,0,0:0:0:0:
168,288,206030,1,8,0:0:0:0:
20,228,206197,1,0,0:0:0:0:
6,188,206280,1,0,0:0:0:0:
9,148,206363,1,0,0:0:0:0:
20,110,206447,1,0,0:0:0:0:
50,82,206530,1,0,0:0:0:0:
208,64,206697,1,10,0:0:0:0:
216,224,206863,1,0,0:0:0:0:
428,112,207030,6,2,B|264:136,2,132.999996448517,2|0|8,0:0|0:0|0:0,0:0:0:0:
292,28,207530,1,0,0:0:0:0:
180,144,207697,1,2,0:0:0:0:
152,172,207780,1,0,0:0:0:0:
124,200,207863,1,0,0:0:0:0:
152,44,208030,1,8,0:0:0:0:
260,160,208197,1,0,0:0:0:0:
284,192,208280,1,0,0:0:0:0:
308,224,208363,1,2,0:0:0:0:
428,112,208530,5,0,0:0:0:0:
444,272,208697,2,0,P|395:329|321:362,1,132.999996448517,8|2,0:0|0:0,0:0:0:0:
184,344,209030,2,0,P|126:295|93:221,1,132.999996448517
100,84,209363,2,2,P|148:26|222:-6,1,132.999996448517,10|0,0:0|0:0,0:0:0:0:
416,104,209697,6,2,B|357:64|289:73|289:73|292:120|264:168|216:192,1,265.999992897034,2|8,0:0|0:0,0:0:0:0:
100,84,210197,1,2,0:0:0:0:
152,316,210363,1,0,0:0:0:0:
128,348,210447,1,0,0:0:0:0:
96,372,210530,2,0,P|56:332|52:256,1,132.999996448517,0|10,0:0|0:0,0:0:0:0:
188,180,210863,1,0,0:0:0:0:
228,185,210947,1,0,0:0:0:0:
260,208,211030,2,2,P|276:272|248:344,1,132.999996448517,2|0,0:0|0:0,0:0:0:0:
84,168,211363,6,0,P|112:108|180:76,1,132.999996448517,8|0,0:0|0:0,0:0:0:0:
248,100,211613,1,0,0:0:0:0:
248,100,211697,2,0,P|308:112|372:80,1,132.999996448517
252,188,212030,2,2,P|284:240|351:265,1,132.999996448517,10|0,0:0|0:0,0:0:0:0:
300,28,212363,6,2,B|232:4|172:43|172:43|113:83|45:59,1,265.999992897034,2|8,0:0|0:0,0:0:0:0:
168,164,212863,1,2,0:0:0:0:
180,204,212947,1,0,0:0:0:0:
172,244,213030,1,0,0:0:0:0:
144,272,213113,1,0,0:0:0:0:
104,280,213197,1,0,0:0:0:0:
12,152,213363,1,10,0:0:0:0:
16,312,213530,1,0,0:0:0:0:
116,96,213697,5,2,0:0:0:0:
32,228,213863,1,0,0:0:0:0:
212,312,214030,2,2,P|280:312|332:272,1,132.999996448517,10|2,0:0|0:0,0:0:0:0:
348,236,214280,1,0,0:0:0:0:
348,196,214363,1,0,0:0:0:0:
152,224,214530,1,0,0:0:0:0:
280,72,214697,2,2,L|268:212,1,132.999996448517,10|0,0:0|0:0,0:0:0:0:
364,28,215030,5,2,0:0:0:0:
188,120,215197,2,2,L|176:260,1,132.999996448517,2|8,0:0|0:0,0:0:0:0:
352,160,215529,1,0,0:0:0:0:
192,36,215697,1,2,0:0:0:0:
156,16,215780,1,0,0:0:0:0:
120,36,215863,1,2,0:0:0:0:
88,236,216030,5,8,0:0:0:0:
256,128,216197,1,0,0:0:0:0:
424,236,216363,1,6,0:0:0:0:
256,192,216447,12,0,217363,0:0:0:0:
258,323,217697,5,0,0:0:0:0:
220,341,217780,1,0,0:0:0:0:
180,342,217863,1,0,0:0:0:0:
141,329,217947,1,0,0:0:0:0:
118,270,218030,5,0,0:0:0:0:
144,238,218113,1,0,0:0:0:0:
179,220,218196,1,0,0:0:0:0:
221,214,218280,1,0,0:0:0:0:
270,255,218363,5,0,0:3:0:0:
290,219,218447,1,0,0:3:0:0:
286,179,218530,1,8,0:3:0:0:
266,143,218613,1,8,0:3:0:0:
277,111,218697,1,8,0:3:0:0:
305,94,218780,1,8,0:3:0:0:
335,106,218863,1,8,0:3:0:0:
300,344,219030,6,0,P|372:344|436:296,1,132.999996448517,4|0,0:0|0:0,0:0:0:0:
468,160,219363,1,8,0:0:0:0:
380,28,219530,1,0,0:0:0:0:
344,8,219613,1,0,0:0:0:0:
304,0,219697,1,0,0:0:0:0:
264,8,219780,1,0,0:0:0:0:
232,28,219863,1,0,0:0:0:0:
300,172,220030,1,8,0:0:0:0:
424,272,220197,1,0,0:0:0:0:
422,312,220280,1,0,0:0:0:0:
400,344,220363,6,0,P|332:352|272:328,1,132.999996448517
224,176,220697,1,8,0:0:0:0:
176,328,220863,1,0,0:0:0:0:
141,348,220947,1,0,0:0:0:0:
101,356,221030,1,0,0:0:0:0:
61,352,221113,1,0,0:0:0:0:
24,332,221197,1,0,0:0:0:0:
32,172,221363,2,0,P|76:128|156:108,1,132.999996448517,8|0,0:0|0:0,0:0:0:0:
260,320,221697,6,0,P|275:256|259:192,1,132.999996448517,4|0,0:0|0:0,0:0:0:0:
96,248,222030,1,8,0:0:0:0:
220,124,222197,1,0,0:0:0:0:
252,100,222280,1,0,0:0:0:0:
292,96,222363,1,0,0:0:0:0:
332,108,222447,1,0,0:0:0:0:
360,136,222530,1,0,0:0:0:0:
355,295,222697,2,0,P|420:284|476:240,1,132.999996448517,8|0,0:0|0:0,0:0:0:0:
156,298,223030,6,0,P|242:197|359:135,1,265.999992897034,0|8,0:0|0:0,0:0:0:0:
140,140,223530,1,0,0:0:0:0:
112,112,223613,1,0,0:0:0:0:
76,96,223697,2,0,P|32:152|24:228,1,132.999996448517
156,298,224030,1,8,0:0:0:0:
265,181,224197,1,0,0:0:0:0:
420,0,224363,6,0,P|472:36|508:100,1,132.999996448517,4|0,0:0|0:0,0:0:0:0:
420,232,224697,1,8,0:0:0:0:
265,181,224863,1,0,0:0:0:0:
236,212,224947,1,0,0:0:0:0:
208,240,225030,1,0,0:0:0:0:
52,212,225197,1,0,0:0:0:0:
4,60,225363,2,0,P|69:53|130:79,1,132.999996448517,8|0,0:0|0:0,0:0:0:0:
372,56,225697,6,0,P|306:49|245:75,1,132.999996448517
236,236,226030,2,0,P|289:274|355:282,1,132.999996448517,8|0,0:0|0:0,0:0:0:0:
476,180,226363,1,0,0:0:0:0:
488,140,226447,1,0,0:0:0:0:
477,103,226530,2,0,B|460:57|412:45|412:45|364:57,1,132.999996448517,0|8,0:0|0:0,0:0:0:0:
152,152,226863,1,0,0:0:0:0:
312,156,227030,5,4,0:0:0:0:
188,256,227197,1,0,0:0:0:0:
240,104,227363,2,0,P|192:60|112:60,1,132.999996448517,8|0,0:0|0:0,0:0:0:0:
88,72,227613,1,0,0:0:0:0:
64,104,227697,1,0,0:0:0:0:
128,252,227863,1,0,0:0:0:0:
252,152,228030,1,8,0:0:0:0:
96,176,228197,1,0,0:0:0:0:
288,320,228363,6,0,P|320:276|316:188,1,132.999996448517
228,72,228696,1,8,0:0:0:0:
196,228,228863,1,0,0:0:0:0:
172,260,228947,1,0,0:0:0:0:
140,284,229030,1,0,0:0:0:0:
20,176,229197,1,0,0:0:0:0:
132,64,229363,1,8,0:0:0:0:
392,252,229530,5,0,0:0:0:0:
428,232,229613,1,0,0:0:0:0:
455,203,229697,2,2,P|350:123|228:72,1,265.999992897034,6|8,0:0|0:0,0:0:0:0:
104,172,230197,1,2,0:0:0:0:
252,232,230363,2,0,P|216:288|144:332,1,132.999996448517
104,172,230697,1,10,0:0:0:0:
228,72,230863,1,0,0:0:0:0:
479,272,231030,6,2,P|355:307|252:232,1,265.999992897034,2|8,0:0|0:0,0:0:0:0:
228,72,231530,1,2,0:0:0:0:
380,20,231697,1,0,0:0:0:0:
416,36,231780,1,0,0:0:0:0:
440,68,231863,1,0,0:0:0:0:
296,136,232030,1,10,0:0:0:0:
80,36,232197,5,0,0:0:0:0:
48,60,232280,1,0,0:0:0:0:
36,96,232363,2,2,P|56:180|112:224,1,132.999996448517,2|0,0:0|0:0,0:0:0:0:
236,152,232697,1,8,0:0:0:0:
188,304,232863,1,0,0:0:0:0:
188,304,232947,1,0,0:0:0:0:
188,304,233030,1,0,0:0:0:0:
148,148,233197,1,0,0:0:0:0:
267,252,233363,2,2,P|321:214|339:151,1,132.999996448517,10|0,0:0|0:0,0:0:0:0:
296,348,233697,6,2,P|436:336|516:244,1,265.999992897034,2|8,0:0|0:0,0:0:0:0:
488,88,234197,1,2,0:0:0:0:
464,56,234280,1,0,0:0:0:0:
428,36,234363,1,0,0:0:0:0:
268,36,234530,1,0,0:0:0:0:
188,172,234697,1,10,0:0:0:0:
256,316,234863,1,0,0:0:0:0:
268,36,235030,6,2,P|201:14|132:22,1,140,6|0,0:0|0:0,0:0:0:0:
364,176,235363,1,10,0:0:0:0:
212,100,235530,1,2,0:0:0:0:
380,92,235697,2,0,P|438:130|475:188,1,140
324,336,236030,6,2,P|240:348|160:316,1,140,14|0,0:0|0:0,0:0:0:0:
388,264,236363,1,2,0:0:0:0:
236,120,236530,2,2,P|255:186|301:239,1,140,2|8,0:0|0:0,0:0:0:0:
268,36,236863,1,0,0:0:0:0:
132,136,237030,5,2,0:0:0:0:
92,124,237113,1,0,0:0:0:0:
64,92,237197,1,2,0:0:0:0:
268,36,237363,2,0,P|328:80|360:152,1,140,8|0,0:0|0:0,0:0:0:0:
292,292,237697,5,6,0:0:0:0:
132,248,237863,1,0,0:0:0:0:
92,260,237946,1,0,0:0:0:0:
64,292,238030,1,8,0:0:0:0:
224,336,238197,1,0,0:0:0:0:
264,324,238280,1,0,0:0:0:0:
292,292,238363,2,0,P|300:216|256:140,1,140
120,88,238697,1,10,0:0:0:0:
132,248,238863,1,0,0:0:0:0:
248,24,239030,5,2,0:0:0:0:
380,128,239197,1,0,0:0:0:0:
308,280,239363,2,0,P|364:296|464:272,1,140,8|0,0:0|0:0,0:0:0:0:
380,128,239697,5,2,0:0:0:0:
344,105,239780,1,0,0:0:0:0:
308,81,239863,1,0,0:0:0:0:
212,220,240030,1,8,0:0:0:0:
176,197,240113,1,0,0:0:0:0:
140,173,240196,1,0,0:0:0:0:
4,72,240363,5,2,0:0:0:0:
420,192,242363,5,2,0:0:0:0:
111,192,243030,5,2,0:0:0:0:
256,192,243197,12,0,249697,0:0:0:0:
