osu file format v14

[General]
AudioFilename: Erasus.mp3
AudioLeadIn: 2000
PreviewTime: 37697
Countdown: 0
SampleSet: Normal
StackLeniency: 0.7
Mode: 0
LetterboxInBreaks: 0
WidescreenStoryboard: 0

[Editor]
Bookmarks: 5697,11030,21697,25030,27030,29863,32363,43030,64363,73363,75030,85697,91030,93697,96363,117697,120363,127030,128363,131030,141697,147030,163030,187030,197697,217697,219030,229697,240363,243030
DistanceSpacing: 1.1
BeatDivisor: 2
GridSize: 32
TimelineZoom: 1

[Metadata]
Title:Erasus
TitleUnicode:Erasus
Artist:Subkulture feat. Klayton of Celldweller
ArtistUnicode:Subkulture feat. Klayton of Celldweller
Creator:ErunamoJAZZ
Version:Easy
Source:
Tags:Nyukai Nyu-chan Inyuschan Kurokami xtrem3x Erase Us DotA2 DotaCinema CS Counter Strike Source Drum and Bass dnb Techno Trance Metal amazing noob never forget my real first rank thanks
BeatmapID:334726
BeatmapSetID:107979

[Difficulty]
HPDrainRate:2
CircleSize:2
OverallDifficulty:2
ApproachRate:3
SliderMultiplier:0.8
SliderTickRate:1

[Events]
//Background and Video events
0,0,"bg_erasus.png",0,0
//Break Periods
2,147230,161590
2,195230,196257
//Storyboard Layer 0 (Background)
//Storyboard Layer 1 (Fail)
//Storyboard Layer 2 (Pass)
//Storyboard Layer 3 (Foreground)
//Storyboard Sound Samples

[TimingPoints]
364,333.333333333333,4,1,0,30,1,0
11030,-100,4,2,0,50,0,0
21863,-100,4,1,0,30,0,0
25030,-100,4,1,0,45,0,0
25363,-100,4,1,0,50,0,0
27030,-100,4,1,0,30,0,0
30030,-100,4,1,0,50,0,0
32363,-100,4,1,0,30,0,0
36030,-100,4,1,0,50,0,0
37197,-100,4,1,0,40,0,0
43030,-100,4,1,0,50,0,1
64363,-100,4,1,0,50,0,0
73363,-100,4,1,0,50,0,1
75030,-100,4,1,0,40,0,0
85697,-100,4,1,0,50,0,0
96363,-100,4,1,0,50,0,1
117697,-100,4,1,0,50,0,0
129363,-100,4,1,0,50,0,1
131030,-100,4,1,0,50,0,0
161697,-100,4,2,0,50,0,0
178947,-100,4,2,0,30,0,0
179863,-100,4,2,0,60,0,0
180197,-100,4,2,0,50,0,0
186197,-100,4,2,0,40,0,0
189030,-100,4,2,0,25,0,0
189697,-100,4,2,0,20,0,0
190363,-100,4,2,0,15,0,0
191030,-100,4,2,0,5,0,0
197697,-100,4,1,0,50,0,1
217697,-100,4,1,0,50,0,0
219030,-100,4,1,0,50,0,1
240363,-100,4,2,0,40,0,0
243363,-100,4,2,0,10,0,0

[Colours]
Combo1 : 179,129,13
Combo2 : 0,83,166
Combo3 : 217,217,0
Combo4 : 192,192,192
Combo5 : 201,24,125
Combo6 : 31,91,124

[HitObjects]
406,102,5697,6,0,P|255:60|103:103,1,320,0|0,3:0|2:0,2:0:0:0:
256,192,7697,2,0,L|256:276,1,80,0|2,3:0|2:2,2:0:0:0:
344,256,8363,6,0,P|256:365|168:256,1,320,0|0,3:0|3:2,2:0:0:0:
256,100,10363,1,0,3:0:0:0:
416,32,11030,6,0,P|488:64|504:160,2,160,4|0|2,0:1|0:0|2:0,0:0:0:0:
256,100,13030,1,0,0:0:0:0:
96,32,13697,6,0,P|24:64|8:160,2,160,0|0|2,0:0|0:0|0:0,0:0:0:0:
256,100,15697,1,0,0:0:0:0:
424,152,16363,6,0,P|429:227|390:302,1,160
256,192,17697,1,2,0:0:0:0:
148,332,18363,1,0,0:0:0:0:
80,168,19030,6,0,P|104:90|165:40,1,160
338,41,20363,1,2,0:0:0:0:
432,192,21030,1,0,0:0:0:0:
256,192,21697,5,4,0:1:0:0:
168,200,22030,2,0,L|128:283,2,80
100,144,23030,2,0,B|64:216|64:216|24:244,2,120,0|0|0,0:0|0:0|0:0,0:0:0:0:
184,120,24363,6,0,B|256:84|256:84|328:120,1,160
409,89,25363,2,0,P|437:34|510:44,2,120,2|2|2,3:0|3:0|3:0,0:0:0:0:
403,266,27030,5,2,0:2:0:0:
256,364,27697,1,0,0:0:0:0:
109,266,28363,1,0,0:0:0:0:
117,94,29030,2,0,P|187:60|256:96,1,160,2|0,0:2|0:0,0:0:0:0:
320,156,30030,6,0,P|394:145|428:91,2,120,2|2|2,0:0|0:0|0:0,0:0:0:0:
236,180,31363,2,0,P|216:216|176:244,2,80,2|2|2,0:0|0:0|0:0,0:0:0:0:
256,96,32363,5,4,0:0:0:0:
79,96,33030,1,0,0:0:0:0:
16,260,33697,1,0,0:0:0:0:
168,348,34363,1,0,0:0:0:0:
340,316,35030,2,0,P|408:268|420:180,1,160
432,108,36030,6,0,L|524:72,2,80,2|2|2,0:0|0:0|0:0,0:0:0:0:
343,108,37030,2,2,L|243:68,1,80
184,52,37697,5,0,0:0:0:0:
44,156,38363,1,0,0:0:0:0:
104,320,39030,1,0,0:0:0:0:
280,300,39697,1,0,0:0:0:0:
448,344,40363,6,0,B|469:299|458:266|413:245|413:245|369:223|358:190|379:146,1,240,0|0,0:0|0:2,0:0:0:0:
464,116,41697,2,2,P|384:56|292:168,1,240,0|2,0:1|0:1,0:1:0:0:
240,204,43030,6,0,P|179:173|113:192,2,120,4|0|0,0:0|0:0|0:0,0:0:0:0:
281,285,44363,2,0,P|210:289|166:258,2,120,0|0|0,1:3|0:0|0:0,0:0:0:0:
364,259,45697,6,2,P|386:113|308:65,1,240,2|10,0:0|0:0,0:0:0:0:
236,68,47030,2,0,P|176:56|128:-12,2,120,2|2|2,0:0|0:0|0:0,0:0:0:0:
256,156,48363,6,0,B|300:172|312:212|312:212|312:272,2,120,4|2|2,0:0|0:2|0:2,0:0:0:0:
168,136,49697,2,0,P|129:132|88:136,1,80,0|0,0:2|0:0,0:0:0:0:
36,208,50363,2,0,P|32:246|36:292,1,80,2|2,0:2|0:2,0:0:0:0:
100,348,51030,6,2,B|216:394|216:301|332:348,1,240,2|2,0:0|0:0,0:0:0:0:
416,372,52363,2,2,P|464:312|440:232,1,160
364,84,53697,6,0,P|420:60|492:92,2,120,4|0|0,0:0|0:0|0:0,0:0:0:0:
328,164,55030,2,0,P|272:188|200:156,2,120,2|0|0,0:2|0:0|0:0,0:0:0:0:
268,100,56363,6,2,P|184:48|72:116,1,240,2|2,0:0|0:0,0:0:0:0:
60,200,57697,2,0,B|35:276|35:276|-7:316,2,120,2|2|2,0:0|0:0|0:0,0:0:0:0:
148,200,59030,6,0,B|172:276|172:276|215:316,2,120,4|2|2,0:0|0:2|0:2,0:0:0:0:
232,168,60363,2,0,P|272:164|308:140,1,80
347,64,61030,2,0,P|376:91|392:128,1,80,2|2,0:2|0:2,0:0:0:0:
428,208,61697,6,2,B|401:268|330:256|330:256|304:324|231:312,1,240,2|2,0:0|0:0,0:0:0:0:
152,276,63030,2,2,P|100:216|120:124,1,160
256,44,64363,5,4,0:0:0:0:
418,112,65030,1,2,0:2:0:0:
440,288,65697,2,0,L|515:322,2,80,0|0|2,0:0|0:0|0:2,0:0:0:0:
292,196,67030,6,0,P|214:174|126:200,1,160,0|2,0:0|0:2,0:0:0:0:
212,352,68363,1,0,0:0:0:0:
368,276,69030,2,0,P|402:195|378:127,1,160,2|0,0:2|0:0,0:0:0:0:
204,140,70363,6,0,L|244:228,1,80,0|2,0:0|0:2,0:0:0:0:
413,213,71363,2,0,L|376:129,2,80,0|2|0,0:0|0:2|0:0,0:0:0:0:
429,299,72363,1,0,0:0:0:0:
256,272,73030,1,0,0:0:0:0:
188,328,73363,6,0,P|124:324|80:264,2,120
256,272,74697,1,0,0:0:0:0:
316,336,75030,6,0,P|428:300|490:198,1,240,2|8,0:2|0:0,0:0:0:0:
409,161,76363,2,0,P|355:245|237:186,1,240,0|8,0:0|0:0,0:0:0:0:
322,164,77697,6,0,B|281:95|281:95|304:50|280:5,1,160,2|0,0:2|0:0,0:0:0:0:
205,51,78697,1,8,0:0:0:0:
124,17,79030,2,0,B|109:58|121:100|156:124|156:124|172:191|100:236,1,240,2|8,0:2|0:0,0:0:0:0:
48,284,80363,6,0,P|48:332|72:364,2,80,8|8|2,0:0|0:0|0:2,0:0:0:0:
208,212,81697,2,0,L|267:271,1,80
328,328,82363,1,2,0:2:0:0:
444,196,83030,6,0,L|500:252,2,80,8|8|2,0:0|0:0|0:2,0:0:0:0:
276,144,84363,2,0,L|206:191,1,80
136,236,85030,1,2,0:2:0:0:
256,364,85697,5,4,0:1:0:0:
256,124,87697,1,0,0:0:0:0:
256,300,88363,5,4,0:1:0:0:
327,52,89697,2,0,P|255:23|184:53,1,160,4|0,0:0|2:0,0:0:0:0:
256,192,91030,12,4,93697,0:0:0:0:
372,192,95030,6,0,B|312:248|333:338|333:338|257:366|257:366|181:342,1,320,0|4,0:0|0:0,0:0:0:0:
88,192,97030,6,0,P|111:117|176:73,1,160
256,228,98363,1,0,0:0:0:0:
336,72,99030,2,2,P|400:116|424:192,1,160,0|0,0:0|0:0,0:0:0:0:
344,348,100363,6,2,P|381:360|429:356,2,80,2|2|2,0:0|0:0|0:0,0:0:0:0:
264,312,101363,1,2,0:0:0:0:
192,264,101697,2,0,P|156:240|124:128,1,160,4|0,0:0|0:0,0:0:0:0:
65,62,102697,2,0,P|100:44|140:44,1,80
204,104,103363,1,0,0:0:0:0:
260,172,103697,6,0,L|324:244,2,80,0|0|2,0:0|0:0|0:0,0:0:0:0:
84,180,105030,2,2,L|20:104,2,80
200,312,106363,2,2,P|232:336|284:352,1,80,2|2,0:0|0:0,0:0:0:0:
355,361,107030,6,0,P|449:338|511:269,1,160,4|0,0:0|0:0,0:0:0:0:
360,184,108363,1,0,0:0:0:0:
436,24,109030,1,0,0:0:0:0:
259,33,109697,2,2,P|205:91|184:168,1,160,2|2,0:0|0:0,0:0:0:0:
208,342,111030,6,2,L|130:320,1,80
125,232,111697,2,2,L|48:210,2,80,2|2|4,0:0|0:0|0:0,0:0:0:0:
296,271,113030,2,0,P|333:279|372:298,1,80
444,348,113697,1,0,0:0:0:0:
488,181,114363,2,0,P|480:137|456:74,1,80
416,32,115030,6,0,B|304:64|288:208|288:208|288:240|256:240|224:240|224:208|224:208|208:64|96:32,1,560
256,192,117697,12,2,120363,0:2:0:0:
73,189,121697,6,0,P|93:129|165:101,2,120,0|2|2,0:2|0:2|0:2,0:0:0:0:
161,189,123030,2,0,B|201:181|225:141|225:141|261:145|297:201,1,160
337,353,124363,2,0,P|281:365|217:353,2,120,0|2|2,0:0|0:2|0:2,0:0:0:0:
425,341,125697,6,0,B|393:267|393:267|424:194|424:194|385:113,1,240
364,36,127030,2,0,B|400:20|448:48|448:48|492:128,2,160,0|0|0,0:0|0:0|0:0,2:2:0:0:
276,56,128697,2,0,L|200:100,1,80
123,123,129363,6,0,B|115:63|115:63|163:19,2,120,4|4|0,0:0|0:0|0:0,0:0:0:0:
156,204,130697,1,4,0:0:0:0:
70,224,131030,6,0,P|86:316|218:312,1,240,2|8,0:2|0:0,0:0:0:0:
300,318,132363,2,0,P|410:329|442:223,1,240,0|8,0:0|0:0,0:0:0:0:
452,136,133697,6,0,B|372:136|372:136|320:72,1,160,2|0,0:2|0:0,0:0:0:0:
256,16,134697,1,8,0:0:0:0:
192,76,135030,2,0,B|140:139|140:139|64:140|64:140|24:176|52:216,1,240,2|8,0:2|0:0,0:0:0:0:
72,300,136363,6,0,L|4:344,2,80,8|8|2,0:0|0:0|0:2,0:0:0:0:
240,352,137697,2,0,L|308:304,1,80
376,256,138363,1,2,0:2:0:0:
376,79,139030,6,0,B|420:80|420:80|460:48,2,80,8|8|2,0:0|0:0|0:2,0:0:0:0:
199,79,140363,2,0,L|140:145,1,80
140,228,141030,1,2,0:2:0:0:
256,360,141697,5,4,0:1:0:0:
256,120,143697,1,4,0:0:0:0:
330,282,144363,6,0,P|256:308|182:282,1,160,4|0,0:1|2:0,0:0:0:0:
112,120,145697,2,0,P|256:61|400:121,1,320,4|6,0:0|2:2,0:0:0:0:
472,192,163030,5,2,0:0:0:0:
311,192,163697,2,0,B|276:264|276:264|196:264,1,160,0|0,0:0|0:0,0:0:0:0:
36,260,165030,2,0,P|44:180|108:124,1,160,2|0,0:0|0:0,0:0:0:0:
256,96,166363,2,0,L|256:188,1,80,0|2,0:0|0:2,0:0:0:0:
452,316,167697,2,0,L|452:228,1,80,0|2,0:0|0:2,0:0:0:0:
452,150,168363,5,2,0:0:0:0:
386,6,169030,2,0,B|326:58|326:58|326:138,1,160
436,260,170363,2,0,P|376:308|288:304,1,160,2|0,0:0|0:0,0:0:0:0:
140,272,171697,2,0,L|35:309,1,80,0|2,0:0|0:2,0:0:0:0:
124,68,173030,2,0,L|211:40,1,80,0|2,0:0|0:2,0:0:0:0:
285,23,173697,5,2,0:0:0:0:
444,32,174363,2,0,B|498:90|498:90|500:176,1,160
397,293,175697,2,0,P|325:325|253:281,1,160,2|0,0:0|0:0,0:0:0:0:
308,137,177030,2,0,L|356:59,1,80,0|2,0:0|0:2,0:0:0:0:
113,107,178363,2,0,L|68:180,1,80,0|2,0:0|0:2,0:0:0:0:
125,245,179030,6,2,P|99:311|9:299,2,160,2|0|0,0:2|0:0|0:0,0:0:0:0:
292,192,181030,6,0,B|352:188|384:124|368:76|368:76|292:47,1,240,2|0,0:0|0:0,0:0:0:0:
208,20,182363,1,2,0:2:0:0:
116,172,183030,2,0,L|192:148,1,80
244,220,183697,2,0,L|144:252,1,80
84,272,184363,5,2,0:2:0:0:
332,328,186363,2,0,P|256:349|180:328,1,160,2|0,0:2|0:0,0:0:0:0:
256,192,189030,12,0,195030,0:0:0:0:
158,121,197697,6,0,P|203:61|284:44,1,160,0|0,0:0|0:0,0:0:0:0:
367,67,198697,1,0,0:0:0:0:
428,129,199030,1,0,0:0:0:0:
485,295,199697,2,0,L|403:305,1,80
320,320,200363,6,2,P|172:326|138:182,2,320,4|2|6,0:0|0:0|0:0,0:0:0:0:
408,168,203697,6,0,L|347:115,1,80
300,40,204363,1,0,0:0:0:0:
212,40,204697,1,0,0:0:0:0:
168,116,205030,2,0,L|107:168,1,80,0|0,0:0|0:0,0:0:0:0:
148,248,205697,6,2,P|256:346|364:248,2,320,2|2|6,0:0|0:0|0:0,0:0:0:0:
100,80,209030,6,0,B|136:68|136:68|172:36,1,80
256,24,209697,1,0,0:0:0:0:
344,40,210030,2,0,B|376:68|376:68|412:80,1,80
475,140,210697,1,0,0:0:0:0:
424,212,211030,6,2,P|385:326|218:282,2,320,2|2|6,0:0|0:0|0:0,0:0:0:0:
364,144,214030,6,0,L|281:106,1,80
204,116,214697,1,0,0:0:0:0:
204,204,215030,2,0,L|276:237,1,80
316,316,215697,1,0,0:0:0:0:
256,192,216363,12,0,217697,0:0:0:0:
192,188,219030,6,0,B|256:140|256:140|320:188,2,160,4|0|0,0:0|0:0|0:0,0:0:0:0:
68,316,221030,1,0,0:0:0:0:
156,324,221363,1,0,0:0:0:0:
244,316,221697,6,0,P|348:300|408:260,1,160
492,128,223030,2,0,L|468:44,2,80
492,304,224363,6,0,P|408:304|320:292,1,160
156,272,225697,1,0,0:0:0:0:
106,201,226030,1,0,0:0:0:0:
57,130,226363,2,0,P|117:106|212:87,1,160
384,72,227697,6,0,L|448:16,2,80
207,72,229030,2,0,L|136:8,2,80,0|0|4,0:0|0:0|0:0,0:0:0:0:
369,140,230363,6,0,P|404:158|426:190,1,80,0|0,0:0|0:0,0:0:0:0:
346,226,231030,1,0,0:0:0:0:
312,307,231363,2,0,P|356:314|408:287,2,80
256,240,232363,6,2,P|167:237|131:181,1,160
216,163,233363,1,8,0:0:0:0:
305,158,233697,2,2,P|392:164|430:222,1,160
343,238,234697,1,10,0:0:0:0:
256,240,235030,6,0,L|279:317,1,80,4|2,0:0|0:0,0:0:0:0:
191,318,235697,2,0,L|167:240,1,80,2|2,0:0|0:0,0:0:0:0:
170,153,236364,2,2,L|189:75,1,80
278,82,237030,2,0,L|258:159,2,80,2|2|4,0:0|0:0|0:0,0:0:0:0:
364,61,238030,6,0,B|439:35|439:35|462:73|500:85|500:85|503:177,1,240,8|0,0:0|0:0,0:0:0:0:
412,316,239697,2,0,B|380:337|380:337|338:336,1,80
256,308,240363,5,2,0:2:0:0:
184,80,242363,2,0,P|256:50|328:80,1,160,2|2,0:2|0:2,2:2:0:0:
256,192,243363,12,0,249697,0:0:0:0:
