osu file format v14

[General]
AudioFilename: audio.mp3
AudioLeadIn: 0
PreviewTime: 130
Countdown: 0
SampleSet: Soft
StackLeniency: 0.7
Mode: 2
LetterboxInBreaks: 0
WidescreenStoryboard: 0

[Editor]
Bookmarks: 42501
DistanceSpacing: 1.4
BeatDivisor: 4
GridSize: 8
TimelineZoom: 2.6

[Metadata]
Title:kyun
TitleUnicode:kyun
Artist:Subaru
ArtistUnicode:Subaru
Creator:Time-
Version:~
Source:
Tags:subarukyun ferris sand canyon felix felis kirby
BeatmapID:1092246
BeatmapSetID:514128

[Difficulty]
HPDrainRate:5.3
CircleSize:4
OverallDifficulty:9.2
ApproachRate:9.2
SliderMultiplier:1.9
SliderTickRate:2

[Events]
//Background and Video events
0,0,"subarukyun.jpg",0,0
//Break Periods
//Storyboard Layer 0 (Background)
//Storyboard Layer 1 (Fail)
//Storyboard Layer 2 (Pass)
//Storyboard Layer 3 (Foreground)
//Storyboard Sound Samples

[TimingPoints]
224,375.586854460094,4,2,0,42,1,0
6233,-50,4,2,0,42,0,0
9238,-100,4,2,0,42,0,0
17500,-50,4,2,0,42,0,0
17876,-100,4,2,0,42,0,0
19097,379.746835443038,4,2,0,42,1,0
21361,377.358490566038,4,2,0,42,1,0
22860,375,4,2,0,42,1,0
23610,-50,4,2,0,42,0,0
24360,-100,4,2,0,42,0,0
27360,-66.6666666666667,4,2,0,42,0,0
28860,-100,4,2,0,42,0,0
29797,-66.6666666666667,4,2,0,42,0,0
29985,-100,4,2,0,42,0,0
32610,-66.6666666666667,4,2,0,42,0,0
32797,-100,4,2,0,42,0,0
45453,187.5,4,2,0,42,1,0
46203,375,4,2,0,42,1,0
53703,-66.6666666666667,4,2,0,42,0,0
54078,-76.9230769230769,4,2,0,42,0,0
54265,-100,4,2,0,42,0,0
57359,375,4,2,0,42,1,0
62000,-66.6666666666667,4,2,0,42,0,0

[HitObjects]
208,288,224,6,0,L|80:240,1,95,0|8,0:0|0:0,0:0:0:0:
71,254,505,1,0,0:0:0:0:
120,192,599,1,0,0:0:0:0:
400,104,787,2,0,L|456:104,2,47.5,8|0|0,0:0|0:0|0:0,0:0:0:0:
120,112,1162,2,0,L|192:112,2,47.5,8|0|0,0:0|0:0|0:0,0:0:0:0:
288,272,1726,6,0,L|416:224,1,95,2|8,0:0|0:0,0:0:0:0:
280,208,2008,1,0,0:0:0:0:
176,192,2101,2,0,L|119:161,1,47.5,8|0,0:0|0:0,0:0:0:0:
408,128,2289,2,0,L|351:97,1,47.5,8|0,0:0|0:0,0:0:0:0:
152,96,2477,1,0,0:0:0:0:
328,96,2665,1,8,0:0:0:0:
104,264,2853,1,4,0:0:0:0:
256,272,3228,6,0,L|384:224,1,95,0|8,0:0|0:0,0:0:0:0:
176,208,3604,2,0,L|304:160,1,95,0|8,0:0|0:0,0:0:0:0:
80,136,3979,1,0,0:0:0:0:
344,96,4167,2,0,L|400:96,2,47.5,8|0|0,0:0|0:0|0:0,0:0:0:0:
200,240,4731,6,0,L|111:206,1,95,0|8,0:0|0:0,0:0:0:0:
200,176,5012,1,0,0:0:0:0:
288,152,5106,2,0,L|416:104,1,95,0|8,0:0|0:0,0:0:0:0:
288,104,5388,1,0,0:0:0:0:
200,88,5482,2,0,L|72:40,1,95,8|8,0:0|0:0,0:0:0:0:
328,224,5857,1,4,0:0:0:0:
176,288,6233,6,0,P|32:224|184:96,1,380,2|0,0:1|0:0,0:0:0:0:
336,144,6796,1,0,0:0:0:0:
224,136,6890,1,0,0:0:0:0:
112,120,6984,2,0,P|256:184|112:264,1,380,2|0,0:1|0:0,0:0:0:0:
272,232,7547,1,0,0:0:0:0:
432,336,7735,2,0,L|192:168,1,285,2|0,0:1|0:0,0:0:0:0:
80,336,8111,2,0,L|320:168,1,285,2|0,0:1|0:0,0:0:0:0:
392,256,8486,2,0,P|248:192|400:64,1,380,2|0,0:1|0:0,0:0:0:0:
160,136,9050,1,0,0:0:0:0:
400,296,9238,6,0,L|224:296,1,142.5,2|0,0:1|0:0,0:0:0:0:
88,240,9613,2,0,L|216:192,1,95,8|0,0:0|0:0,0:0:0:0:
328,160,9989,2,0,L|152:160,1,142.5,2|0,0:1|0:0,0:0:0:0:
344,128,10364,2,0,L|472:80,1,95,8|0,0:0|0:0,0:0:0:0:
128,264,10740,2,0,L|0:216,1,95,2|0,0:1|0:0,0:0:0:0:
336,248,11116,2,0,L|464:200,1,95,2|0,0:1|0:0,0:0:0:0:
144,160,11491,2,0,L|16:112,1,95,2|0,0:1|0:0,0:0:0:0:
352,144,11867,2,0,L|480:96,1,95,2|0,0:1|0:0,0:0:0:0:
152,312,12242,6,0,L|112:200,1,95,0|8,0:0|0:0,0:0:0:0:
272,232,12618,2,0,L|232:120,1,95,0|8,0:0|0:0,0:0:0:0:
368,104,12993,1,0,0:0:0:0:
88,160,13181,1,8,0:0:0:0:
352,288,13369,1,8,0:0:0:0:
144,280,13745,5,8,0:0:0:0:
296,208,13932,1,8,0:0:0:0:
344,208,14026,1,0,0:0:0:0:
392,208,14120,1,0,0:0:0:0:
104,120,14308,1,8,0:0:0:0:
312,152,14496,1,0,0:0:0:0:
56,288,14684,1,8,0:0:0:0:
360,320,14871,1,8,0:0:0:0:
160,232,15247,6,0,L|64:144,1,95,0|8,0:0|0:0,0:0:0:0:
224,152,15623,2,0,L|320:64,1,95,0|8,0:0|0:0,0:0:0:0:
144,112,15998,1,0,0:0:0:0:
288,224,16186,2,0,L|344:224,2,47.5,8|0|0,0:0|0:0|0:0,0:0:0:0:
144,224,16562,1,8,0:0:0:0:
368,136,16749,1,8,0:0:0:0:
168,104,16937,1,8,0:0:0:0:
368,240,17125,2,0,L|240:192,1,95,0|8,0:0|0:0,0:0:0:0:
80,304,17500,2,0,P|224:256|128:128,1,285,2|0,0:1|0:0,0:0:0:0:
128,104,17876,1,4,0:0:0:0:
376,144,18252,6,0,L|168:144,1,190,2|0,0:1|0:0,0:0:0:0:
312,296,19097,2,0,L|400:262,1,95,2|0,0:1|0:0,0:0:0:0:
320,216,19381,1,0,0:0:0:0:
240,192,19476,1,8,0:0:0:0:
88,160,19666,1,0,0:0:0:0:
384,320,19856,2,0,L|328:104,1,190,2|8,0:1|0:0,0:0:0:0:
272,200,20331,1,0,0:0:0:0:
208,264,20426,1,0,0:0:0:0:
80,304,20615,2,0,L|224:224,1,142.5,2|0,0:1|0:0,0:0:0:0:
272,208,20995,1,8,0:0:0:0:
344,176,21090,1,0,0:0:0:0:
288,144,21185,1,0,0:0:0:0:
136,128,21361,6,0,L|224:94,1,95,2|0,0:1|0:0,0:0:0:0:
304,88,21644,1,0,0:0:0:0:
464,304,21738,2,0,L|376:270,1,95,2|0,0:1|0:0,0:0:0:0:
280,264,22021,1,0,0:0:0:0:
40,224,22115,2,0,L|128:190,1,95,2|0,0:1|0:0,0:0:0:0:
232,176,22402,1,0,0:0:0:0:
416,160,22493,2,0,L|328:126,1,95,2|0,0:1|0:0,0:0:0:0:
48,312,22864,6,0,L|160:264,1,95,2|0,0:1|0:0,0:0:0:0:
264,256,23145,1,0,0:0:0:0:
440,224,23239,2,0,L|352:190,1,95,8|0,0:0|0:0,0:0:0:0:
176,80,23614,2,0,P|56:192|192:312,1,380,4|2,0:0|0:1,0:0:0:0:
272,264,24082,1,0,0:0:0:0:
368,208,24176,1,0,0:0:0:0:
376,128,24364,6,0,L|288:94,1,95,0|8,0:0|0:0,0:0:0:0:
224,136,24645,1,0,0:0:0:0:
152,216,24739,2,0,L|240:182,1,95,0|8,0:0|0:0,0:0:0:0:
152,144,25020,1,0,0:0:0:0:
40,128,25114,2,0,L|128:94,1,95,0|8,0:0|0:0,0:0:0:0:
248,88,25395,1,0,0:0:0:0:
384,88,25489,1,4,0:0:0:0:
208,336,25864,6,0,L|120:302,1,95,0|8,0:0|0:0,0:0:0:0:
200,256,26145,1,0,0:0:0:0:
456,184,26239,1,8,0:0:0:0:
376,208,26332,1,0,0:0:0:0:
176,144,26426,1,8,0:0:0:0:
256,120,26519,1,0,0:0:0:0:
416,64,26614,1,0,0:0:0:0:
208,160,26801,1,0,0:0:0:0:
416,288,26989,1,4,0:0:0:0:
152,208,27364,6,0,L|304:208,1,142.500005435944,0|8,0:0|0:0,0:0:0:0:
448,152,27739,2,0,L|280:152,1,142.500005435944,0|8,0:0|0:0,0:0:0:0:
104,152,28114,1,0,0:0:0:0:
264,96,28301,2,0,L|336:96,2,71.2500027179719,8|0|4,0:0|0:0|0:0,0:0:0:0:
96,288,28864,5,0,0:0:0:0:
280,200,29051,1,8,0:0:0:0:
192,200,29145,1,0,0:0:0:0:
88,200,29239,1,0,0:0:0:0:
248,96,29426,1,8,0:0:0:0:
336,96,29520,1,0,0:0:0:0:
440,96,29614,1,0,0:0:0:0:
192,240,29801,2,0,L|336:240,1,142.500005435944,8|4,0:0|0:0,0:0:0:0:
128,200,30364,6,0,L|184:200,2,47.5,2|0|8,0:1|0:0|0:0,0:0:0:0:
432,224,30739,2,0,L|376:224,2,47.5,2|0|8,0:1|0:0|0:0,0:0:0:0:
152,88,31114,2,0,L|96:88,2,47.5,2|0|4,0:1|0:0|0:0,0:0:0:0:
312,88,31676,1,8,0:0:0:0:
200,208,31864,2,0,L|128:208,1,47.5,2|0,0:1|0:0,0:0:0:0:
280,280,32051,2,0,L|224:280,1,47.5,8|0,0:0|0:0,0:0:0:0:
360,216,32239,2,0,L|280:216,1,47.5,2|0,0:1|0:0,0:0:0:0:
440,136,32426,1,8,0:0:0:0:
192,240,32614,2,0,L|336:240,1,142.500005435944,8|4,0:0|0:0,0:0:0:0:
224,224,33176,6,0,L|129:224,1,95,0|2,0:0|0:1,0:0:0:0:
376,96,33551,2,0,L|471:96,1,95,0|2,0:0|0:1,0:0:0:0:
112,80,33926,1,0,0:0:0:0:
392,280,34114,2,0,L|312:280,2,47.5,2|0|6,0:1|0:0|0:0,0:0:0:0:
192,224,34676,1,8,0:0:0:0:
352,328,34864,1,0,0:0:0:0:
400,264,34957,1,0,0:0:0:0:
368,192,35051,1,8,0:0:0:0:
296,168,35145,1,0,0:0:0:0:
120,200,35239,2,0,L|48:184,1,47.5,8|0,0:0|0:0,0:0:0:0:
320,96,35426,2,0,L|392:80,1,47.5,8|0,0:0|0:0,0:0:0:0:
104,48,35614,2,0,L|32:32,1,47.5,8|0,0:0|0:0,0:0:0:0:
264,280,35989,6,0,P|176:208|232:136,1,190,2|0,0:1|0:0,0:0:0:0:
440,200,36457,1,0,0:0:0:0:
387,141,36551,1,2,0:1:0:0:
316,107,36644,1,0,0:0:0:0:
238,102,36738,1,0,0:0:0:0:
48,232,36832,1,0,0:0:0:0:
101,173,36925,1,2,0:1:0:0:
172,139,37020,1,0,0:0:0:0:
250,134,37113,1,0,0:0:0:0:
424,224,37207,2,0,L|472:224,2,47.5,0|2|0,0:0|0:1|0:0,0:0:0:0:
304,96,37582,1,2,0:1:0:0:
200,160,37675,1,0,0:0:0:0:
304,240,37769,1,2,0:1:0:0:
184,288,37863,1,0,0:0:0:0:
80,288,37957,6,0,L|48:152,1,95,0|8,0:0|0:0,0:0:0:0:
248,176,38332,2,0,L|280:40,1,95,0|8,0:0|0:0,0:0:0:0:
176,72,38613,1,0,0:0:0:0:
80,64,38707,1,2,0:1:0:0:
168,136,38800,1,0,0:0:0:0:
80,208,38894,1,2,0:1:0:0:
176,256,38988,1,0,0:0:0:0:
432,120,39082,5,2,0:1:0:0:
344,184,39175,1,0,0:0:0:0:
432,264,39269,1,2,0:1:0:0:
328,312,39363,1,0,0:0:0:0:
176,312,39457,2,0,L|88:256,1,95,2|8,0:1|0:0,0:0:0:0:
368,184,39832,2,0,L|456:128,1,95,2|8,0:1|0:0,0:0:0:0:
184,208,40207,1,2,0:1:0:0:
328,208,40394,1,0,0:0:0:0:
120,112,40582,1,2,0:1:0:0:
328,104,40957,5,2,0:1:0:0:
408,104,41050,1,0,0:0:0:0:
160,248,41238,1,0,0:0:0:0:
360,248,41332,1,2,0:1:0:0:
216,168,41519,1,0,0:0:0:0:
376,96,41707,1,2,0:1:0:0:
104,152,41894,1,8,0:0:0:0:
408,320,42082,1,2,0:1:0:0:
224,280,42269,1,8,0:0:0:0:
136,248,42363,1,0,0:0:0:0:
48,208,42457,5,0,0:0:0:0:
224,176,42551,1,8,0:0:0:0:
312,144,42645,1,0,0:0:0:0:
400,104,42739,5,0,0:0:0:0:
128,48,42832,1,8,0:0:0:0:
288,112,43019,1,0,0:0:0:0:
136,152,43207,5,0,0:0:0:0:
224,200,43301,1,8,0:0:0:0:
320,248,43394,1,8,0:0:0:0:
424,80,43582,1,8,0:0:0:0:
312,144,43675,1,0,0:0:0:0:
424,224,43769,1,8,0:0:0:0:
304,272,43863,1,0,0:0:0:0:
120,320,43957,6,0,P|80:256|152:184,1,190,2|8,0:1|0:0,0:0:0:0:
248,192,44425,1,0,0:0:0:0:
344,144,44519,1,8,0:0:0:0:
253,58,44613,1,0,0:0:0:0:
128,56,44707,1,4,0:0:0:0:
280,256,45082,2,0,L|400:256,1,95
80,336,45457,2,0,B|176:336|176:336|96:264|96:264|240:152|240:152|160:195|160:195|328:104|328:104|200:72,1,760
352,72,46394,1,8,0:0:0:0:
424,72,46488,1,0,0:0:0:0:
352,128,46582,1,0,0:0:0:0:
224,112,46769,1,8,0:0:0:0:
98,150,46957,1,2,0:1:0:0:
32,216,47050,1,0,0:0:0:0:
104,304,47144,1,0,0:0:0:0:
192,336,47238,1,0,0:0:0:0:
448,296,47332,5,2,0:1:0:0:
384,232,47425,1,0,0:0:0:0:
304,208,47519,1,0,0:0:0:0:
208,208,47613,1,0,0:0:0:0:
56,200,47707,2,0,L|128:120,1,95,2|0,0:1|0:0,0:0:0:0:
240,112,47988,1,0,0:0:0:0:
368,112,48082,2,0,L|264:112,1,95,12|8,0:0|0:0,0:0:0:0:
88,128,48457,5,0,0:0:0:0:
168,128,48550,1,0,0:0:0:0:
264,128,48644,1,8,0:0:0:0:
432,224,48832,1,0,0:0:0:0:
352,224,48925,1,0,0:0:0:0:
256,224,49019,1,8,0:0:0:0:
56,128,49207,1,0,0:0:0:0:
152,128,49301,1,0,0:0:0:0:
256,128,49394,1,8,0:0:0:0:
368,128,49488,1,0,0:0:0:0:
280,208,49582,1,8,0:0:0:0:
184,264,49675,1,0,0:0:0:0:
336,312,49957,6,0,L|272:264,1,47.5,8|0,0:0|0:0,0:0:0:0:
128,264,50144,2,0,L|64:216,1,47.5,8|0,0:0|0:0,0:0:0:0:
248,200,50332,2,0,L|312:152,1,47.5,8|0,0:0|0:0,0:0:0:0:
440,152,50519,2,0,L|504:104,1,47.5,8|0,0:0|0:0,0:0:0:0:
304,176,50707,2,0,L|352:120,1,47.5
176,144,50894,2,0,L|208:80,1,47.5,8|0,0:0|0:0,0:0:0:0:
40,104,51082,2,0,L|56:40,1,47.5,8|0,0:0|0:0,0:0:0:0:
192,168,51457,5,8,0:0:0:0:
272,168,51550,1,0,0:0:0:0:
408,160,51738,2,0,L|440:120,1,47.5,0|8,0:0|0:0,0:0:0:0:
328,109,51925,1,0,0:0:0:0:
216,128,52019,2,0,L|248:88,1,47.5,8|0,0:0|0:0,0:0:0:0:
320,256,52207,2,0,L|352:216,1,47.5,8|0,0:0|0:0,0:0:0:0:
240,205,52394,1,8,0:0:0:0:
128,224,52488,2,0,L|160:184,1,47.5,0|8,0:0|0:0,0:0:0:0:
368,160,52863,1,0,0:0:0:0:
448,104,52957,6,0,L|353:104,1,95,2|0,0:1|0:0,0:0:0:0:
104,224,53332,2,0,L|232:224,1,95,2|0,0:1|0:0,0:0:0:0:
424,312,53707,2,0,B|376:176|272:144,1,213.750008153916,2|0,0:1|0:0,0:0:0:0:
152,176,54082,2,0,P|88:176|168:176,1,123.499994346619,2|0,0:1|0:0,0:0:0:0:
296,80,54457,5,2,0:1:0:0:
319,80,54503,1,0,0:0:0:0:
184,120,54734,2,0,L|168:128,1,11.875
304,208,54921,2,0,L|320:216,1,11.875,2|0,0:1|0:0,0:0:0:0:
168,240,55109,2,0,L|152:248,1,11.875,2|0,0:1|0:0,0:0:0:0:
440,144,55296,2,0,L|424:152,1,11.875,2|0,0:1|0:0,0:0:0:0:
253,186,55484,2,0,L|237:194,1,11.875,2|0,0:1|0:0,0:0:0:0:
64,128,55672,2,0,L|48:136,1,11.875,2|0,0:1|0:0,0:0:0:0:
384,216,55859,2,0,L|368:224,1,11.875,2|0,0:1|0:0,0:0:0:0:
200,296,56046,6,0,L|88:248,1,95,8|0,0:0|0:0,0:0:0:0:
232,208,56327,1,0,0:0:0:0:
352,136,56421,2,0,L|232:136,1,95,8|0,0:0|0:0,0:0:0:0:
64,136,56796,2,0,L|240:64,1,190,4|0,0:0|0:0,0:0:0:0:
248,264,57359,2,0,L|232:272,1,11.875,2|0,0:1|0:0,0:0:0:0:
392,232,57546,2,0,L|376:240,1,11.875,2|0,0:1|0:0,0:0:0:0:
216,232,57734,2,0,L|200:240,1,11.875,2|0,0:1|0:0,0:0:0:0:
48,232,57921,2,0,L|32:240,1,11.875,2|0,0:1|0:0,0:0:0:0:
320,160,58113,1,2,0:1:0:0:
408,160,58206,1,0,0:0:0:0:
320,160,58300,1,2,0:1:0:0:
128,128,58488,1,2,0:1:0:0:
40,128,58581,1,0,0:0:0:0:
128,128,58675,1,2,0:1:0:0:
288,184,58863,5,2,0:1:0:0:
88,272,59050,1,0,0:0:0:0:
248,96,59238,1,2,0:1:0:0:
312,96,59331,1,0,0:0:0:0:
392,96,59425,1,0,0:0:0:0:
96,104,59613,1,2,0:1:0:0:
184,104,59706,1,0,0:0:0:0:
96,104,59800,1,2,0:1:0:0:
208,96,60175,1,8,0:0:0:0:
304,96,60269,1,8,0:0:0:0:
400,96,60363,1,0,0:0:0:0:
152,256,60550,5,0,0:0:0:0:
64,200,60644,1,0,0:0:0:0:
168,112,60738,1,8,0:0:0:0:
456,208,60925,1,0,0:0:0:0:
352,152,61019,1,0,0:0:0:0:
456,64,61113,1,8,0:0:0:0:
168,256,61300,1,0,0:0:0:0:
64,200,61394,1,0,0:0:0:0:
168,112,61488,1,8,0:0:0:0:
424,160,61675,5,2,0:1:0:0:
328,152,61769,1,0,0:0:0:0:
64,296,61863,1,2,0:1:0:0:
160,288,61957,1,0,0:0:0:0:
384,224,62050,2,0,L|216:224,2,142.5,0|0|12,0:0|0:0|0:0,0:0:0:0:
112,160,62613,1,0,0:0:0:0:
48,160,62706,5,0,0:0:0:0:
136,232,62800,1,2,0:1:0:0:
48,232,62893,1,0,0:0:0:0:
152,304,62988,1,2,0:1:0:0:
48,304,63081,1,0,0:1:0:0:
416,320,63175,1,2,0:1:0:0:
400,240,63269,1,0,0:0:0:0:
312,240,63362,5,2,0:1:0:0:
408,168,63457,1,0,0:0:0:0:
288,160,63550,2,0,L|200:296,1,142.500005435944,2|0,0:1|0:0,0:0:0:0:
464,200,63925,2,0,L|304:200,1,142.500005435944,2|0,0:1|0:0,0:0:0:0:
32,224,64300,2,0,L|152:96,1,142.500005435944,2|2,0:1|0:1,0:0:0:0:
376,224,64675,2,0,L|216:216,1,142.500005435944,2|0,0:1|0:0,0:0:0:0:
480,80,65050,5,4,0:0:0:0:
384,80,65144,1,0,0:0:0:0:
104,208,65331,1,0,0:0:0:0:
200,208,65425,2,0,L|384:208,2,142.500005435944,4|0|4,0:0|0:0|0:0,0:0:0:0:
456,152,65988,1,0,0:0:0:0:
136,296,66175,1,4,0:0:0:0:
288,216,66363,1,0,0:0:0:0:
368,216,66456,1,0,0:0:0:0:
448,216,66550,1,12,0:0:0:0:
360,160,66644,1,0,0:0:0:0:
136,256,66738,5,8,0:0:0:0:
48,192,66831,1,0,0:0:0:0:
136,112,66925,1,12,0:0:0:0:
336,176,67019,1,0,0:0:0:0:
256,152,67113,1,8,0:0:0:0:
176,128,67206,1,0,0:0:0:0:
344,184,67300,1,12,0:0:0:0:
424,160,67394,1,0,0:0:0:0:
144,184,67488,1,8,0:0:0:0:
64,160,67582,1,0,0:0:0:0:
376,248,67675,1,12,0:0:0:0:
456,224,67769,1,0,0:0:0:0:
264,208,68050,5,8,0:0:0:0:
368,184,68144,1,4,0:0:0:0:
472,136,68238,1,8,0:0:0:0:
368,112,68332,1,0,0:0:0:0:
144,112,68425,1,8,0:0:0:0:
40,136,68519,1,4,0:0:0:0:
144,184,68613,1,8,0:0:0:0:
248,208,68706,1,0,0:0:0:0:
432,224,68800,2,0,L|352:224,1,71.2500027179719,8|4,0:0|0:0,0:0:0:0:
184,240,68988,2,0,L|264:240,1,71.2500027179719,8|4,0:0|0:0,0:0:0:0:
456,144,69175,1,8,0:0:0:0:
296,152,69425,5,8,0:0:0:0:
136,144,69597,1,4,0:0:0:0:
40,80,69691,1,0,0:0:0:0:
288,112,69878,1,4,0:0:0:0:
192,48,69972,1,0,0:0:0:0:
344,288,70175,1,12,0:0:0:0:
216,232,70363,1,8,0:0:0:0:
88,176,70550,1,12,0:0:0:0:
384,144,70738,1,8,0:0:0:0:
80,88,70925,1,4,0:0:0:0:
264,128,71144,5,4,0:0:0:0:
376,152,71237,1,0,0:0:0:0:
440,256,71331,1,0,0:0:0:0:
360,352,71425,1,4,0:0:0:0:
160,336,71519,1,0,0:0:0:0:
56,216,71613,1,0,0:0:0:0:
152,120,71706,1,4,0:0:0:0:
264,64,71800,1,0,0:0:0:0:
432,80,71894,1,0,0:0:0:0:
208,272,72222,1,4,0:0:0:0:
